<?xml version="1.0" standalone="no"?>
<!DOCTYPE svg PUBLIC "-//W3C//DTD SVG 1.1//EN" "http://www.w3.org/Graphics/SVG/1.1/DTD/svg11.dtd">
<svg xmlns="http://www.w3.org/2000/svg"><metadata>This SVG WebFont was generated by YouWorkForThem.
\(c\)2017 Oakes is a trademark of Samuel Oakes. All rights reserved.</metadata><defs><font horiz-adv-x="0" id="ywftsvg"><font-face ascent="1536" bbox="-1540 -721 2435 2105" cap-height="1536" descent="-512" font-family="" font-stretch="normal" font-weight="600" panose-1="0 0 4 0 0 0 0 0 0 0" underline-position="0" underline-thickness="0" unicode-range="U+000D-FB02" units-per-em="2048" x-height="1124"/><missing-glyph d="M162 1536h903v-1536h-903v1536zM870 197v1144h-514v-1144h514z" horiz-adv-x="1226"/><glyph d="M262 0v907h-166v197h166v76q0 147 85 249.5t228 116.5q74 6 148 -10t106 -39v-201q-47 29 -108.5 39.5t-122.5 -14.5q-78 -47 -78 -164v-53h244v-197h-244v-907h-258zM1128 1241q-59 0 -103 43t-44 104.5t44 104.5t103 43q61 0 104.5 -43t43.5 -104.5t-43.5 -104.5 t-104.5 -43zM993 1126h277v-1126h-277v1126z" glyph-name="uniFB01" horiz-adv-x="1404" unicode="fi"/><glyph d="M262 0v907h-166v197h166v76q0 147 85 249.5t228 116.5q74 6 148 -10t106 -39v-201q-47 29 -108.5 39.5t-122.5 -14.5q-78 -47 -78 -164v-53h244v-197h-244v-907h-258zM1059 0v1536h258v-1536h-258z" glyph-name="uniFB02" horiz-adv-x="1490" unicode="fl"/><glyph d="M162 1536h903v-1536h-903v1536zM870 197v1144h-514v-1144h514z" glyph-name=".notdef" horiz-adv-x="1226"/><glyph glyph-name="glyph1"/><glyph glyph-name="glyph2" horiz-adv-x="681"/><glyph glyph-name="space" horiz-adv-x="509" unicode=" "/><glyph d="M188 1536h238l-12 -1067h-213zM309 -6q-61 0 -105 44t-44 107q0 61 43 105.5t106 44.5q61 0 105.5 -44t44.5 -105.5t-45.5 -106.5t-104.5 -45z" glyph-name="exclam" horiz-adv-x="618" unicode="!"/><glyph d="M385 1538q47 0 81 -30.5t34 -90.5q0 -45 -20.5 -96t-41.5 -80l-20 -31h-74q-29 39 -51 95q-10 -25 -23.5 -48.5t-21.5 -35.5l-8 -11h-74q-78 106 -78 207q0 59 35 90t82 31q57 0 90 -39q33 39 90 39z" glyph-name="quotedbl" horiz-adv-x="585" unicode="&quot;"/><glyph d="M408 344h-289l24 184h289l64 420h-293l30 182h285l49 349h183l-48 -349h357l49 349h184l-51 -349h293l-31 -182h-286l-60 -420h287l-25 -184h-286l-52 -344h-180l47 344h-360l-47 -344h-183zM973 528l61 420h-358l-60 -420h357z" glyph-name="numbersign" horiz-adv-x="1650" unicode="#"/><glyph d="M797 891q102 -41 161.5 -70.5t134 -85t110.5 -130.5t36 -173q0 -190 -123 -304t-319 -140v-162h-179v156q-217 18 -350 153t-153 340h239q45 -213 264 -244v484l-16 6q-80 31 -127 51.5t-114.5 59t-103.5 77.5t-63.5 99.5t-27.5 132.5q0 172 129 282.5t323 128.5v144h179 v-146q379 -47 454 -473h-245q-10 84 -62.5 151.5t-146.5 92.5v-430zM440 1151q0 -109 178 -186v360q-80 -16 -129 -61t-49 -113zM797 238q170 41 172 190q0 125 -172 213v-403z" glyph-name="dollar" horiz-adv-x="1341" unicode="$"/><glyph d="M397 850q-131 0 -221 103.5t-90 248.5q0 147 90 250.5t221 103.5q129 0 219.5 -103t90.5 -251q0 -145 -90.5 -248.5t-219.5 -103.5zM1190 1536h266l-1040 -1536h-264zM397 1044q45 0 80 46.5t35 112t-35 112.5t-80 47q-47 0 -80.5 -46t-33.5 -114q0 -66 33.5 -112 t80.5 -46zM1212 -20q-129 0 -219 104t-90 249.5t90 250t219 104.5t219.5 -104.5t90.5 -250t-90.5 -249.5t-219.5 -104zM1212 176q47 0 81 45t34 112.5t-33.5 113t-81.5 45.5q-49 0 -82.5 -45.5t-33.5 -113t33.5 -112.5t82.5 -45z" glyph-name="percent" horiz-adv-x="1607" unicode="%"/><glyph d="M627 -20q-197 0 -339.5 131t-142.5 311q0 256 224 409q-127 147 -127 293q0 180 103.5 287t281.5 105q150 -2 252 -110t102 -259q0 -223 -233 -363l260 -258l161 308h269l-258 -476l338 -364h-330l-160 164q-172 -178 -401 -178zM592 948q162 78 162 201q0 66 -38 110 t-95 44q-150 0 -150 -179q0 -76 121 -176zM631 215q135 0 239 117l-348 338q-147 -88 -147 -238q0 -98 69.5 -157.5t186.5 -59.5z" glyph-name="ampersand" horiz-adv-x="1456" unicode="&amp;"/><glyph d="M223 1538q47 0 82 -30.5t35 -90.5q0 -45 -20.5 -96t-40.5 -80l-21 -31h-74q-78 106 -78 207q0 59 35 90t82 31z" glyph-name="quotesingle" horiz-adv-x="368" unicode="'"/><glyph d="M535 -436q-158 141 -265.5 414.5t-107.5 586.5q0 352 116.5 625.5t301.5 427.5h159q-172 -176 -270 -469t-98 -584q0 -270 99 -551.5t241 -451.5z" glyph-name="parenleft" horiz-adv-x="827" unicode="("/><glyph d="M344 1616q160 -141 267.5 -412.5t107.5 -587.5q0 -352 -117 -625.5t-301 -428.5h-160q172 178 271.5 471t99.5 583q0 270 -100.5 552t-241.5 450z" glyph-name="parenright" horiz-adv-x="827" unicode=")"/><glyph d="M158 1073l116 156l-194 -21v131l194 -22l-116 158l114 67l78 -180l80 180l115 -67l-119 -158l197 22v-131l-197 21l119 -156l-115 -67l-80 180l-78 -180z" glyph-name="asterisk" horiz-adv-x="700" unicode="*"/><glyph d="M702 526h-501v193h501v512h191v-512h502v-193h-502v-512h-191v512z" glyph-name="plus" horiz-adv-x="1591" unicode="+"/><glyph d="M162 2q-45 14 -73 54t-28 87q0 61 43 105.5t107 44.5q61 0 103 -43t42 -107q0 -55 -44 -139t-97 -149h-137z" glyph-name="comma" horiz-adv-x="460" unicode=","/><glyph d="M162 621h717v-175h-717v175z" glyph-name="hyphen" horiz-adv-x="1038" unicode="-"/><glyph d="M215 -20q-59 0 -105.5 45t-46.5 106.5t46.5 106.5t105.5 45q63 0 108.5 -45t45.5 -106.5t-45.5 -106.5t-108.5 -45z" glyph-name="period" horiz-adv-x="432" unicode="."/><glyph d="M920 1536h241l-979 -2048h-243z" glyph-name="slash" horiz-adv-x="1165" unicode="/"/><glyph d="M686 -20q-297 0 -441.5 211.5t-144.5 576.5q0 356 151.5 572t434.5 216q307 0 448.5 -210.5t141.5 -577.5t-141.5 -577.5t-448.5 -210.5zM686 207q332 0 332 561q0 563 -332 563q-328 0 -328 -563q0 -260 79 -410.5t249 -150.5z" glyph-name="zero" horiz-adv-x="1370" unicode="0"/><glyph d="M375 1241l-318 -246v287l334 254h242v-1536h-258v1241z" glyph-name="one" horiz-adv-x="856" unicode="1"/><glyph d="M90 186q186 195 286.5 302.5t195 212t132 152.5t68.5 100.5t37 80t6 66.5q0 113 -66.5 171t-160.5 60q-102 2 -168 -65.5t-60 -178.5l-247 3q-12 203 132 336t355 133q197 0 329 -120t134 -311q0 -47 -3 -84.5t-22.5 -85t-34 -79t-61.5 -93t-79 -99.5t-114.5 -127 t-139 -147.5t-179.5 -185.5h672v-227h-1012v186z" glyph-name="two" horiz-adv-x="1181" unicode="2"/><glyph d="M586 -20q-211 0 -363.5 131t-152.5 315l254 4q8 -94 83.5 -152.5t178.5 -58.5q106 0 180 70.5t74 185.5q0 106 -70 178t-174 72h-121l-2 205h109q84 0 140 58.5t56 146.5q0 78 -65.5 131t-157.5 53q-82 0 -144.5 -47t-64.5 -117l-248 4q2 172 139.5 284.5t317.5 112.5 q190 0 323.5 -115.5t133.5 -281.5q0 -90 -46 -165.5t-126 -123.5q117 -59 185.5 -163.5t68.5 -233.5q0 -213 -146.5 -353t-361.5 -140z" glyph-name="three" horiz-adv-x="1214" unicode="3"/><glyph d="M1163 324h-143v-324h-256v324h-733v163l667 1049h322v-985h143v-227zM764 551v729l-438 -729h438z" glyph-name="four" horiz-adv-x="1261" unicode="4"/><glyph d="M631 -20q-221 0 -364.5 117.5t-153.5 291.5h225q18 -80 99 -129t177 -45q127 4 208 86t81 207q0 127 -83 212t-206 85q-156 0 -264 -115l-209 96l78 746h846v-225h-645l-43 -375q115 98 303 98q209 0 345 -145.5t136 -366.5q0 -236 -149.5 -387t-380.5 -151z" glyph-name="five" horiz-adv-x="1261" unicode="5"/><glyph d="M662 -14q-201 0 -363 142t-186 357q-14 121 -15 246q0 360 134.5 572.5t396.5 240.5q45 4 63 4q207 0 351.5 -126t160.5 -302h-248q-6 86 -73.5 142.5t-180.5 56.5q-164 0 -263 -107.5t-122 -320.5q51 92 159 128t188 36q240 0 386 -140.5t160 -369.5q10 -229 -151 -394 t-397 -165zM659 199q133 0 224.5 92t91.5 223q0 137 -95.5 227t-234.5 90q-125 0 -211 -92t-86 -221q0 -135 90 -227t221 -92z" glyph-name="six" horiz-adv-x="1314" unicode="6"/><glyph d="M831 1311h-759v225h1044v-182l-737 -1354h-283z" glyph-name="seven" horiz-adv-x="1146" unicode="7"/><glyph d="M872 856q113 -61 178.5 -165.5t65.5 -233.5q0 -203 -149.5 -340t-372.5 -137q-221 0 -370.5 137t-149.5 340q0 129 64.5 233.5t176.5 163.5q-166 123 -165 305q0 168 129 282.5t315 114.5t315 -114.5t129 -282.5q0 -184 -166 -303zM596 1354q-92 0 -161.5 -62.5 t-69.5 -152.5t69.5 -152.5t161.5 -62.5q90 0 158.5 62.5t68.5 152.5t-68.5 152.5t-158.5 62.5zM594 207q111 0 186.5 79t75.5 191q0 111 -74.5 185.5t-187.5 74.5q-111 0 -186.5 -74.5t-75.5 -185.5q0 -113 75.5 -191.5t186.5 -78.5z" glyph-name="eight" horiz-adv-x="1187" unicode="8"/><glyph d="M649 -10q-211 0 -351 114.5t-159 303.5l252 -5q2 -78 71.5 -131t190.5 -53q31 0 47 2q127 14 205 122t99 280q-49 -57 -124 -91t-119 -41.5t-77 -7.5q-238 0 -390.5 144.5t-158.5 369.5q-8 229 154 396.5t395 167.5q213 0 368.5 -145.5t182.5 -364.5q14 -123 14 -250 q0 -377 -148.5 -594t-451.5 -217zM688 694q133 0 222 91.5t89 226.5q0 133 -91 224t-222 91q-133 0 -224 -94t-91 -225q0 -135 92 -224.5t225 -89.5z" glyph-name="nine" horiz-adv-x="1314" unicode="9"/><glyph d="M313 743q-63 0 -107 44t-44 106q0 63 44 107t107 44q61 0 106.5 -44t45.5 -107q0 -61 -45.5 -105.5t-106.5 -44.5zM313 -20q-63 0 -107 45t-44 106.5t44 106.5t107 45q61 0 106.5 -45t45.5 -106.5t-45.5 -106.5t-106.5 -45z" glyph-name="colon" horiz-adv-x="624" unicode=":"/><glyph d="M295 731q-59 0 -104.5 44t-45.5 106q0 59 45.5 104t104.5 45q63 0 106 -44t43 -105.5t-43 -105.5t-106 -44zM248 0q-45 16 -73 55t-28 86q0 63 44.5 106.5t105.5 43.5t103 -43t42 -107q0 -53 -43 -137t-98 -151h-137z" glyph-name="semicolon" horiz-adv-x="634" unicode=";"/><glyph d="M1292 1210l-932 -471l932 -471v-215l-1130 572v231l1130 567v-213z" glyph-name="less" horiz-adv-x="1452" unicode="&lt;"/><glyph d="M100 825h1229v-163h-1229v163zM100 426h1229v-166h-1229v166z" glyph-name="equal" horiz-adv-x="1427" unicode="="/><glyph d="M1292 856v-231l-1130 -572v215l930 471l-930 471v213z" glyph-name="greater" horiz-adv-x="1452" unicode=">"/><glyph d="M467 498q0 88 38 162.5t92 125t109.5 96.5t93.5 101t38 115q0 98 -74 163.5t-182 65.5q-117 0 -190 -76.5t-62 -191.5h-230q-12 209 126.5 351t355.5 142q205 0 344 -131t139 -323q0 -92 -57.5 -181.5t-126 -147.5t-126 -127t-57.5 -126v-123h-231v105zM590 -20 q-61 0 -105.5 44t-44.5 107.5t44 107.5t106 44q63 0 107 -44t44 -107.5t-44 -107.5t-107 -44z" glyph-name="question" horiz-adv-x="1165" unicode="?"/><glyph d="M688 -41q-274 0 -451.5 175t-177.5 446q0 268 189.5 456.5t456.5 188.5q262 0 430 -158t168 -403q0 -176 -82 -289t-213 -113q-125 0 -174 84q-86 -92 -201 -92q-123 0 -198 80t-75 213q0 154 94.5 263.5t227.5 109.5q88 0 147 -48l2 35h177l-45 -391q-14 -98 45 -98 t95 65.5t36 178.5q0 186 -118 295.5t-316 109.5q-205 0 -340.5 -138t-135.5 -347q0 -207 127 -336t332 -129v-158zM647 410q61 0 108.5 62.5t47.5 145.5q0 143 -115 144q-63 0 -107 -61.5t-44 -153.5q-1 -137 110 -137z" glyph-name="at" horiz-adv-x="1220" unicode="@"/><glyph d="M1124 334h-690l-127 -334h-289l617 1536h297l616 -1536h-286zM1049 565l-265 701l-272 -701h537z" glyph-name="A" horiz-adv-x="1568" unicode="A"/><glyph d="M977 797q135 -37 215 -136.5t80 -246.5q0 -188 -127 -301t-316 -113h-718v1536h624q190 0 317.5 -114.5t127.5 -303.5q0 -115 -56.5 -197.5t-146.5 -123.5zM915 1092q0 86 -62 149.5t-148 63.5h-330v-408h330q90 0 150 54.5t60 140.5zM793 233q88 0 149.5 63.5 t61.5 149.5q0 90 -62.5 162t-148.5 72h-418v-447h418z" glyph-name="B" horiz-adv-x="1312" unicode="B"/><glyph d="M819 -20q-215 0 -386 105t-264 285.5t-93 397.5q0 334 209 561t534 227q295 0 484.5 -168.5t207.5 -418.5h-256q-8 57 -36.5 112.5t-78.5 106.5t-133 83t-188 32q-225 0 -358 -152t-133 -383t133 -383t358 -152q186 0 302 100.5t134 219.5h256q-20 -221 -219 -396 t-473 -177z" glyph-name="C" horiz-adv-x="1642" unicode="C"/><glyph d="M129 1536h510q334 0 551 -200.5t217 -571.5q0 -358 -218 -561t-550 -203h-510v1536zM637 233q227 0 366.5 132.5t139.5 398.5q0 281 -138.5 411t-367.5 130h-244v-1072h244z" glyph-name="D" horiz-adv-x="1490" unicode="D"/><glyph d="M383 1305v-420h639v-234h-639v-418h725v-233h-991v1536h991v-231h-725z" glyph-name="E" horiz-adv-x="1222" unicode="E"/><glyph d="M385 1305v-420h625v-234h-625v-651h-266v1536h977v-231h-711z" glyph-name="F" horiz-adv-x="1153" unicode="F"/><glyph d="M1479 809v-262v-547h-179l-36 205q-82 -113 -198 -164t-286 -51q-328 0 -525.5 215t-197.5 557q0 350 197 566t514 216q272 0 459.5 -134t218.5 -390h-256q-27 131 -137.5 207t-259.5 76q-233 0 -361.5 -144.5t-128.5 -396.5q0 -238 139.5 -384.5t335.5 -146.5 q193 0 311.5 95.5t118.5 257.5h-383v225h654z" glyph-name="G" horiz-adv-x="1581" unicode="G"/><glyph d="M1380 1536v-1536h-266v651h-715v-651h-266v1536h266v-649h715v649h266z" glyph-name="H" horiz-adv-x="1513" unicode="H"/><glyph d="M133 1536h266v-1536h-266v1536z" glyph-name="I" horiz-adv-x="538" unicode="I"/><glyph d="M240 -20q-104 0 -162 20v270q68 -25 145 -24q53 0 93 39t40 94v1157h265v-1180q0 -166 -107.5 -271t-273.5 -105z" glyph-name="J" horiz-adv-x="759" unicode="J"/><glyph d="M1032 0l-643 694v-694h-266v1536h266v-696l563 696h310l-598 -758l716 -778h-348z" glyph-name="K" horiz-adv-x="1390" unicode="K"/><glyph d="M119 1536h266v-1303h533v-233h-799v1536z" glyph-name="L" horiz-adv-x="991" unicode="L"/><glyph d="M1751 1536v-1536h-264v1159l-416 -1159h-262l-420 1159v-1159h-266v1536h373l442 -1194l444 1194h369z" glyph-name="M" horiz-adv-x="1884" unicode="M"/><glyph d="M1479 1536v-1536h-267l-833 1128v-1128h-266v1536h268l833 -1126v1126h265z" glyph-name="N" horiz-adv-x="1607" unicode="N"/><glyph d="M819.5 -20q-327.5 0 -538.5 228t-211 560t211 560t538.5 228t538.5 -228t211 -560t-211 -560t-538.5 -228zM819 238q225 0 359.5 150.5t134.5 379.5q0 231 -134.5 381.5t-359.5 150.5t-360 -150.5t-135 -381.5q0 -229 135 -379.5t360 -150.5z" glyph-name="O" horiz-adv-x="1646" unicode="O"/><glyph d="M795 1536q184 0 315 -146.5t131 -337t-131 -334t-315 -143.5h-410v-575h-266v1536h676zM770 795q94 0 161.5 77.5t67.5 178.5q0 98 -67.5 176t-161.5 78h-385v-510h385z" glyph-name="P" horiz-adv-x="1294" unicode="P"/><glyph d="M1616 205v-205h-57q-156 0 -261 113l-22 20q-197 -154 -457 -153q-328 0 -538.5 228t-210.5 560t211 560t538.5 228t538.5 -228t211 -560q0 -270 -144 -475l35 -37q51 -51 135 -51h21zM819 238q162 0 281 81l-228 240l150 154l221 -230q70 127 70 285q0 231 -134.5 381.5 t-359.5 150.5t-360 -150.5t-135 -381.5q0 -229 135 -379.5t360 -150.5z" glyph-name="Q" horiz-adv-x="1648" unicode="Q"/><glyph d="M1305 0h-299l-367 592h-260v-592h-266v1536h675q184 0 315.5 -147.5t131.5 -337.5q0 -156 -93 -283t-235 -160zM778 801q92 0 153.5 71.5t61.5 180.5q0 106 -62.5 179t-152.5 73h-399v-504h399z" glyph-name="R" horiz-adv-x="1374" unicode="R"/><glyph d="M657 -20q-244 0 -396 138t-173 357h238q25 -104 105.5 -176t234.5 -72q129 0 206.5 50.5t79.5 150.5q0 39 -12 71.5t-46 61.5t-55.5 46.5t-82 43t-82 34.5t-94.5 36q-80 31 -130.5 51.5t-116 59t-103 77.5t-64.5 99.5t-27 132.5q0 188 155 301.5t374 113.5 q477 0 561 -473h-246q-12 100 -92 175t-217 75q-106 0 -184 -49t-78 -133q0 -35 19.5 -66.5t43 -52t74.5 -46t82 -38t98 -39.5q227 -90 309 -145q184 -127 185 -332q0 -217 -162 -334.5t-404 -117.5z" glyph-name="S" horiz-adv-x="1290" unicode="S"/><glyph d="M1190 1305h-445v-1305h-262v1305h-446v231h1153v-231z" glyph-name="T" horiz-adv-x="1241" unicode="T"/><glyph d="M731 -20q-258 0 -436 150.5t-178 367.5v1038h266v-991q0 -137 101.5 -234.5t247 -97.5t248.5 97.5t103 234.5v991h267v-1038q0 -217 -181.5 -367.5t-437.5 -150.5z" glyph-name="U" horiz-adv-x="1482" unicode="U"/><glyph d="M1532 1536l-617 -1536h-299l-616 1536h299l467 -1227l467 1227h299z" glyph-name="V" horiz-adv-x="1548" unicode="V"/><glyph d="M2253 1536l-441 -1536h-292l-367 1083l-338 -1083h-293l-473 1536h289l338 -1241l346 1241h264l373 -1243l307 1243h287z" glyph-name="W" horiz-adv-x="2308" unicode="W"/><glyph d="M1053 0l-369 567l-367 -567h-303l527 786l-504 750h303l344 -530l348 530h301l-506 -750l531 -786h-305z" glyph-name="X" horiz-adv-x="1372" unicode="X"/><glyph d="M817 727v-727h-264v723l-539 813h297l373 -586l377 586h293z" glyph-name="Y" horiz-adv-x="1368" unicode="Y"/><glyph d="M1243 233v-233h-1169v141l798 1164h-778v231h1137v-141l-801 -1162h813z" glyph-name="Z" horiz-adv-x="1320" unicode="Z"/><glyph d="M143 1745h488v-162h-264v-2142h264v-162h-488v2466z" glyph-name="bracketleft" horiz-adv-x="608" unicode="["/><glyph d="M-29 1536l373 -512l784 -1536l-370 512z" glyph-name="backslash" horiz-adv-x="1236" unicode="\"/><glyph d="M143 -559h265v2142h-265v162h488v-2466h-488v162z" glyph-name="bracketright" horiz-adv-x="608" unicode="]"/><glyph d="M1192 406l-469 929l-469 -929h-215l569 1130h230l569 -1130h-215z" glyph-name="asciicircum" horiz-adv-x="1445" unicode="^"/><glyph d="M162 0h1024v-172h-1024v172z" glyph-name="underscore" horiz-adv-x="1345" unicode="_"/><glyph d="M39 1536h260l174 -334h-197z" glyph-name="grave" horiz-adv-x="63" unicode="`"/><glyph d="M432 -14q-164 0 -266.5 89t-102.5 244q0 152 126 246t335 111l240 20v25q0 201 -205 201q-96 0 -161.5 -47.5t-73.5 -143.5h-232q14 174 130 290t345 116q211 0 331 -105.5t120 -314.5v-369q0 -141 88 -141v-207h-76q-59 2 -95 8t-79 36t-65 83q-47 -63 -145.5 -102 t-213.5 -39zM498 193q84 0 156.5 43t109.5 104v174l-189 -20q-242 -29 -241 -162q0 -63 47 -101t117 -38z" glyph-name="a" horiz-adv-x="1159" unicode="a"/><glyph d="M709 1137q227 0 372.5 -164t145.5 -410t-145.5 -409.5t-372.5 -163.5q-217 0 -347 153l-18 -143l-242 2v1536h277v-539q125 138 330 138zM657 229q129 0 211 96.5t82 237.5q0 143 -82 239.5t-211 96.5q-98 0 -172.5 -61.5t-105.5 -159.5v-227q29 -100 104.5 -161 t173.5 -61z" glyph-name="b" horiz-adv-x="1263" unicode="b"/><glyph d="M584 -10q-244 0 -391.5 160.5t-147.5 414.5t147.5 413t391.5 159q139 0 244.5 -41t166 -108.5t91 -139.5t38.5 -148h-247q-10 86 -87 146.5t-184 60.5q-137 0 -212 -93t-75 -249q0 -154 76 -249t213 -95q102 0 177 64.5t92 150.5h245q-10 -80 -40.5 -152.5t-89 -142 t-164 -110.5t-244.5 -41z" glyph-name="c" horiz-adv-x="1173" unicode="c"/><glyph d="M1180 1534v-1532l-242 -2l-23 133q-125 -143 -342 -143q-227 0 -371.5 160.5t-144.5 404.5q0 248 145.5 415t372.5 167q195 0 328 -144v541h277zM627 223q96 0 170.5 60.5t105.5 156.5v232q-31 98 -105.5 158.5t-170.5 60.5q-131 0 -212 -96.5t-81 -239.5 q0 -141 81 -236.5t212 -95.5z" glyph-name="d" horiz-adv-x="1265" unicode="d"/><glyph d="M1110 567q0 -39 -6 -88h-787q10 -127 89 -201.5t188 -74.5q199 0 268 151h225q-25 -152 -151.5 -258t-343.5 -106q-244 0 -393.5 161.5t-149.5 411.5q0 254 144.5 414t398.5 160q240 0 379 -155t139 -415zM590 920q-113 0 -180.5 -66t-85.5 -180h520q-33 246 -254 246z " glyph-name="e" horiz-adv-x="1161" unicode="e"/><glyph d="M262 0v907h-166v197h166v76q0 147 85 249.5t228 116.5q74 6 148 -10t106 -39v-201q-47 29 -108.5 39.5t-122.5 -14.5q-78 -47 -78 -164v-53h244v-197h-244v-907h-258z" glyph-name="f" horiz-adv-x="870" unicode="f"/><glyph d="M580 -508q-225 -4 -360.5 78t-156.5 213q-12 78 21 166t113 131q-47 16 -82 65.5t-35 106.5q0 125 149 205q-51 49 -87 128t-36 167q0 160 131.5 274.5t331.5 114.5q72 0 157 -21.5t130 -56.5q23 76 110 117t154 26v-174q-49 14 -95 -2t-64 -63q92 -121 92 -230 q0 -182 -135.5 -297.5t-337.5 -120.5q-139 -6 -215 41q-35 -12 -50.5 -35.5t-7.5 -45.5q20 -63 160 -66l223 -2q180 -4 292 -77t126 -206q20 -203 -125 -316.5t-403 -119.5zM793 739q0 84 -62.5 133.5t-161.5 49.5q-96 0 -156.5 -50.5t-60.5 -134.5t61.5 -136t155.5 -52 q98 0 161 52t63 138zM856 -119q-6 121 -283 121h-174q-45 -12 -71.5 -52t-26.5 -85q0 -74 70.5 -115t187.5 -41q139 0 221 47t76 125z" glyph-name="g" horiz-adv-x="1177" unicode="g"/><glyph d="M760 1137q195 0 304.5 -108.5t109.5 -301.5v-727h-281v692q0 96 -56.5 147.5t-158.5 51.5q-111 0 -193 -59.5t-82 -155.5v-676h-280v1536h280v-547q61 68 158 108t199 40z" glyph-name="h" horiz-adv-x="1245" unicode="h"/><glyph d="M258 1241q-59 0 -103 43t-44 104.5t44 104.5t103 43q61 0 104.5 -43t43.5 -104.5t-43.5 -104.5t-104.5 -43zM123 1126h276v-1126h-276v1126z" glyph-name="i" horiz-adv-x="534" unicode="i"/><glyph d="M328 1235q-63 0 -108.5 44t-45.5 107q0 61 45 105.5t109 44.5q59 0 104 -44t45 -106q0 -63 -44 -107t-105 -44zM-16 -510v227h49q86 0 125 35t39 119v1255h258v-1276q0 -88 -28 -155.5t-70 -105.5t-101 -61.5t-111.5 -30.5t-111.5 -7h-49z" glyph-name="j" horiz-adv-x="577" unicode="j"/><glyph d="M111 0v1536h280v-836l344 426h291l-434 -518l485 -608h-297l-389 492v-492h-280z" glyph-name="k" horiz-adv-x="1093" unicode="k"/><glyph d="M150 0v1536h258v-1536h-258z" glyph-name="l" horiz-adv-x="581" unicode="l"/><glyph d="M1452 1139q186 0 288.5 -106.5t102.5 -297.5v-735h-280v702q0 193 -189 193q-102 0 -177 -59.5t-75 -153.5v-682h-282v702q0 193 -187 193q-102 0 -178 -59.5t-76 -153.5v-682h-280v1126h252l14 -139q57 70 150.5 111t193.5 41q213 0 330 -189q61 84 168.5 136.5 t224.5 52.5z" glyph-name="m" horiz-adv-x="1937" unicode="m"/><glyph d="M741 1141q193 0 302.5 -108.5t109.5 -303.5v-729h-279v696q0 96 -55 147.5t-157 51.5q-111 0 -193 -59.5t-82 -153.5v-682h-281v1126h250l19 -147q61 74 160.5 118t205.5 44z" glyph-name="n" horiz-adv-x="1247" unicode="n"/><glyph d="M624.5 -14q-247.5 0 -408.5 166.5t-161 412.5t161 413t408.5 167t409.5 -167t162 -413t-162 -412.5t-409.5 -166.5zM625 231q131 0 213 96.5t82 238t-83 238.5t-212 97q-131 0 -213 -96t-82 -239.5t82 -239t213 -95.5z" glyph-name="o" horiz-adv-x="1247" unicode="o"/><glyph d="M709 1137q227 0 371.5 -162t144.5 -407.5t-146.5 -411.5t-371.5 -166q-203 0 -328 141v-672h-279v1665h258l21 -120q119 133 330 133zM655 236q131 0 212 95t81 236q0 143 -82 239.5t-211 96.5q-98 0 -172.5 -61.5t-103.5 -159.5v-227q29 -98 103.5 -158.5t172.5 -60.5z " glyph-name="p" horiz-adv-x="1257" unicode="p"/><glyph d="M1169 1130v-1665l-276 -2v672q-131 -145 -328 -145q-227 0 -372.5 168t-145.5 415q0 244 144.5 404t373.5 160q213 0 328 -129l18 122h258zM618 240q94 0 169 60t106 157v231q-31 98 -105.5 158.5t-169.5 60.5q-131 0 -212.5 -95t-81.5 -238.5t81.5 -238.5t212.5 -95z " glyph-name="q" horiz-adv-x="1249" unicode="q"/><glyph d="M799 1139v-244q-205 4 -310.5 -82t-105.5 -285v-528h-281v1126h260l19 -170q35 76 139.5 130.5t278.5 52.5z" glyph-name="r" horiz-adv-x="831" unicode="r"/><glyph d="M551 -16q-221 0 -347 112.5t-141 257.5h238q16 -76 86 -124t156 -44q170 8 170 138q0 63 -62.5 96t-187.5 63q-80 20 -133.5 39t-114.5 54.5t-92 91t-31 129.5q0 158 124 253t321 95q168 0 294.5 -89t143.5 -257h-238q-14 63 -66.5 97t-121.5 38q-74 4 -123 -23.5 t-49 -81.5q0 -31 15.5 -52t52 -38.5t67.5 -28t88 -24.5q20 -6 31 -8q76 -20 129 -43t111.5 -60.5t89 -98t30.5 -138.5q0 -160 -120.5 -257t-319.5 -97z" glyph-name="s" horiz-adv-x="1054" unicode="s"/><glyph d="M659 -2q-100 0 -165.5 10t-130 45t-96 110t-31.5 193v553h-187v221h187v406h260v-406h290v-221h-292v-532q0 -82 39.5 -118t125.5 -36h136v-225h-136z" glyph-name="t" horiz-adv-x="860" unicode="t"/><glyph d="M1171 1126v-1126h-249l-19 152q-61 -76 -160.5 -119t-203.5 -43q-186 0 -303 120.5t-117 309.5v706h280v-673q0 -98 58.5 -157.5t158.5 -59.5q109 0 192 61t83 156v673h280z" glyph-name="u" horiz-adv-x="1271" unicode="u"/><glyph d="M1212 1124l-448 -1124h-266l-447 1124h299l281 -807l280 807h301z" glyph-name="v" horiz-adv-x="1234" unicode="v"/><glyph d="M1710 1124l-354 -1124h-318l-164 596l-161 -596h-316l-356 1124h317l205 -798l201 798h244l196 -800l193 800h313z" glyph-name="w" horiz-adv-x="1730" unicode="w"/><glyph d="M795 559l387 -559h-320l-235 360l-234 -360h-323l387 561l-387 565h319l238 -366l235 366h320z" glyph-name="x" horiz-adv-x="1241" unicode="x"/><glyph d="M1227 1126l-674 -1679h-254l256 631h-61l-435 1048h277l323 -772l299 772h269z" glyph-name="y" horiz-adv-x="1275" unicode="y"/><glyph d="M102 203l588 694h-581v229h940v-196l-590 -701h600v-229h-957v203z" glyph-name="z" horiz-adv-x="1120" unicode="z"/><glyph d="M475 -686q-104 0 -173 88t-69 217v494q0 156 -27.5 215t-125.5 104v158q98 43 125.5 102.5t27.5 214.5v490q0 129 69 217t173 88h123v-162q-104 0 -136 -22.5t-32 -116.5v-524q0 -129 -26.5 -216.5t-96.5 -150.5q70 -61 96.5 -148.5t26.5 -218.5v-534q0 -74 33 -100.5 t135 -26.5v-168h-123z" glyph-name="braceleft" horiz-adv-x="679" unicode="{"/><glyph d="M209 1536h162v-1843h-162v1843z" glyph-name="bar" horiz-adv-x="579" unicode="|"/><glyph d="M82 -518q102 0 135 26.5t33 100.5v534q0 256 123 367q-123 113 -123 367v524q0 94 -32 116.5t-136 22.5v166h125q102 0 172 -88t70 -217v-494q0 -156 27.5 -215t125.5 -102v-158q-98 -45 -125.5 -103.5t-27.5 -215.5v-494q0 -129 -70 -217t-172 -88h-125v168z" glyph-name="braceright" horiz-adv-x="679" unicode="}"/><glyph d="M778 350q-49 0 -90 13.5t-82 46t-53 44t-49 52.5q-78 88 -148 88q-76 0 -119.5 -64.5t-33.5 -156.5h-135q-14 154 67.5 254t220.5 100q143 0 260 -149q76 -94 152 -95q74 0 120 60.5t32 156.5h133q20 -147 -61 -248.5t-214 -101.5z" glyph-name="asciitilde" horiz-adv-x="1122" unicode="~"/><glyph d="M313 723q-63 0 -107 43t-44 106.5t44 107.5t107 44q61 0 106.5 -44t45.5 -108q0 -61 -45.5 -105t-106.5 -44zM215 532h195l30 -1044h-256z" glyph-name="exclamdown" horiz-adv-x="624" unicode="¡"/><glyph d="M649 1024q-127 0 -217 -89t-90 -218q0 -127 90 -216t217 -89q152 0 242 77v-247q-96 -51 -219 -58v-186h-152v201q-190 41 -312 184t-122 333.5t122 334t312 184.5v201h152v-187q119 -6 219 -55v-248q-90 78 -242 78z" glyph-name="cent" horiz-adv-x="1009" unicode="¢"/><glyph d="M61 825h115q-25 117 -24 211q0 203 137 334t350 131q227 0 357 -135t122 -362h-246q-12 143 -64 201.5t-169 58.5q-104 0 -165.5 -62.5t-61.5 -165t26 -211.5h453v-229h-399q20 -96 20 -186q0 -57 -14 -103q43 -12 153.5 -60t157.5 -48q74 0 100.5 44t20.5 154h241 q14 -197 -85 -318.5t-269 -121.5q-113 0 -263.5 69.5t-188.5 69.5q-92 0 -68 -125h-246q-14 117 42.5 213.5t156.5 130.5q16 49 16 97q0 86 -26 184h-179v229z" glyph-name="sterling" horiz-adv-x="1255" unicode="£"/><glyph d="M125 377l108 106q-80 117 -78.5 260.5t78.5 262.5l-106 102l137 145l109 -110q117 80 261 81t261 -81l106 108l140 -139l-107 -104q80 -119 80 -263.5t-80 -263.5l105 -104l-135 -144l-109 111q-117 -80 -262.5 -80t-261.5 80l-109 -111zM428 543q86 -84 205 -85t203 85 q82 84 82 202.5t-82 200.5q-82 84 -202 83t-204 -85q-82 -84 -82 -201.5t80 -199.5z" glyph-name="currency" horiz-adv-x="1267" unicode="¤"/><glyph d="M819 760h369v-166h-381v-168h381v-154h-381v-272h-225v272h-377v154h377v168h-377v166h362l-10 24l-498 752h240l395 -614l396 614h237l-493 -748z" glyph-name="yen" horiz-adv-x="1386" unicode="¥"/><glyph d="M209 1536h162v-737h-162v737zM209 430h162v-737h-162v737z" glyph-name="brokenbar" horiz-adv-x="579" unicode="¦"/><glyph d="M1085 528q82 -76 82 -186q0 -145 -153.5 -241.5t-366.5 -96.5q-176 0 -321.5 68.5t-210.5 175.5l159 96q41 -72 142.5 -117t240.5 -45q135 0 227.5 44t92.5 120q0 63 -82 104.5t-198.5 67t-233.5 59t-199 106.5t-82 183.5t78 188.5q-78 74 -78 178q0 152 136.5 237.5 t320.5 85.5q129 0 247 -41.5t187 -111.5l-129 -107q-106 96 -295 97q-115 0 -195.5 -40t-80.5 -110q0 -47 44 -82t113.5 -56.5t154.5 -41t170 -45t154.5 -61t113.5 -98t44 -146.5q0 -103 -82 -185zM373 874q0 -70 78.5 -109.5t240.5 -78.5t236 -68q49 45 49 97 q0 68 -81 106.5t-240.5 76.5t-233.5 67q-49 -38 -49 -91z" glyph-name="section" horiz-adv-x="1271" unicode="§"/><glyph d="M256 1190q-63 0 -107.5 44t-44.5 107q0 61 44.5 105.5t107.5 44.5q61 0 106.5 -44t45.5 -106q0 -63 -45.5 -107t-106.5 -44zM679.5 1190q-61.5 0 -106.5 44t-45 107q0 61 45 105.5t106.5 44.5t106.5 -44t45 -106q0 -63 -45 -107t-106.5 -44z" glyph-name="dieresis" horiz-adv-x="63" unicode="¨"/><glyph d="M874.5 -20q-325.5 0 -557 231t-231.5 557t231.5 557t557 231t557 -231t231.5 -557t-231.5 -557t-557 -231zM874.5 121q272.5 0 461 187.5t188.5 459.5t-188.5 460.5t-461 188.5t-461 -188.5t-188.5 -460.5t188.5 -459.5t461 -187.5zM866 360q-168 -2 -277.5 117 t-109.5 293t108.5 292t278.5 118q156 0 255.5 -91.5t103.5 -220.5h-140q-10 70 -66 121t-153 51q-113 0 -180.5 -76.5t-67.5 -193.5t68 -192.5t180 -75.5q92 0 151.5 51t65.5 111h142q-6 -113 -110 -208.5t-249 -95.5z" glyph-name="copyright" horiz-adv-x="1746" unicode="©"/><glyph d="M723 1536v-614h-127v110q-84 -123 -234 -123q-129 0 -219 93.5t-90 226.5t90 226t219 93q147 0 234 -123v111h127zM387 1020q86 0 147.5 61.5t61.5 147.5t-61.5 147.5t-147.5 61.5t-146.5 -61.5t-60.5 -147.5t60.5 -147.5t146.5 -61.5z" glyph-name="ordfeminine" horiz-adv-x="821" unicode="ª"/><glyph d="M203 571l311 377h209l-311 -377l311 -376h-209zM645 571l311 377h209l-311 -377l311 -376h-209z" glyph-name="guillemotleft" horiz-adv-x="1368" unicode="«"/><glyph d="M1274 741h-1112v164h1276v-688h-164v524z" glyph-name="logicalnot" horiz-adv-x="1599" unicode="¬"/><glyph d="M162 621h717v-175h-717v175z" glyph-name="uni00AD" horiz-adv-x="1208" unicode="­"/><glyph d="M874.5 1556q325.5 0 557 -231t231.5 -557t-231.5 -557t-557 -231t-557 231t-231.5 557t231.5 557t557 231zM874.5 121q272.5 0 461 187.5t188.5 459.5t-188.5 460.5t-461 188.5t-461 -188.5t-188.5 -460.5t188.5 -459.5t461 -187.5zM1180 399h-154l-176 285h-84v-285 h-137v746h297q90 0 154.5 -72t64.5 -166q0 -74 -45 -136t-113 -77zM920 793q43 0 71.5 32.5t28.5 81.5t-29.5 83t-70.5 34h-154v-231h154z" glyph-name="registered" horiz-adv-x="1746" unicode="®"/><glyph d="M39 1372h635v-164h-635v164z" glyph-name="macron" horiz-adv-x="75" unicode="¯"/><glyph d="M477 1008q-115 0 -194.5 79.5t-79.5 194.5t79.5 194.5t194.5 79.5t195 -79.5t80 -194.5t-81 -194.5t-194 -79.5zM477 1135q61 0 104.5 43t43.5 104q0 63 -43 106.5t-105 43.5q-63 0 -106 -43t-43 -107q0 -61 43 -104t106 -43z" glyph-name="degree" horiz-adv-x="952" unicode="°"/><glyph d="M1503 913v-165h-629v-369h-165v369h-629v165h629v369h165v-369h629zM80 150h1423v-150h-1423v150z" glyph-name="plusminus" horiz-adv-x="1581" unicode="±"/><glyph d="M84 870q256 268 311.5 337t55.5 122q0 57 -34 87t-83 30q-53 0 -86 -33t-31 -90h-121q-6 102 65.5 167.5t178.5 65.5q96 0 161.5 -58t67.5 -152q2 -88 -51 -163t-266 -294h340v-111h-508v92z" glyph-name="uni00B2" horiz-adv-x="669" unicode="²"/><glyph d="M440 815q-94 -2 -160.5 58.5t-66.5 144.5l111 2q0 -41 34.5 -70.5t81.5 -29.5q49 0 84 32.5t37 85.5q0 51 -32.5 86t-82.5 35h-57v90h49q41 0 66.5 27t25.5 67q0 39 -26.5 64t-71.5 25q-37 0 -62.5 -23t-27.5 -55l-109 2q2 78 60.5 129t138.5 51q86 0 141.5 -52 t59.5 -128q2 -86 -80 -137q115 -51 119 -181q0 -96 -67 -159.5t-165 -63.5z" glyph-name="uni00B3" horiz-adv-x="714" unicode="³"/><glyph d="M213 1536h260l-235 -334h-199z" glyph-name="acute" horiz-adv-x="63" unicode="´"/><glyph d="M1106 1024v-1024h-258v127q-121 -147 -305 -147q-115 0 -213 65v-557h-189v1536h256v-600q0 -90 64.5 -153.5t154.5 -63.5q96 0 164 63.5t68 153.5v600h258z" glyph-name="uni00B5" horiz-adv-x="1208" unicode="µ"/><glyph d="M592 727h-45q-170 0 -298 120t-128 285.5t128 284.5t298 119h178v-1843h-133v1034zM918 1536h133v-1843h-133v1843z" glyph-name="paragraph" horiz-adv-x="1271" unicode="¶"/><glyph d="M274 625q-45 0 -78.5 32.5t-33.5 79.5q0 45 33.5 80t78.5 35t80 -35t35 -80q0 -47 -34 -79.5t-81 -32.5z" glyph-name="periodcentered" horiz-adv-x="550" unicode="·"/><glyph d="M276 -532q-74 0 -142 41.5t-95 101.5l113 43q18 -29 54 -48.5t70 -19.5q41 0 70 30t29 71q0 61 -52.5 81.5t-129.5 -12.5l-95 58l99 186h120l-67 -129q102 20 174 -34t72 -150q0 -92 -64 -155.5t-156 -63.5z" glyph-name="cedilla" horiz-adv-x="63" unicode="¸"/><glyph d="M168 1425h-111v111h238v-768h-127v657z" glyph-name="uni00B9" horiz-adv-x="518" unicode="¹"/><glyph d="M387 909q-139 0 -236.5 93.5t-97.5 226.5t97.5 226t236.5 93t237.5 -93t98.5 -226t-98.5 -226.5t-237.5 -93.5zM387 1020q86 0 147.5 61.5t61.5 147.5t-61.5 147.5t-147.5 61.5t-146.5 -61.5t-60.5 -147.5t60.5 -147.5t146.5 -61.5z" glyph-name="ordmasculine" horiz-adv-x="774" unicode="º"/><glyph d="M514 571l-311 377h207l311 -377l-311 -376h-207zM954 571l-311 377h209l311 -377l-311 -376h-209z" glyph-name="guillemotright" horiz-adv-x="1368" unicode="»"/><glyph d="M594 1055q61 0 105 -45t44 -107q0 -63 -44 -108t-105 -45q-63 0 -107.5 45t-44.5 108q0 61 44.5 106.5t107.5 45.5zM717 537q0 -76 -27.5 -141.5t-68.5 -109.5t-89.5 -88t-89.5 -80t-68.5 -83t-27.5 -98q0 -100 73 -165t183 -65q117 0 188.5 77t63.5 189h229 q12 -209 -126 -350t-355 -141q-205 0 -344 131t-139 324q0 76 38 147.5t92 125.5t107.5 104.5t91 103.5t37.5 100v121h232v-102z" glyph-name="questiondown" horiz-adv-x="1161" unicode="¿"/><glyph d="M672 1714l-238 334h260l174 -334h-196zM1124 334h-690l-127 -334h-289l617 1536h297l616 -1536h-286zM1049 565l-265 701l-272 -701h537z" glyph-name="Agrave" horiz-adv-x="1568" unicode="À"/><glyph d="M883 1714h-197l174 334h260zM1124 334h-690l-127 -334h-289l617 1536h297l616 -1536h-286zM1049 565l-265 701l-272 -701h537z" glyph-name="Aacute" horiz-adv-x="1568" unicode="Á"/><glyph d="M631 1698h-199l213 350h268l215 -350h-198l-150 235zM1124 334h-690l-127 -334h-289l617 1536h297l616 -1536h-286zM1049 565l-265 701l-272 -701h537z" glyph-name="Acircumflex" horiz-adv-x="1568" unicode="Â"/><glyph d="M442 1704q-25 127 35 211t164 84q129 0 203 -117q27 -45 69 -45q41 0 55.5 40t-1.5 103h151q27 -125 -31.5 -208.5t-168.5 -83.5q-119 0 -201 116q-27 45 -68 45t-56 -41t3 -104h-154zM1124 334h-690l-127 -334h-289l617 1536h297l616 -1536h-286zM1049 565l-265 701 l-272 -701h537z" glyph-name="Atilde" horiz-adv-x="1568" unicode="Ã"/><glyph d="M567 1702q-61 0 -105 44t-44 107q0 61 44 105.5t105 44.5q63 0 107.5 -44t44.5 -106q0 -63 -44.5 -107t-107.5 -44zM993.5 1702q-61.5 0 -106.5 44t-45 107q0 61 45 105.5t106.5 44.5t105.5 -44t44 -106q0 -63 -44 -107t-105.5 -44zM1124 334h-690l-127 -334h-289 l617 1536h297l616 -1536h-286zM1049 565l-265 701l-272 -701h537z" glyph-name="Adieresis" horiz-adv-x="1568" unicode="Ä"/><glyph d="M944 1505l604 -1505h-286l-138 334h-690l-127 -334h-289l605 1505h-7q-66 66 -65 156q0 94 67.5 160.5t163.5 66.5q94 0 161 -66.5t67 -160.5q0 -90 -66 -156zM782 1784q-49 0 -84.5 -37t-35.5 -86q0 -53 34.5 -87t85.5 -34q49 0 84 34t35 87q0 49 -35 86t-84 37z M512 565h537l-265 701z" glyph-name="Aring" horiz-adv-x="1568" unicode="Å"/><glyph d="M635 1536h1173v-225h-628v-441h542v-202h-542v-441h628v-227h-886v326h-490l-115 -326h-299zM922 528v783h-103l-301 -783h404z" glyph-name="AE" horiz-adv-x="1855" unicode="Æ"/><glyph d="M819 233q186 0 302 100.5t134 219.5h256q-18 -207 -195 -376t-429 -193v-2l-58 -111q102 20 174 -34t72 -150q0 -92 -63.5 -155.5t-155.5 -63.5q-74 0 -142.5 41.5t-95.5 101.5l113 43q18 -29 54 -48.5t71 -19.5q41 0 69.5 30t28.5 71q0 61 -53 81.5t-129 -12.5l-94 58 l86 168q-303 20 -495.5 244.5t-192.5 541.5q0 334 209 561t534 227q295 0 484.5 -168.5t207.5 -418.5h-256q-8 57 -36.5 112.5t-78.5 106.5t-133 83t-188 32q-225 0 -358 -152t-133 -383t133 -383t358 -152z" glyph-name="Ccedilla" horiz-adv-x="1642" unicode="Ç"/><glyph d="M469 1714l-238 334h261l174 -334h-197zM383 1305v-420h639v-234h-639v-418h725v-233h-991v1536h991v-231h-725z" glyph-name="Egrave" horiz-adv-x="1222" unicode="È"/><glyph d="M680 1714h-197l174 334h261zM383 1305v-420h639v-234h-639v-418h725v-233h-991v1536h991v-231h-725z" glyph-name="Eacute" horiz-adv-x="1222" unicode="É"/><glyph d="M428 1698h-199l213 350h269l215 -350h-199l-149 235zM383 1305v-420h639v-234h-639v-418h725v-233h-991v1536h991v-231h-725z" glyph-name="Ecircumflex" horiz-adv-x="1222" unicode="Ê"/><glyph d="M367 1702q-63 0 -107.5 44t-44.5 107q0 61 44 105.5t108 44.5q61 0 105 -44t44 -106q0 -63 -44 -107t-105 -44zM790.5 1702q-61.5 0 -106.5 44t-45 107q0 61 45 105.5t106.5 44.5t105.5 -44t44 -106q0 -63 -44 -107t-105.5 -44zM383 1305v-420h639v-234h-639v-418h725 v-233h-991v1536h991v-231h-725z" glyph-name="Edieresis" horiz-adv-x="1222" unicode="Ë"/><glyph d="M133 2048h262l174 -334h-196zM350 1536h268v-1536h-268v1536z" glyph-name="Igrave" horiz-adv-x="755" unicode="Ì"/><glyph d="M344 2048h260l-237 -334h-197zM133 1536h266v-1536h-266v1536z" glyph-name="Iacute" horiz-adv-x="741" unicode="Í"/><glyph d="M348 2048h268l215 -350h-198l-150 235l-149 -235h-201zM352 1536h266v-1536h-266v1536z" glyph-name="Icircumflex" horiz-adv-x="970" unicode="Î"/><glyph d="M287 1702q-63 0 -108.5 44t-45.5 107q0 61 45 105.5t109 44.5q61 0 106 -44t45 -106q0 -63 -45 -107t-106 -44zM710.5 1702q-61.5 0 -106.5 44t-45 107q0 61 45 105.5t106.5 44.5t106.5 -44t45 -106q0 -63 -45 -107t-106.5 -44zM369 1536h266v-1536h-266v1536z" glyph-name="Idieresis" horiz-adv-x="999" unicode="Ï"/><glyph d="M752 1536q324 0 546 -217t222 -551t-222.5 -551t-545.5 -217h-471v692h-152v152h152v692h471zM750 233q215 0 359 149.5t144 385.5t-144 386.5t-359 150.5h-205v-461h250v-152h-250v-459h205z" glyph-name="Eth" horiz-adv-x="1603" unicode="Ð"/><glyph d="M481 1704q-27 127 32.5 211t166.5 84q125 0 203 -117q27 -45 67.5 -45t56 40t-2.5 103h153q27 -125 -31.5 -208.5t-169.5 -83.5q-123 0 -200 116q-31 45 -70 45t-54.5 -41t3.5 -104h-154zM1479 1536v-1536h-267l-833 1128v-1128h-266v1536h268l833 -1126v1126h265z" glyph-name="Ntilde" horiz-adv-x="1607" unicode="Ñ"/><glyph d="M473 2048h258l176 -334h-196zM819.5 -20q-327.5 0 -538.5 228t-211 560t211 560t538.5 228t538.5 -228t211 -560t-211 -560t-538.5 -228zM819 238q225 0 359.5 150.5t134.5 379.5q0 231 -134.5 381.5t-359.5 150.5t-360 -150.5t-135 -381.5q0 -229 135 -379.5t360 -150.5 z" glyph-name="Ograve" horiz-adv-x="1646" unicode="Ò"/><glyph d="M899 2048h260l-237 -334h-197zM819.5 -20q-327.5 0 -538.5 228t-211 560t211 560t538.5 228t538.5 -228t211 -560t-211 -560t-538.5 -228zM819 238q225 0 359.5 150.5t134.5 379.5q0 231 -134.5 381.5t-359.5 150.5t-360 -150.5t-135 -381.5q0 -229 135 -379.5 t360 -150.5z" glyph-name="Oacute" horiz-adv-x="1646" unicode="Ó"/><glyph d="M686 2048h268l215 -350h-198l-150 235l-151 -235h-197zM819.5 -20q-327.5 0 -538.5 228t-211 560t211 560t538.5 228t538.5 -228t211 -560t-211 -560t-538.5 -228zM819 238q225 0 359.5 150.5t134.5 379.5q0 231 -134.5 381.5t-359.5 150.5t-360 -150.5t-135 -381.5 q0 -229 135 -379.5t360 -150.5z" glyph-name="Ocircumflex" horiz-adv-x="1646" unicode="Ô"/><glyph d="M956 1688q-123 0 -200 116q-31 45 -68 45q-41 0 -56.5 -41t3.5 -104h-154q-27 127 32.5 211t166.5 84q125 0 203 -117q27 -45 69 -45q41 0 55.5 40t-3.5 103h153q27 -125 -31.5 -208.5t-169.5 -83.5zM819.5 -20q-327.5 0 -538.5 228t-211 560t211 560t538.5 228 t538.5 -228t211 -560t-211 -560t-538.5 -228zM819 238q225 0 359.5 150.5t134.5 379.5q0 231 -134.5 381.5t-359.5 150.5t-360 -150.5t-135 -381.5q0 -229 135 -379.5t360 -150.5z" glyph-name="Otilde" horiz-adv-x="1646" unicode="Õ"/><glyph d="M608 1702q-63 0 -107 44t-44 107q0 61 44 105.5t107 44.5q61 0 106.5 -44t45.5 -106q0 -63 -45.5 -107t-106.5 -44zM1032.5 1702q-61.5 0 -106.5 44t-45 107q0 61 45 105.5t106.5 44.5t106.5 -44t45 -106q0 -63 -45 -107t-106.5 -44zM819.5 -20q-327.5 0 -538.5 228 t-211 560t211 560t538.5 228t538.5 -228t211 -560t-211 -560t-538.5 -228zM819 238q225 0 359.5 150.5t134.5 379.5q0 231 -134.5 381.5t-359.5 150.5t-360 -150.5t-135 -381.5q0 -229 135 -379.5t360 -150.5z" glyph-name="Odieresis" horiz-adv-x="1646" unicode="Ö"/><glyph d="M915 635l381 -379l-137 -139l-381 381l-381 -381l-137 139l379 379l-379 381l137 137l381 -381l381 381l137 -137z" glyph-name="multiply" horiz-adv-x="1499" unicode="×"/><glyph d="M1307 1378q125 -111 193.5 -269.5t68.5 -340.5q0 -332 -211 -560t-539 -228q-211 0 -377 100l-88 -135h-164l142 213q-123 109 -192.5 268.5t-69.5 341.5q0 332 211 560t538 228q207 0 379 -100l88 133h162zM324 768q0 -244 151 -395l582 870q-104 57 -238 57 q-225 0 -360 -150.5t-135 -381.5zM819 238q225 0 359.5 150.5t134.5 379.5q0 244 -148 395l-579 -870q98 -55 233 -55z" glyph-name="Oslash" horiz-adv-x="1646" unicode="Ø"/><glyph d="M403 2048h261l174 -334h-197zM731 -20q-258 0 -436 150.5t-178 367.5v1038h266v-991q0 -137 101.5 -234.5t247 -97.5t248.5 97.5t103 234.5v991h267v-1038q0 -217 -181.5 -367.5t-437.5 -150.5z" glyph-name="Ugrave" horiz-adv-x="1482" unicode="Ù"/><glyph d="M829 2048h261l-236 -334h-199zM731 -20q-258 0 -436 150.5t-178 367.5v1038h266v-991q0 -137 101.5 -234.5t247 -97.5t248.5 97.5t103 234.5v991h267v-1038q0 -217 -181.5 -367.5t-437.5 -150.5z" glyph-name="Uacute" horiz-adv-x="1482" unicode="Ú"/><glyph d="M616 2048h269l215 -350h-199l-149 235l-150 -235h-199zM731 -20q-258 0 -436 150.5t-178 367.5v1038h266v-991q0 -137 101.5 -234.5t247 -97.5t248.5 97.5t103 234.5v991h267v-1038q0 -217 -181.5 -367.5t-437.5 -150.5z" glyph-name="Ucircumflex" horiz-adv-x="1482" unicode="Û"/><glyph d="M539 1702q-61 0 -105.5 44t-44.5 107q0 61 44 105.5t106 44.5q63 0 107 -44t44 -106q0 -63 -44 -107t-107 -44zM964.5 1702q-61.5 0 -106.5 44t-45 107q0 61 45 105.5t106.5 44.5t105.5 -44t44 -106q0 -63 -44 -107t-105.5 -44zM731 -20q-258 0 -436 150.5t-178 367.5 v1038h266v-991q0 -137 101.5 -234.5t247 -97.5t248.5 97.5t103 234.5v991h267v-1038q0 -217 -181.5 -367.5t-437.5 -150.5z" glyph-name="Udieresis" horiz-adv-x="1482" unicode="Ü"/><glyph d="M788 1714h-196l174 334h260zM817 727v-727h-264v723l-539 813h297l373 -586l377 586h293z" glyph-name="Yacute" horiz-adv-x="1368" unicode="Ý"/><glyph d="M739 1317q186 0 315.5 -131t129.5 -320q0 -182 -129 -309t-316 -127h-348v-430h-258v1534h258v-217h348zM731 657q90 0 153.5 63.5t63.5 154t-63.5 153t-153.5 62.5h-340v-433h340z" glyph-name="Thorn" horiz-adv-x="1224" unicode="Þ"/><glyph d="M1047 797q102 -59 161.5 -160.5t59.5 -220.5q0 -182 -120 -309t-294 -127q-84 0 -185.5 30.5t-158.5 77.5l102 199q35 -29 90.5 -49.5t102.5 -18.5q82 4 143.5 63.5t61.5 147.5q0 96 -73 166t-175 70h-92v211h37q94 0 162.5 66.5t68.5 158.5q0 90 -70.5 149.5 t-177.5 59.5q-117 0 -194.5 -67.5t-77.5 -172.5v-1071h-256v1071q0 201 150.5 333t373.5 132q215 0 354.5 -123t139.5 -307q0 -182 -133 -309z" glyph-name="germandbls" horiz-adv-x="1386" unicode="ß"/><glyph d="M696 1202h-196l-238 334h258zM1018 348q0 -141 88 -141v-207h-76q-59 2 -95 8t-79 36t-65 83q-47 -63 -145.5 -102t-213.5 -39q-164 0 -266.5 89t-102.5 244q0 152 126 246t335 111l240 20v25q0 201 -205 201q-96 0 -161.5 -47.5t-73.5 -143.5h-232q14 174 130 290 t345 116q211 0 331 -105.5t120 -314.5v-369zM764 340v174l-189 -20q-242 -29 -241 -162q0 -63 47 -101t117 -38q84 0 156.5 43t109.5 104z" glyph-name="agrave" horiz-adv-x="1159" unicode="à"/><glyph d="M936 1536l-236 -334h-198l176 334h258zM1018 348q0 -141 88 -141v-207h-76q-59 2 -95 8t-79 36t-65 83q-47 -63 -145.5 -102t-213.5 -39q-164 0 -266.5 89t-102.5 244q0 152 126 246t335 111l240 20v25q0 201 -205 201q-96 0 -161.5 -47.5t-73.5 -143.5h-232 q14 174 130 290t345 116q211 0 331 -105.5t120 -314.5v-369zM764 340v174l-189 -20q-242 -29 -241 -162q0 -63 47 -101t117 -38q84 0 156.5 43t109.5 104z" glyph-name="aacute" horiz-adv-x="1159" unicode="á"/><glyph d="M520 1421l-149 -235h-199l213 350h268l215 -350h-198zM1018 348q0 -141 88 -141v-207h-76q-59 2 -95 8t-79 36t-65 83q-47 -63 -145.5 -102t-213.5 -39q-164 0 -266.5 89t-102.5 244q0 152 126 246t335 111l240 20v25q0 201 -205 201q-96 0 -161.5 -47.5t-73.5 -143.5 h-232q14 174 130 290t345 116q211 0 331 -105.5t120 -314.5v-369zM764 340v174l-189 -20q-242 -29 -241 -162q0 -63 47 -101t117 -38q84 0 156.5 43t109.5 104z" glyph-name="acircumflex" horiz-adv-x="1159" unicode="â"/><glyph d="M195 1192q-25 127 34.5 211t163.5 84q129 0 203 -117q27 -45 70 -45q41 0 55 40t-2 103h151q27 -125 -31.5 -208.5t-168.5 -83.5q-119 0 -201 116q-27 45 -68 45t-56 -41t3 -104h-153zM432 -14q-164 0 -266.5 89t-102.5 244q0 152 126 246t335 111l240 20v25 q0 201 -205 201q-96 0 -161.5 -47.5t-73.5 -143.5h-232q14 174 130 290t345 116q211 0 331 -105.5t120 -314.5v-369q0 -141 88 -141v-207h-76q-59 2 -95 8t-79 36t-65 83q-47 -63 -145.5 -102t-213.5 -39zM498 193q84 0 156.5 43t109.5 104v174l-189 -20q-242 -29 -241 -162 q0 -63 47 -101t117 -38z" glyph-name="atilde" horiz-adv-x="1159" unicode="ã"/><glyph d="M309 1190q-63 0 -107 44t-44 107q0 61 44 105.5t107 44.5q61 0 106.5 -44t45.5 -106q0 -63 -45.5 -107t-106.5 -44zM733.5 1190q-61.5 0 -106.5 44t-45 107q0 61 45 105.5t106.5 44.5t106.5 -44t45 -106q0 -63 -45 -107t-106.5 -44zM432 -14q-164 0 -266.5 89t-102.5 244 q0 152 126 246t335 111l240 20v25q0 201 -205 201q-96 0 -161.5 -47.5t-73.5 -143.5h-232q14 174 130 290t345 116q211 0 331 -105.5t120 -314.5v-369q0 -141 88 -141v-207h-76q-59 2 -95 8t-79 36t-65 83q-47 -63 -145.5 -102t-213.5 -39zM498 193q84 0 156.5 43t109.5 104 v174l-189 -20q-242 -29 -241 -162q0 -63 47 -101t117 -38z" glyph-name="adieresis" horiz-adv-x="1159" unicode="ä"/><glyph d="M522 1145q-96 0 -163.5 68.5t-67.5 162.5q0 92 68.5 160t162.5 68t161 -68t67 -160q0 -96 -67 -163.5t-161 -67.5zM522 1497q-49 0 -84 -36t-35 -85q0 -53 34 -87t85 -34q49 0 84 34t35 87q0 49 -35 85t-84 36zM432 -14q-164 0 -266.5 89t-102.5 244q0 152 126 246 t335 111l240 20v25q0 201 -205 201q-96 0 -161.5 -47.5t-73.5 -143.5h-232q14 174 130 290t345 116q211 0 331 -105.5t120 -314.5v-369q0 -141 88 -141v-207h-76q-59 2 -95 8t-79 36t-65 83q-47 -63 -145.5 -102t-213.5 -39zM498 193q84 0 156.5 43t109.5 104v174l-189 -20 q-242 -29 -241 -162q0 -63 47 -101t117 -38z" glyph-name="aring" horiz-adv-x="1159" unicode="å"/><glyph d="M1989 567q0 -39 -7 -86h-790q14 -133 92 -206.5t197 -73.5q82 0 158.5 37.5t111.5 115.5h223q-29 -162 -162 -266t-344 -104q-293 0 -448 225v-207h-225l-19 127q-102 -158 -379 -141q-154 10 -247 97t-93 237q0 147 126 239t335 101l240 10v51q0 203 -205 203 q-96 0 -160.5 -47.5t-75.5 -145.5h-227q12 176 127 291t344 115q344 0 432 -254q150 260 477 260q238 0 378.5 -158t140.5 -420zM1196 674h528q-37 250 -258 250q-225 0 -270 -250zM758 342v152l-187 -11q-119 -6 -181 -46t-62 -105q0 -63 45 -100t114 -39q86 -2 161 40.5 t110 108.5z" glyph-name="ae" horiz-adv-x="2021" unicode="æ"/><glyph d="M608 221q102 0 177 64.5t92 150.5h245q-10 -80 -39.5 -151.5t-88 -140t-162 -110.5t-240.5 -44l-55 -109q102 20 173.5 -34t71.5 -150q0 -92 -63.5 -155.5t-155.5 -63.5q-74 0 -142.5 42t-94.5 101l112 43q18 -29 54 -48t71 -19q41 0 70 29.5t29 70.5q0 61 -52.5 81.5 t-130.5 -11.5l-94 57l90 172l2 2q-199 35 -315.5 189.5t-116.5 377.5q0 254 147.5 413t391.5 159q139 0 244.5 -41t166 -108.5t91 -139.5t38.5 -148h-247q-10 86 -87 146.5t-184 60.5q-137 0 -212 -93t-75 -249q0 -154 76 -249t213 -95z" glyph-name="ccedilla" horiz-adv-x="1173" unicode="ç"/><glyph d="M471 1208l-238 332h261l174 -332h-197zM1110 567q0 -39 -6 -88h-787q10 -127 89 -201.5t188 -74.5q199 0 268 151h225q-25 -152 -151.5 -258t-343.5 -106q-244 0 -393.5 161.5t-149.5 411.5q0 254 144.5 414t398.5 160q240 0 379 -155t139 -415zM590 920 q-113 0 -180.5 -66t-85.5 -180h520q-33 246 -254 246z" glyph-name="egrave" horiz-adv-x="1177" unicode="è"/><glyph d="M920 1540l-238 -332h-197l174 332h261zM1110 567q0 -39 -6 -88h-787q10 -127 89 -201.5t188 -74.5q199 0 268 151h225q-25 -152 -151.5 -258t-343.5 -106q-244 0 -393.5 161.5t-149.5 411.5q0 254 144.5 414t398.5 160q240 0 379 -155t139 -415zM324 674h520 q-33 246 -254 246q-113 0 -180.5 -65.5t-85.5 -180.5z" glyph-name="eacute" horiz-adv-x="1177" unicode="é"/><glyph d="M430 1190h-199l213 350h269l215 -350h-199l-149 237zM1110 567q0 -39 -6 -88h-787q10 -127 89 -201.5t188 -74.5q199 0 268 151h225q-25 -152 -151.5 -258t-343.5 -106q-244 0 -393.5 161.5t-149.5 411.5q0 254 144.5 414t398.5 160q240 0 379 -155t139 -415zM590 920 q-113 0 -180.5 -66t-85.5 -180h520q-33 246 -254 246z" glyph-name="ecircumflex" horiz-adv-x="1177" unicode="ê"/><glyph d="M367 1194q-61 0 -105.5 44t-44.5 108q0 61 44 106t106 45q63 0 107 -45t44 -106q0 -63 -44 -107.5t-107 -44.5zM792.5 1194q-61.5 0 -106.5 44t-45 108q0 61 45 106t106.5 45t105.5 -45t44 -106q0 -63 -44 -107.5t-105.5 -44.5zM1110 567q0 -39 -6 -88h-787 q10 -127 89 -201.5t188 -74.5q199 0 268 151h225q-25 -152 -151.5 -258t-343.5 -106q-244 0 -393.5 161.5t-149.5 411.5q0 254 144.5 414t398.5 160q240 0 379 -155t139 -415zM590 920q-113 0 -180.5 -66t-85.5 -180h520q-33 246 -254 246z" glyph-name="edieresis" horiz-adv-x="1177" unicode="ë"/><glyph d="M49 1536h262l174 -334h-196zM270 1024h258v-1024h-258v1024z" glyph-name="igrave" horiz-adv-x="641" unicode="ì"/><glyph d="M307 1536h260l-237 -334h-197zM98 1024h258v-1024h-258v1024z" glyph-name="iacute" horiz-adv-x="630" unicode="í"/><glyph d="M311 1536h269l217 -350h-201l-150 235l-149 -235h-199zM317 1024h258v-1024h-258v1024z" glyph-name="icircumflex" horiz-adv-x="909" unicode="î"/><glyph d="M250 1190q-61 0 -106.5 44t-45.5 107q0 61 45 105.5t107 44.5q63 0 107 -44t44 -106q0 -63 -44 -107t-107 -44zM675.5 1190q-61.5 0 -106.5 44t-45 107q0 61 45 105.5t106.5 44.5t105.5 -44t44 -106q0 -63 -44 -107t-105.5 -44zM334 1024h258v-1024h-258v1024z" glyph-name="idieresis" horiz-adv-x="937" unicode="ï"/><glyph d="M801 1409q182 -141 288.5 -376.5t106.5 -520.5q0 -223 -164 -377.5t-399.5 -154.5t-399 154.5t-163.5 377.5t162.5 377.5t400.5 154.5q119 0 221 -51q-66 160 -182 248l-99 -123l-79 62l90 112q-121 59 -269 64l52 205q186 0 350 -97l90 113l80 -61zM633 207 q127 0 216 89t89 216q0 129 -89 218t-216 89t-217 -89t-90 -218q0 -127 90 -216t217 -89z" glyph-name="eth" horiz-adv-x="1253" unicode="ð"/><glyph d="M279 1192q-27 127 32.5 211t165.5 84q125 0 203 -117q27 -45 67.5 -45t56 40t-2.5 103h153q27 -125 -31.5 -208.5t-168.5 -83.5q-123 0 -201 116q-31 45 -70 45t-54 -41t3 -104h-153zM741 1141q193 0 302.5 -108.5t109.5 -303.5v-729h-279v696q0 96 -55 147.5t-157 51.5 q-111 0 -193 -59.5t-82 -153.5v-682h-281v1126h250l19 -147q61 74 160.5 118t205.5 44z" glyph-name="ntilde" horiz-adv-x="1247" unicode="ñ"/><glyph d="M246 1536h260l174 -334h-197zM624.5 -14q-247.5 0 -408.5 166.5t-161 412.5t161 413t408.5 167t409.5 -167t162 -413t-162 -412.5t-409.5 -166.5zM625 231q131 0 213 96.5t82 238t-83 238.5t-212 97q-131 0 -213 -96t-82 -239.5t82 -239t213 -95.5z" glyph-name="ograve" horiz-adv-x="1247" unicode="ò"/><glyph d="M672 1536h260l-238 -334h-196zM624.5 -14q-247.5 0 -408.5 166.5t-161 412.5t161 413t408.5 167t409.5 -167t162 -413t-162 -412.5t-409.5 -166.5zM625 231q131 0 213 96.5t82 238t-83 238.5t-212 97q-131 0 -213 -96t-82 -239.5t82 -239t213 -95.5z" glyph-name="oacute" horiz-adv-x="1247" unicode="ó"/><glyph d="M459 1536h268l215 -350h-199l-149 235l-150 -235h-198zM624.5 -14q-247.5 0 -408.5 166.5t-161 412.5t161 413t408.5 167t409.5 -167t162 -413t-162 -412.5t-409.5 -166.5zM625 231q131 0 213 96.5t82 238t-83 238.5t-212 97q-131 0 -213 -96t-82 -239.5t82 -239 t213 -95.5z" glyph-name="ocircumflex" horiz-adv-x="1247" unicode="ô"/><glyph d="M729 1176q-119 0 -201 116q-27 45 -67.5 45t-56 -41t3.5 -104h-154q-25 127 34.5 211t164.5 84q129 0 202 -117q27 -45 70 -45q41 0 55.5 40t-2.5 103h152q27 -125 -31.5 -208.5t-169.5 -83.5zM624.5 -14q-247.5 0 -408.5 166.5t-161 412.5t161 413t408.5 167t409.5 -167 t162 -413t-162 -412.5t-409.5 -166.5zM625 231q131 0 213 96.5t82 238t-83 238.5t-212 97q-131 0 -213 -96t-82 -239.5t82 -239t213 -95.5z" glyph-name="otilde" horiz-adv-x="1247" unicode="õ"/><glyph d="M411.5 1190q-61.5 0 -106.5 44t-45 107q0 61 45 105.5t106.5 44.5t106.5 -44t45 -106q0 -63 -45 -107t-106.5 -44zM836 1190q-61 0 -105.5 44t-44.5 107q0 61 45 105.5t105 44.5q63 0 107 -44t44 -106q0 -63 -44 -107t-107 -44zM624.5 -14q-247.5 0 -408.5 166.5 t-161 412.5t161 413t408.5 167t409.5 -167t162 -413t-162 -412.5t-409.5 -166.5zM625 231q131 0 213 96.5t82 238t-83 238.5t-212 97q-131 0 -213 -96t-82 -239.5t82 -239t213 -95.5z" glyph-name="odieresis" horiz-adv-x="1247" unicode="ö"/><glyph d="M714.5 776q-55.5 0 -95 40t-39.5 95.5t41 95.5t94 40t94 -40t41 -95.5t-40 -95.5t-95.5 -40zM158 659h1124v-202h-1124v202zM714.5 80q-55.5 0 -95 40t-39.5 95t41 95t94 40t94 -40t41 -95t-40 -95t-95.5 -40z" glyph-name="divide" horiz-adv-x="1427" unicode="÷"/><glyph d="M975 1028q201 -174 201 -459q0 -248 -159 -416.5t-403 -168.5q-152 0 -274 69l-78 -121h-123l117 179q-201 172 -201 458q0 248 158 417t401 169q150 0 275 -68l78 121h123zM326 569q0 -139 75 -231l349 532q-66 39 -136 39q-129 0 -208.5 -98.5t-79.5 -241.5zM614 233 q129 0 209 96.5t80 239.5q0 137 -76 234l-348 -535q57 -35 135 -35z" glyph-name="oslash" horiz-adv-x="1226" unicode="ø"/><glyph d="M510 1202l-240 334h260l175 -334h-195zM1171 1126v-1126h-249l-19 152q-61 -76 -160.5 -119t-203.5 -43q-186 0 -303 120.5t-117 309.5v706h280v-673q0 -98 58.5 -157.5t158.5 -59.5q109 0 192 61t83 156v673h280z" glyph-name="ugrave" horiz-adv-x="1271" unicode="ù"/><glyph d="M721 1202h-199l176 334h258zM1171 1126v-1126h-249l-19 152q-61 -76 -160.5 -119t-203.5 -43q-186 0 -303 120.5t-117 309.5v706h280v-673q0 -98 58.5 -157.5t158.5 -59.5q109 0 192 61t83 156v673h280z" glyph-name="uacute" horiz-adv-x="1271" unicode="ú"/><glyph d="M469 1186h-197l211 350h269l217 -350h-201l-150 235zM1171 1126v-1126h-249l-19 152q-61 -76 -160.5 -119t-203.5 -43q-186 0 -303 120.5t-117 309.5v706h280v-673q0 -98 58.5 -157.5t158.5 -59.5q109 0 192 61t83 156v673h280z" glyph-name="ucircumflex" horiz-adv-x="1271" unicode="û"/><glyph d="M408 1190q-63 0 -107.5 44t-44.5 107q0 61 44 105.5t108 44.5q61 0 105 -44t44 -106q0 -63 -44 -107t-105 -44zM831.5 1190q-61.5 0 -106.5 44t-45 107q0 61 45 105.5t106.5 44.5t105.5 -44t44 -106q0 -63 -44 -107t-105.5 -44zM1171 1126v-1126h-249l-19 152 q-61 -76 -160.5 -119t-203.5 -43q-186 0 -303 120.5t-117 309.5v706h280v-673q0 -98 58.5 -157.5t158.5 -59.5q109 0 192 61t83 156v673h280z" glyph-name="udieresis" horiz-adv-x="1271" unicode="ü"/><glyph d="M711 1202h-199l176 334h258zM1227 1126l-674 -1679h-254l256 631h-61l-435 1048h277l323 -772l299 772h269z" glyph-name="yacute" horiz-adv-x="1282" unicode="ý"/><glyph d="M735 1044q213 0 361.5 -154.5t148.5 -377.5t-148.5 -377.5t-361.5 -154.5q-215 0 -344 159v-651h-258v2048h258v-651q129 159 344 159zM696 207q129 0 218.5 89t89.5 216q0 129 -89.5 218t-218.5 89q-127 0 -216 -89t-89 -218q0 -127 89 -216t216 -89z" glyph-name="thorn" horiz-adv-x="1312" unicode="þ"/><glyph d="M401 1190q-63 0 -107 44t-44 107q0 61 44 105.5t107 44.5q61 0 105.5 -44t44.5 -106q0 -63 -44.5 -107t-105.5 -44zM825.5 1190q-61.5 0 -106.5 44t-45 107q0 61 45 105.5t106.5 44.5t105.5 -44t44 -106q0 -63 -44 -107t-105.5 -44zM1227 1126l-674 -1679h-254l256 631 h-61l-435 1048h277l323 -772l299 772h269z" glyph-name="ydieresis" horiz-adv-x="1282" unicode="ÿ"/><glyph d="M1100 1720h-635v164h635v-164zM1124 334h-690l-127 -334h-289l617 1536h297l616 -1536h-286zM1049 565l-265 701l-272 -701h537z" glyph-name="Amacron" horiz-adv-x="1568" unicode="Ā"/><glyph d="M815 1208h-635v164h635v-164zM432 -14q-164 0 -266.5 89t-102.5 244q0 152 126 246t335 111l240 20v25q0 201 -205 201q-96 0 -161.5 -47.5t-73.5 -143.5h-232q14 174 130 290t345 116q211 0 331 -105.5t120 -314.5v-369q0 -141 88 -141v-207h-76q-59 2 -95 8t-79 36 t-65 83q-47 -63 -145.5 -102t-213.5 -39zM498 193q84 0 156.5 43t109.5 104v174l-189 -20q-242 -29 -241 -162q0 -63 47 -101t117 -38z" glyph-name="amacron" horiz-adv-x="1159" unicode="ā"/><glyph d="M780 1659q-162 0 -259 89t-97 251h149q0 -76 58.5 -133.5t148.5 -57.5q92 0 150.5 56.5t58.5 134.5h150q0 -162 -98.5 -251t-260.5 -89zM1124 334h-690l-127 -334h-289l617 1536h297l616 -1536h-286zM1049 565l-265 701l-272 -701h537z" glyph-name="Abreve" horiz-adv-x="1568" unicode="Ă"/><glyph d="M510 1147q-162 0 -259 89t-97 251h149q0 -76 58.5 -133.5t148.5 -57.5q92 0 151.5 57.5t59.5 133.5h147q0 -162 -98 -251t-260 -89zM432 -14q-164 0 -266.5 89t-102.5 244q0 152 126 246t335 111l240 20v25q0 201 -205 201q-96 0 -161.5 -47.5t-73.5 -143.5h-232 q14 174 130 290t345 116q211 0 331 -105.5t120 -314.5v-369q0 -141 88 -141v-207h-76q-59 2 -95 8t-79 36t-65 83q-47 -63 -145.5 -102t-213.5 -39zM498 193q84 0 156.5 43t109.5 104v174l-189 -20q-242 -29 -241 -162q0 -63 47 -101t117 -38z" glyph-name="abreve" horiz-adv-x="1159" unicode="ă"/><glyph d="M1565 -299l84 -115q-131 -131 -314 -116q-115 6 -184.5 63t-69.5 164q0 190 234 303h-53l-138 334h-690l-127 -334h-289l617 1536h297l616 -1536h-4q-141 -14 -216 -99t-75 -182q0 -55 33 -87.5t92 -32.5q55 0 106.5 28.5t80.5 73.5zM512 565h537l-265 701z" glyph-name="Aogonek" horiz-adv-x="1667" unicode="Ą"/><glyph d="M1153 -299l82 -115q-127 -129 -313 -118q-115 8 -184.5 65t-69.5 164q0 82 68.5 171t174.5 148q-86 25 -120 111q-47 -63 -145.5 -102t-213.5 -39q-164 0 -266.5 89t-102.5 244q0 152 126 246t335 111l240 20v25q0 201 -205 201q-96 0 -161.5 -47.5t-73.5 -143.5h-232 q14 174 130 290t345 116q211 0 331 -105.5t120 -314.5v-369q0 -141 88 -141v-203l16 -4q-129 -29 -204.5 -108.5t-75.5 -172.5q0 -55 32.5 -88.5t90.5 -33.5q53 0 105 29.5t83 74.5zM764 340v174l-189 -20q-242 -29 -241 -162q0 -63 47 -101t117 -38q84 0 156.5 43 t109.5 104z" glyph-name="aogonek" horiz-adv-x="1144" unicode="ą"/><glyph d="M913 2048h261l-236 -334h-199zM819 -20q-215 0 -386 105t-264 285.5t-93 397.5q0 334 209 561t534 227q295 0 484.5 -168.5t207.5 -418.5h-256q-8 57 -36.5 112.5t-78.5 106.5t-133 83t-188 32q-225 0 -358 -152t-133 -383t133 -383t358 -152q186 0 302 100.5t134 219.5 h256q-20 -221 -219 -396t-473 -177z" glyph-name="Cacute" horiz-adv-x="1642" unicode="Ć"/><glyph d="M629 1536h260l-238 -334h-196zM584 -10q-244 0 -391.5 160.5t-147.5 414.5t147.5 413t391.5 159q139 0 244.5 -41t166 -108.5t91 -139.5t38.5 -148h-247q-10 86 -87 146.5t-184 60.5q-137 0 -212 -93t-75 -249q0 -154 76 -249t213 -95q102 0 177 64.5t92 150.5h245 q-10 -80 -40.5 -152.5t-89 -142t-164 -110.5t-244.5 -41z" glyph-name="cacute" horiz-adv-x="1173" unicode="ć"/><glyph d="M821 1702q-63 0 -107 44t-44 107q0 61 44 105.5t107 44.5q61 0 105.5 -44t44.5 -106q0 -63 -44.5 -107t-105.5 -44zM819 -20q-215 0 -386 105t-264 285.5t-93 397.5q0 334 209 561t534 227q295 0 484.5 -168.5t207.5 -418.5h-256q-8 57 -36.5 112.5t-78.5 106.5t-133 83 t-188 32q-225 0 -358 -152t-133 -383t133 -383t358 -152q186 0 302 100.5t134 219.5h256q-20 -221 -219 -396t-473 -177z" glyph-name="Cdotaccent" horiz-adv-x="1642" unicode="Ċ"/><glyph d="M594 1190q-61 0 -105.5 44t-44.5 107q0 61 44 105.5t106 44.5q63 0 107 -44t44 -106q0 -63 -44 -107t-107 -44zM584 -10q-244 0 -391.5 160.5t-147.5 414.5t147.5 413t391.5 159q139 0 244.5 -41t166 -108.5t91 -139.5t38.5 -148h-247q-10 86 -87 146.5t-184 60.5 q-137 0 -212 -93t-75 -249q0 -154 76 -249t213 -95q102 0 177 64.5t92 150.5h245q-10 -80 -40.5 -152.5t-89 -142t-164 -110.5t-244.5 -41z" glyph-name="cdotaccent" horiz-adv-x="1173" unicode="ċ"/><glyph d="M473 2048h191l157 -233l158 233h190l-215 -350h-268zM819 -20q-215 0 -386 105t-264 285.5t-93 397.5q0 334 209 561t534 227q295 0 484.5 -168.5t207.5 -418.5h-256q-8 57 -36.5 112.5t-78.5 106.5t-133 83t-188 32q-225 0 -358 -152t-133 -383t133 -383t358 -152 q186 0 302 100.5t134 219.5h256q-20 -221 -219 -396t-473 -177z" glyph-name="Ccaron" horiz-adv-x="1642" unicode="Č"/><glyph d="M231 1536h191l158 -233l157 233h191l-215 -350h-269zM584 -10q-244 0 -391.5 160.5t-147.5 414.5t147.5 413t391.5 159q139 0 244.5 -41t166 -108.5t91 -139.5t38.5 -148h-247q-10 86 -87 146.5t-184 60.5q-137 0 -212 -93t-75 -249q0 -154 76 -249t213 -95 q102 0 177 64.5t92 150.5h245q-10 -80 -40.5 -152.5t-89 -142t-164 -110.5t-244.5 -41z" glyph-name="ccaron" horiz-adv-x="1173" unicode="č"/><glyph d="M254 2048h190l158 -233l158 233h190l-215 -350h-268zM129 1536h510q334 0 551 -200.5t217 -571.5q0 -358 -218 -561t-550 -203h-510v1536zM637 233q227 0 366.5 132.5t139.5 398.5q0 281 -138.5 411t-367.5 130h-244v-1072h244z" glyph-name="Dcaron" horiz-adv-x="1490" unicode="Ď"/><glyph d="M1391 1249q-45 16 -73 55t-28 87q0 63 44 106t105.5 43t103.5 -43t42 -106q0 -53 -43 -136.5t-96 -150.5h-139zM1180 1534v-1532l-242 -2l-23 133q-125 -143 -342 -143q-227 0 -371.5 160.5t-144.5 404.5q0 248 145.5 415t372.5 167q195 0 328 -144v541h277zM627 223 q96 0 170.5 60.5t105.5 156.5v232q-31 98 -105.5 158.5t-170.5 60.5q-131 0 -212 -96.5t-81 -239.5q0 -141 81 -236.5t212 -95.5z" glyph-name="dcaron" horiz-adv-x="1673" unicode="ď"/><glyph d="M786 1536q334 0 551 -200.5t217 -571.5q0 -358 -218 -561t-550 -203h-512v692h-145v152h145v692h512zM784 233q225 0 365.5 133.5t140.5 397.5q0 281 -138 411t-368 130h-243v-461h219v-152h-219v-459h243z" glyph-name="Dcroat" horiz-adv-x="1638" unicode="Đ"/><glyph d="M1231 1188h-144v-1188l-229 -2l-14 127q-123 -145 -312 -145q-209 0 -342 153.5t-133 378.5q0 227 133.5 379.5t341.5 152.5q184 0 302 -133v277h-269v151h269v197h253v-197h144v-151zM582 207q88 0 155.5 55t96.5 146v210q-29 90 -96.5 145.5t-155.5 55.5 q-121 0 -196 -88t-75 -219t75 -218t196 -87z" glyph-name="dcroat" horiz-adv-x="1318" unicode="đ"/><glyph d="M897 1720h-635v164h635v-164zM383 1305v-420h639v-234h-639v-418h725v-233h-991v1536h991v-231h-725z" glyph-name="Emacron" horiz-adv-x="1222" unicode="Ē"/><glyph d="M899 1212h-635v166h635v-166zM1110 567q0 -39 -6 -88h-787q10 -127 89 -201.5t188 -74.5q199 0 268 151h225q-25 -152 -151.5 -258t-343.5 -106q-244 0 -393.5 161.5t-149.5 411.5q0 254 144.5 414t398.5 160q240 0 379 -155t139 -415zM590 920q-113 0 -180.5 -66 t-85.5 -180h520q-33 246 -254 246z" glyph-name="emacron" horiz-adv-x="1177" unicode="ē"/><glyph d="M580 1702q-63 0 -107.5 44t-44.5 107q0 61 44 105.5t108 44.5q61 0 106 -44t45 -106q0 -63 -45 -107t-106 -44zM383 1305v-420h639v-234h-639v-418h725v-233h-991v1536h991v-231h-725z" glyph-name="Edotaccent" horiz-adv-x="1222" unicode="Ė"/><glyph d="M582 1194q-63 0 -107.5 44t-44.5 108q0 61 44 106t108 45q61 0 106 -45t45 -106q0 -63 -45 -107.5t-106 -44.5zM1110 567q0 -39 -6 -88h-787q10 -127 89 -201.5t188 -74.5q199 0 268 151h225q-25 -152 -151.5 -258t-343.5 -106q-244 0 -393.5 161.5t-149.5 411.5 q0 254 144.5 414t398.5 160q240 0 379 -155t139 -415zM590 920q-113 0 -180.5 -66t-85.5 -180h520q-33 246 -254 246z" glyph-name="edotaccent" horiz-adv-x="1177" unicode="ė"/><glyph d="M1044 -299l82 -115q-131 -131 -313 -116q-115 6 -184.5 63t-69.5 164q0 190 234 303h-676v1536h991v-231h-725v-420h639v-234h-639v-418h725v-233h-84q-127 -8 -209 -96t-82 -185q0 -55 33 -87.5t90 -32.5q55 0 106 28.5t82 73.5z" glyph-name="Eogonek" horiz-adv-x="1247" unicode="Ę"/><glyph d="M1110 567q0 -39 -6 -88h-787q10 -127 89 -201.5t188 -74.5q199 0 268 151h225q-23 -133 -125 -234.5t-276 -123.5l-6 -8q-55 -76 -55 -150q0 -55 33.5 -88t91.5 -33q55 0 106 29t82 74l82 -115q-127 -127 -313 -117q-115 6 -184.5 64.5t-69.5 165.5q0 92 57 168v10 q-209 27 -335 184.5t-126 382.5q0 254 144.5 414t398.5 160q240 0 379 -155t139 -415zM324 674h520q-33 246 -254 246q-113 0 -180.5 -65.5t-85.5 -180.5z" glyph-name="eogonek" horiz-adv-x="1136" unicode="ę"/><glyph d="M442 1698l-213 350h191l158 -233l157 233h191l-215 -350h-269zM383 1305v-420h639v-234h-639v-418h725v-233h-991v1536h991v-231h-725z" glyph-name="Ecaron" horiz-adv-x="1222" unicode="Ě"/><glyph d="M444 1190l-213 350h191l158 -233l157 233h191l-215 -350h-269zM1110 567q0 -39 -6 -88h-787q10 -127 89 -201.5t188 -74.5q199 0 268 151h225q-25 -152 -151.5 -258t-343.5 -106q-244 0 -393.5 161.5t-149.5 411.5q0 254 144.5 414t398.5 160q240 0 379 -155t139 -415z M590 920q-113 0 -180.5 -66t-85.5 -180h520q-33 246 -254 246z" glyph-name="ecaron" horiz-adv-x="1177" unicode="ě"/><glyph d="M821 1659q-162 0 -259 89t-97 251h149q0 -76 58.5 -133.5t148.5 -57.5q92 0 150.5 56.5t58.5 134.5h150q0 -162 -98.5 -251t-260.5 -89zM1479 809v-262v-547h-179l-36 205q-82 -113 -198 -164t-286 -51q-328 0 -525.5 215t-197.5 557q0 350 197 566t514 216 q272 0 459.5 -134t218.5 -390h-256q-27 131 -137.5 207t-259.5 76q-233 0 -361.5 -144.5t-128.5 -396.5q0 -238 139.5 -384.5t335.5 -146.5q193 0 311.5 95.5t118.5 257.5h-383v225h654z" glyph-name="Gbreve" horiz-adv-x="1581" unicode="Ğ"/><glyph d="M618.5 1147q-161.5 0 -259 89t-97.5 251h150q0 -76 58 -133.5t148 -57.5q92 0 151.5 57.5t59.5 133.5h148q0 -162 -98.5 -251t-260 -89zM580 -508q-225 -4 -360.5 78t-156.5 213q-12 78 21 166t113 131q-47 16 -82 65.5t-35 106.5q0 125 149 205q-51 49 -87 128t-36 167 q0 160 131.5 274.5t331.5 114.5q72 0 157 -21.5t130 -56.5q23 76 110 117t154 26v-174q-49 14 -95 -2t-64 -63q92 -121 92 -230q0 -182 -135.5 -297.5t-337.5 -120.5q-139 -6 -215 41q-35 -12 -50.5 -35.5t-7.5 -45.5q20 -63 160 -66l223 -2q180 -4 292 -77t126 -206 q20 -203 -125 -316.5t-403 -119.5zM793 739q0 84 -62.5 133.5t-161.5 49.5q-96 0 -156.5 -50.5t-60.5 -134.5t61.5 -136t155.5 -52q98 0 161 52t63 138zM856 -119q-6 121 -283 121h-174q-45 -12 -71.5 -52t-26.5 -85q0 -74 70.5 -115t187.5 -41q139 0 221 47t76 125z" glyph-name="gbreve" horiz-adv-x="1177" unicode="ğ"/><glyph d="M885 1702q-63 0 -107.5 44t-44.5 107q0 61 44 105.5t108 44.5q61 0 105 -44t44 -106q0 -63 -44 -107t-105 -44zM1479 809v-262v-547h-179l-36 205q-82 -113 -198 -164t-286 -51q-328 0 -525.5 215t-197.5 557q0 350 197 566t514 216q272 0 459.5 -134t218.5 -390h-256 q-27 131 -137.5 207t-259.5 76q-233 0 -361.5 -144.5t-128.5 -396.5q0 -238 139.5 -384.5t335.5 -146.5q193 0 311.5 95.5t118.5 257.5h-383v225h654z" glyph-name="Gdotaccent" horiz-adv-x="1581" unicode="Ġ"/><glyph d="M590 1190q-63 0 -107.5 44t-44.5 107q0 61 44 105.5t108 44.5q61 0 106 -44t45 -106q0 -63 -45 -107t-106 -44zM580 -508q-225 -4 -360.5 78t-156.5 213q-12 78 21 166t113 131q-47 16 -82 65.5t-35 106.5q0 125 149 205q-51 49 -87 128t-36 167q0 160 131.5 274.5 t331.5 114.5q72 0 157 -21.5t130 -56.5q23 76 110 117t154 26v-174q-49 14 -95 -2t-64 -63q92 -121 92 -230q0 -182 -135.5 -297.5t-337.5 -120.5q-139 -6 -215 41q-35 -12 -50.5 -35.5t-7.5 -45.5q20 -63 160 -66l223 -2q180 -4 292 -77t126 -206q20 -203 -125 -316.5 t-403 -119.5zM793 739q0 84 -62.5 133.5t-161.5 49.5q-96 0 -156.5 -50.5t-60.5 -134.5t61.5 -136t155.5 -52q98 0 161 52t63 138zM856 -119q-6 121 -283 121h-174q-45 -12 -71.5 -52t-26.5 -85q0 -74 70.5 -115t187.5 -41q139 0 221 47t76 125z" glyph-name="gdotaccent" horiz-adv-x="1177" unicode="ġ"/><glyph d="M1479 809v-262v-547h-179l-36 205q-82 -113 -198 -164t-286 -51q-328 0 -525.5 215t-197.5 557q0 350 197 566t514 216q272 0 459.5 -134t218.5 -390h-256q-27 131 -137.5 207t-259.5 76q-233 0 -361.5 -144.5t-128.5 -396.5q0 -238 139.5 -384.5t335.5 -146.5 q193 0 311.5 95.5t118.5 257.5h-383v225h654zM813 -387q-45 16 -72.5 55t-27.5 86q0 61 44 105.5t105.5 44.5t103.5 -43t42 -107q0 -109 -140 -289h-139z" glyph-name="Gcommaaccent" horiz-adv-x="1581" unicode="Ģ"/><glyph d="M649 1452q45 -16 73 -55t28 -86q0 -63 -43 -106.5t-107 -43.5q-61 0 -103 43t-42 107q0 53 44 137t97 149h137zM580 -508q-225 -4 -360.5 78t-156.5 213q-12 78 21 166t113 131q-47 16 -82 65.5t-35 106.5q0 125 149 205q-51 49 -87 128t-36 167q0 160 131.5 274.5 t331.5 114.5q72 0 157 -21.5t130 -56.5q23 76 110 117t154 26v-174q-49 14 -95 -2t-64 -63q92 -121 92 -230q0 -182 -135.5 -297.5t-337.5 -120.5q-139 -6 -215 41q-35 -12 -50.5 -35.5t-7.5 -45.5q20 -63 160 -66l223 -2q180 -4 292 -77t126 -206q20 -203 -125 -316.5 t-403 -119.5zM793 739q0 84 -62.5 133.5t-161.5 49.5q-96 0 -156.5 -50.5t-60.5 -134.5t61.5 -136t155.5 -52q98 0 161 52t63 138zM856 -119q-6 121 -283 121h-174q-45 -12 -71.5 -52t-26.5 -85q0 -74 70.5 -115t187.5 -41q139 0 221 47t76 125z" glyph-name="gcommaaccent" horiz-adv-x="1177" unicode="ģ"/><glyph d="M1634 1155h-127v-1155h-266v651h-713v-651h-268v1155h-127v102h127v279h268v-279h713v279h266v-279h127v-102zM1241 1155h-713v-268h713v268z" glyph-name="Hbar" horiz-adv-x="1767" unicode="Ħ"/><glyph d="M866 1137q195 0 304.5 -108.5t109.5 -301.5v-727h-281v692q0 96 -56 147.5t-159 51.5q-111 0 -192.5 -59.5t-81.5 -155.5v-676h-281v1198h-106v152h106v186h281v-186h276v-152h-276v-209q61 68 157.5 108t198.5 40z" glyph-name="hbar" horiz-adv-x="1351" unicode="ħ"/><glyph d="M401 1688q-119 0 -200 116q-27 45 -68 45t-56.5 -41t3.5 -104h-156q-25 127 34.5 211t166.5 84q129 0 203 -117q27 -45 69 -45q41 0 55.5 40t-1.5 103h151q27 -125 -31.5 -208.5t-169.5 -83.5zM133 1536h266v-1536h-266v1536z" glyph-name="Itilde" horiz-adv-x="532" unicode="Ĩ"/><glyph d="M399 1176q-123 0 -200 116q-31 45 -70 45t-54.5 -41t1.5 -104h-154q-25 127 34.5 211t166.5 84q125 0 203 -117q27 -45 67.5 -45t56 40t-3.5 103h154q27 -125 -31.5 -208.5t-169.5 -83.5zM133 1024h258v-1024h-258v1024z" glyph-name="itilde" horiz-adv-x="524" unicode="ĩ"/><glyph d="M-53 1884h637v-164h-637v164zM133 1536h266v-1536h-266v1536z" glyph-name="Imacron" horiz-adv-x="532" unicode="Ī"/><glyph d="M-57 1372h637v-164h-637v164zM133 1024h258v-1024h-258v1024z" glyph-name="imacron" horiz-adv-x="524" unicode="ī"/><glyph d="M473 -414q-127 -131 -313 -116q-115 6 -185.5 63t-70.5 164q0 188 237 303h-8v1536h266v-1536h-28q-125 -8 -208 -96t-83 -185q0 -55 32.5 -87.5t92.5 -32.5q53 0 105 28.5t81 73.5z" glyph-name="Iogonek" horiz-adv-x="532" unicode="Į"/><glyph d="M262.5 1190q-61.5 0 -106.5 44t-45 107q0 61 45 105.5t106.5 44.5t106.5 -44t45 -106q0 -63 -45 -107t-106.5 -44zM471 -414q-131 -131 -313 -116q-115 6 -186.5 63t-71.5 164q0 188 237 303h-4v1024h258v-1024h-24q-125 -8 -208 -96t-83 -185q0 -55 32.5 -87.5 t92.5 -32.5q55 0 106 28.5t80 73.5z" glyph-name="iogonek" horiz-adv-x="524" unicode="į"/><glyph d="M266 1702q-63 0 -107 44t-44 107q0 61 44 105.5t107 44.5q61 0 106.5 -44t45.5 -106q0 -63 -45.5 -107t-106.5 -44zM133 1536h266v-1536h-266v1536z" glyph-name="Idotaccent" horiz-adv-x="532" unicode="İ"/><glyph d="M133 1024h258v-1024h-258v1024z" glyph-name="dotlessi" horiz-adv-x="524" unicode="ı"/><glyph d="M182 1536h269v-1536h-269v1536zM940 -20q-104 0 -162 20v270q70 -25 148 -24q53 0 92 39t39 94v1157h264v-1180q0 -166 -107.5 -271t-273.5 -105z" glyph-name="IJ" horiz-adv-x="1554" unicode="Ĳ"/><glyph d="M997.5 1235q-61.5 0 -106.5 44t-45 107q0 61 45 105.5t106.5 44.5t106.5 -44t45 -105.5t-45 -106.5t-106.5 -45zM324 1204q-59 0 -104.5 45t-45.5 106.5t44 106.5t106 45q63 0 108 -44t45 -107q0 -61 -45 -106.5t-108 -45.5zM655 -510v227h47q88 0 126 35t38 119v1255 h260v-1276q0 -360 -424 -360h-47zM195 1024h258v-1024h-258v1024z" glyph-name="ij" horiz-adv-x="1312" unicode="ĳ"/><glyph d="M1032 0l-643 694v-694h-266v1536h266v-696l563 696h310l-598 -758l716 -778h-348zM635 -365q-45 16 -72.5 55.5t-27.5 86.5q0 61 44 105t105 44t103 -43t42 -106q0 -109 -139 -289h-139z" glyph-name="Kcommaaccent" horiz-adv-x="1380" unicode="Ķ"/><glyph d="M111 0v1536h280v-836l344 426h291l-434 -518l485 -608h-297l-389 492v-492h-280zM541 -365q-45 16 -72 56.5t-27 87.5q0 61 43 105t107 44q59 0 102 -44t43 -105q0 -55 -44 -139t-97 -150h-139z" glyph-name="kcommaaccent" horiz-adv-x="1114" unicode="ķ"/><glyph d="M346 2048h260l-237 -334h-197zM133 1536h266v-1303h535v-233h-801v1536z" glyph-name="Lacute" horiz-adv-x="995" unicode="Ĺ"/><glyph d="M330 2048h260l-238 -334h-196zM150 0v1536h258v-1536h-258z" glyph-name="lacute" horiz-adv-x="714" unicode="ĺ"/><glyph d="M133 1536h266v-1303h535v-233h-801v1536zM483 -403q-45 16 -71.5 55t-26.5 86q0 63 43 106t107 43q59 0 102 -43t43 -106q0 -53 -44 -137t-97 -150h-140z" glyph-name="Lcommaaccent" horiz-adv-x="995" unicode="Ļ"/><glyph d="M150 0v1536h258v-1536h-258zM229 -383q-45 16 -71.5 55t-26.5 86q0 63 43 106.5t107 43.5q59 0 102 -43t43 -107q0 -53 -44 -137t-97 -149h-140z" glyph-name="lcommaaccent" horiz-adv-x="714" unicode="ļ"/><glyph d="M801 1245q-45 16 -73 56t-28 88q0 61 43 105t107 44q61 0 103 -44t42 -105q0 -55 -44 -139.5t-97 -149.5h-137zM133 1536h266v-1303h535v-233h-801v1536z" glyph-name="Lcaron" horiz-adv-x="1019" unicode="Ľ"/><glyph d="M680 1257q-45 16 -71.5 56.5t-26.5 87.5q0 61 43 105t106 44q59 0 102.5 -44t43.5 -105q0 -55 -44.5 -139t-97.5 -150h-139zM150 0v1536h258v-1536h-258z" glyph-name="lcaron" horiz-adv-x="927" unicode="ľ"/><glyph d="M150 0v1536h258v-1536h-258zM629 625q-47 0 -80 32.5t-33 79.5t34 81t79 34t79.5 -35t34.5 -80q0 -47 -34.5 -79.5t-79.5 -32.5z" glyph-name="ldot" horiz-adv-x="780" unicode="ŀ"/><glyph d="M934 233v-233h-801v547l-86 -90h-162l248 262v817h266v-539l80 84h166l-246 -256v-592h535z" glyph-name="Lslash" horiz-adv-x="995" unicode="Ł"/><glyph d="M657 1083l-247 -258l-2 -2v-823h-258v553l-93 -94h-159l252 264v813h258v-541l2 2l82 86h165z" glyph-name="lslash" horiz-adv-x="714" unicode="ł"/><glyph d="M922 1714h-199l176 334h258zM1499 1536v-1536h-266l-834 1128v-1128h-266v1536h268l834 -1126v1126h264z" glyph-name="Nacute" horiz-adv-x="1632" unicode="Ń"/><glyph d="M719 1202h-199l176 334h258zM741 1141q193 0 302.5 -108.5t109.5 -303.5v-729h-279v696q0 96 -55 147.5t-157 51.5q-111 0 -193 -59.5t-82 -153.5v-682h-281v1126h250l19 -147q61 74 160.5 118t205.5 44z" glyph-name="nacute" horiz-adv-x="1226" unicode="ń"/><glyph d="M1499 1536v-1536h-266l-834 1128v-1128h-266v1536h268l834 -1126v1126h264zM793 -360q-45 16 -73 56t-28 87q0 61 43 105t107 44q61 0 103 -44t42 -105q0 -55 -44 -139t-97 -150h-137z" glyph-name="Ncommaaccent" horiz-adv-x="1632" unicode="Ņ"/><glyph d="M741 1141q193 0 302.5 -108.5t109.5 -303.5v-729h-279v696q0 96 -55 147.5t-157 51.5q-111 0 -193 -59.5t-82 -153.5v-682h-281v1126h250l19 -147q61 74 160.5 118t205.5 44zM555 -395q-45 16 -71.5 55t-26.5 86q0 63 43 106.5t106 43.5q59 0 102.5 -43t43.5 -107 q0 -53 -44 -137t-98 -150h-139z" glyph-name="ncommaaccent" horiz-adv-x="1226" unicode="ņ"/><glyph d="M684 1698l-213 350h191l157 -233l158 233h190l-215 -350h-268zM1499 1536v-1536h-266l-834 1128v-1128h-266v1536h268l834 -1126v1126h264z" glyph-name="Ncaron" horiz-adv-x="1632" unicode="Ň"/><glyph d="M481 1186l-211 350h191l155 -233l160 233h191l-217 -350h-269zM741 1141q193 0 302.5 -108.5t109.5 -303.5v-729h-279v696q0 96 -55 147.5t-157 51.5q-111 0 -193 -59.5t-82 -153.5v-682h-281v1126h250l19 -147q61 74 160.5 118t205.5 44z" glyph-name="ncaron" horiz-adv-x="1226" unicode="ň"/><glyph d="M1518 1536v-1657q0 -172 -114 -253t-302 -81v172q74 -2 112.5 30t38.5 132v133l-835 1102v-1114h-256v1536h258l842 -1112v1112h256z" glyph-name="Eng" horiz-adv-x="1679" unicode="Ŋ"/><glyph d="M1153 729v-729h-55v-139q0 -170 -116 -252t-302 -80v172q76 -2 118 29.5t42 130.5v153l34 4v678q0 96 -55 147.5t-157 51.5q-111 0 -193 -59.5t-82 -153.5v-682h-281v1126h250l19 -147q61 74 160.5 118t205.5 44q193 0 302.5 -108.5t109.5 -303.5z" glyph-name="eng" horiz-adv-x="1265" unicode="ŋ"/><glyph d="M518 1884h635v-164h-635v164zM835.5 -20q-327.5 0 -538.5 228t-211 560t211 560t538.5 228t538.5 -228t211 -560t-211 -560t-538.5 -228zM836 238q223 0 357 150.5t134 379.5q0 231 -134 381.5t-357 150.5q-225 0 -360.5 -150.5t-135.5 -381.5q0 -229 135.5 -379.5 t360.5 -150.5z" glyph-name="Omacron" horiz-adv-x="1669" unicode="Ō"/><glyph d="M276 1372h635v-164h-635v164zM594 -20q-227 0 -375.5 153.5t-148.5 378.5q0 227 148.5 379.5t375.5 152.5t375.5 -153.5t148.5 -378.5t-148.5 -378.5t-375.5 -153.5zM594 207q119 0 193.5 88t74.5 217q0 131 -74.5 219t-193.5 88q-121 0 -195.5 -88t-74.5 -219t74.5 -218 t195.5 -87z" glyph-name="omacron" horiz-adv-x="1185" unicode="ō"/><glyph d="M836 2048h243l-352 -362h-182zM1235 2048h244l-353 -362h-182zM835.5 -20q-327.5 0 -538.5 228t-211 560t211 560t538.5 228t538.5 -228t211 -560t-211 -560t-538.5 -228zM836 238q223 0 357 150.5t134 379.5q0 231 -134 381.5t-357 150.5q-225 0 -360.5 -150.5 t-135.5 -381.5q0 -229 135.5 -379.5t360.5 -150.5z" glyph-name="Ohungarumlaut" horiz-adv-x="1669" unicode="Ő"/><glyph d="M594 1536h242l-353 -362h-180zM991 1536h244l-350 -362h-183zM594 -20q-227 0 -375.5 153.5t-148.5 378.5q0 227 148.5 379.5t375.5 152.5t375.5 -153.5t148.5 -378.5t-148.5 -378.5t-375.5 -153.5zM594 207q119 0 193.5 88t74.5 217q0 131 -74.5 219t-193.5 88 q-121 0 -195.5 -88t-74.5 -219t74.5 -218t195.5 -87z" glyph-name="ohungarumlaut" horiz-adv-x="1185" unicode="ő"/><glyph d="M2435 1305h-725v-420h639v-234h-639v-418h725v-233h-991v199q-227 -217 -539 -217q-328 0 -558 230t-230 558t230.5 558.5t557.5 230.5q315 0 539 -218v195h991v-231zM905 238q223 0 378 154.5t155 377.5t-155 378t-378 155t-377.5 -155t-154.5 -378t154.5 -377.5 t377.5 -154.5z" glyph-name="OE" horiz-adv-x="2654" unicode="Œ"/><glyph d="M1921 567q0 -39 -6 -88h-787q10 -127 89 -201.5t188 -74.5q199 0 268 151h225q-25 -152 -151.5 -258t-343.5 -106q-250 0 -399 170q-160 -180 -408 -180q-244 0 -402.5 168.5t-158.5 416.5t158.5 417t402.5 169q246 0 403 -178q147 164 404 164q240 0 379 -155t139 -415z M1135 674h520q-33 246 -254 246q-113 0 -180.5 -65.5t-85.5 -180.5zM596 229q100 0 172 60.5t100 161.5q-8 49 -8 112q0 68 8 119q-29 100 -100.5 160.5t-171.5 60.5q-129 0 -209 -97t-80 -240.5t80 -240t209 -96.5z" glyph-name="oe" horiz-adv-x="1941" unicode="œ"/><glyph d="M743 1714h-198l176 334h258zM1305 0h-299l-367 592h-260v-592h-266v1536h675q184 0 315.5 -147.5t131.5 -337.5q0 -156 -93 -283t-235 -160zM778 801q92 0 153.5 71.5t61.5 180.5q0 106 -62.5 179t-152.5 73h-399v-504h399z" glyph-name="Racute" horiz-adv-x="1239" unicode="Ŕ"/><glyph d="M545 1202h-197l174 334h260zM799 1139v-244q-205 4 -310.5 -82t-105.5 -285v-528h-281v1126h260l19 -170q35 76 139.5 130.5t278.5 52.5z" glyph-name="racute" horiz-adv-x="874" unicode="ŕ"/><glyph d="M1305 0h-299l-367 592h-260v-592h-266v1536h675q184 0 315.5 -147.5t131.5 -337.5q0 -156 -93 -283t-235 -160zM778 801q92 0 153.5 71.5t61.5 180.5q0 106 -62.5 179t-152.5 73h-399v-504h399zM606 -365q-45 16 -71.5 56.5t-26.5 87.5q0 61 43 105t106 44 q59 0 102.5 -44t43.5 -105q0 -55 -44 -139t-97 -150h-140z" glyph-name="Rcommaaccent" horiz-adv-x="1239" unicode="Ŗ"/><glyph d="M799 1139v-244q-205 4 -310.5 -82t-105.5 -285v-528h-281v1126h260l19 -170q35 76 139.5 130.5t278.5 52.5zM201 -387q-45 16 -72 56t-27 87q0 61 43 105.5t107 44.5q59 0 102 -44t43 -106q0 -55 -44 -139t-97 -149h-139z" glyph-name="rcommaaccent" horiz-adv-x="874" unicode="ŗ"/><glyph d="M506 1698l-211 350h190l156 -233l160 233h190l-217 -350h-268zM1305 0h-299l-367 592h-260v-592h-266v1536h675q184 0 315.5 -147.5t131.5 -337.5q0 -156 -93 -283t-235 -160zM778 801q92 0 153.5 71.5t61.5 180.5q0 106 -62.5 179t-152.5 73h-399v-504h399z" glyph-name="Rcaron" horiz-adv-x="1239" unicode="Ř"/><glyph d="M313 1186l-213 350h191l158 -233l157 233h191l-215 -350h-269zM799 1139v-244q-205 4 -310.5 -82t-105.5 -285v-528h-281v1126h260l19 -170q35 76 139.5 130.5t278.5 52.5z" glyph-name="rcaron" horiz-adv-x="874" unicode="ř"/><glyph d="M776 2048h258l-235 -334h-199zM657 -20q-244 0 -396 138t-173 357h238q25 -104 105.5 -176t234.5 -72q129 0 206.5 50.5t79.5 150.5q0 39 -12 71.5t-46 61.5t-55.5 46.5t-82 43t-82 34.5t-94.5 36q-80 31 -130.5 51.5t-116 59t-103 77.5t-64.5 99.5t-27 132.5 q0 188 155 301.5t374 113.5q477 0 561 -473h-246q-12 100 -92 175t-217 75q-106 0 -184 -49t-78 -133q0 -35 19.5 -66.5t43 -52t74.5 -46t82 -38t98 -39.5q227 -90 309 -145q184 -127 185 -332q0 -217 -162 -334.5t-404 -117.5z" glyph-name="Sacute" horiz-adv-x="1312" unicode="Ś"/><glyph d="M582 1536h260l-236 -334h-198zM551 -16q-221 0 -347 112.5t-141 257.5h238q16 -76 86 -124t156 -44q170 8 170 138q0 63 -62.5 96t-187.5 63q-80 20 -133.5 39t-114.5 54.5t-92 91t-31 129.5q0 158 124 253t321 95q168 0 294.5 -89t143.5 -257h-238q-14 63 -66.5 97 t-121.5 38q-74 4 -123 -23.5t-49 -81.5q0 -31 15.5 -52t52 -38.5t67.5 -28t88 -24.5q20 -6 31 -8q76 -20 129 -43t111.5 -60.5t89 -98t30.5 -138.5q0 -160 -120.5 -257t-319.5 -97z" glyph-name="sacute" horiz-adv-x="1005" unicode="ś"/><glyph d="M729 909q227 -90 309 -145q184 -127 185 -332q0 -207 -145.5 -322.5t-368.5 -127.5l-60 -109q104 18 176 -36t72 -150q0 -92 -63.5 -155.5t-155.5 -63.5q-74 0 -143.5 41.5t-94.5 101.5l113 43q18 -29 55 -48.5t70 -19.5q41 0 68.5 30t27.5 71q0 61 -51 82.5t-129 -11.5 l-96 58l90 168q-215 20 -348.5 154t-151.5 337h238q25 -104 105.5 -176t234.5 -72q129 0 206.5 50.5t79.5 150.5q0 39 -12 71.5t-46 61.5t-55.5 46.5t-82 43t-82 34.5t-94.5 36q-80 31 -130.5 51.5t-116 59t-103 77.5t-64.5 99.5t-27 132.5q0 188 155 301.5t374 113.5 q477 0 561 -473h-246q-12 100 -92 175t-217 75q-106 0 -184 -49t-78 -133q0 -35 19.5 -66.5t43 -52t74.5 -46t81.5 -38t98.5 -39.5z" glyph-name="Scedilla" horiz-adv-x="1312" unicode="Ş"/><glyph d="M551 -16q-221 0 -347 112.5t-141 257.5h238q16 -76 86 -124t156 -44q170 8 170 138q0 63 -62.5 96t-187.5 63q-80 20 -133.5 39t-114.5 54.5t-92 91t-31 129.5q0 158 124 253t321 95q168 0 294.5 -89t143.5 -257h-238q-14 63 -66.5 97t-121.5 38q-74 4 -123 -23.5 t-49 -81.5q0 -31 15.5 -52t52 -38.5t67.5 -28t88 -24.5q20 -6 31 -8q76 -20 129 -43t111.5 -60.5t89 -98t30.5 -138.5q0 -160 -120.5 -257t-319.5 -97zM578 -18l-58 -111q102 20 174 -34t72 -150q0 -92 -63.5 -155.5t-155.5 -63.5q-74 0 -142.5 41.5t-95.5 101.5l113 43 q18 -29 54 -48.5t71 -19.5q41 0 69.5 30t28.5 71q0 61 -52 81.5t-130 -12.5l-94 58l88 170z" glyph-name="scedilla" horiz-adv-x="1005" unicode="ş"/><glyph d="M348 2048h191l157 -233l158 233h190l-215 -350h-268zM657 -20q-244 0 -396 138t-173 357h238q25 -104 105.5 -176t234.5 -72q129 0 206.5 50.5t79.5 150.5q0 39 -12 71.5t-46 61.5t-55.5 46.5t-82 43t-82 34.5t-94.5 36q-80 31 -130.5 51.5t-116 59t-103 77.5t-64.5 99.5 t-27 132.5q0 188 155 301.5t374 113.5q477 0 561 -473h-246q-12 100 -92 175t-217 75q-106 0 -184 -49t-78 -133q0 -35 19.5 -66.5t43 -52t74.5 -46t82 -38t98 -39.5q227 -90 309 -145q184 -127 185 -332q0 -217 -162 -334.5t-404 -117.5z" glyph-name="Scaron" horiz-adv-x="1312" unicode="Š"/><glyph d="M156 1536h190l158 -233l158 233h190l-215 -350h-268zM551 -16q-221 0 -347 112.5t-141 257.5h238q16 -76 86 -124t156 -44q170 8 170 138q0 63 -62.5 96t-187.5 63q-80 20 -133.5 39t-114.5 54.5t-92 91t-31 129.5q0 158 124 253t321 95q168 0 294.5 -89t143.5 -257h-238 q-14 63 -66.5 97t-121.5 38q-74 4 -123 -23.5t-49 -81.5q0 -31 15.5 -52t52 -38.5t67.5 -28t88 -24.5q20 -6 31 -8q76 -20 129 -43t111.5 -60.5t89 -98t30.5 -138.5q0 -160 -120.5 -257t-319.5 -97z" glyph-name="scaron" horiz-adv-x="1005" unicode="š"/><glyph d="M745 0h-51l-67 -129q102 20 173.5 -34t71.5 -150q0 -92 -63.5 -155.5t-153.5 -63.5q-76 0 -144.5 41.5t-94.5 101.5l114 43q16 -29 53.5 -48.5t71.5 -19.5q41 0 69 30t28 71q0 61 -52.5 81.5t-128.5 -12.5l-96 58l98 186h-90v1305h-446v231h1153v-231h-445v-1305z" glyph-name="Tcommaaccent" horiz-adv-x="1230" unicode="Ţ"/><glyph d="M659 -2q-100 0 -165.5 10t-130 45t-96 110t-31.5 193v553h-187v221h187v406h260v-406h290v-221h-292v-532q0 -82 39.5 -118t125.5 -36h136v-225h-136zM485 -129q104 20 176 -34t72 -150q0 -92 -63.5 -155.5t-155.5 -63.5q-74 0 -143.5 41.5t-94.5 101.5l113 43 q18 -29 54 -48.5t71 -19.5q41 0 68.5 30t27.5 71q0 61 -51 81.5t-129 -12.5l-96 58l98 186l111 -14z" glyph-name="tcommaaccent" horiz-adv-x="761" unicode="ţ"/><glyph d="M512 1698l-213 350h190l158 -233l158 233h190l-215 -350h-268zM1190 1305h-445v-1305h-262v1305h-446v231h1153v-231z" glyph-name="Tcaron" horiz-adv-x="1210" unicode="Ť"/><glyph d="M686 1305q-45 16 -72.5 56t-27.5 87q0 61 43 105t106 44q61 0 103.5 -44t42.5 -105q0 -55 -44 -139t-98 -150h-137zM659 -2q-100 0 -165.5 10t-130 45t-96 110t-31.5 193v553h-187v221h187v406h260v-406h290v-221h-292v-532q0 -82 39.5 -118t125.5 -36h136v-225h-136z " glyph-name="tcaron" horiz-adv-x="847" unicode="ť"/><glyph d="M1190 1305h-445v-461h76l144 -25l-88 -127h-132v-692h-262v707l-182 12l55 125h127v461h-446v231h1153v-231z" glyph-name="Tbar" horiz-adv-x="1155" unicode="Ŧ"/><glyph d="M659 223h136v-225h-136q-100 0 -165.5 10t-130 45t-96 110t-31.5 193v80h-187v152h187v321h-187v221h187v406h260v-406h290v-221h-292v-321h221v-152h-221v-59q0 -82 39.5 -118t125.5 -36z" glyph-name="tbar" horiz-adv-x="761" unicode="ŧ"/><glyph d="M889 1688q-121 0 -203 116q-27 45 -67.5 45t-56 -41t2.5 -104h-151q-27 127 32.5 211t165.5 84q125 0 203 -117q25 -45 68 -45q41 0 56 40t-3 103h151q27 -125 -30 -208.5t-168 -83.5zM731 -20q-258 0 -436 150.5t-178 367.5v1038h266v-991q0 -137 101.5 -234.5 t247 -97.5t248.5 97.5t103 234.5v991h267v-1038q0 -217 -181.5 -367.5t-437.5 -150.5z" glyph-name="Utilde" horiz-adv-x="1503" unicode="Ũ"/><glyph d="M434 1884h635v-164h-635v164zM731 -20q-258 0 -436 150.5t-178 367.5v1038h266v-991q0 -137 101.5 -234.5t247 -97.5t248.5 97.5t103 234.5v991h267v-1038q0 -217 -181.5 -367.5t-437.5 -150.5z" glyph-name="Umacron" horiz-adv-x="1503" unicode="Ū"/><glyph d="M936 1208h-635v164h635v-164zM1171 1126v-1126h-249l-19 152q-61 -76 -160.5 -119t-203.5 -43q-186 0 -303 120.5t-117 309.5v706h280v-673q0 -98 58.5 -157.5t158.5 -59.5q109 0 192 61t83 156v673h280z" glyph-name="umacron" horiz-adv-x="1232" unicode="ū"/><glyph d="M752 1647q-96 0 -164 67.5t-68 163.5q0 92 68.5 159.5t163 67.5t161 -67.5t66.5 -159.5q0 -96 -66.5 -163.5t-160.5 -67.5zM751.5 1757q51.5 0 85 34t33.5 87q0 49 -34.5 85t-84 36t-84 -36t-34.5 -85q0 -53 33.5 -87t85 -34zM731 -20q-258 0 -436 150.5t-178 367.5v1038 h266v-991q0 -137 101.5 -234.5t247 -97.5t248.5 97.5t103 234.5v991h267v-1038q0 -217 -181.5 -367.5t-437.5 -150.5z" glyph-name="Uring" horiz-adv-x="1503" unicode="Ů"/><glyph d="M618.5 1135q-94.5 0 -162 67.5t-67.5 163.5q0 92 67.5 159.5t162 67.5t161 -67.5t66.5 -159.5q0 -96 -66.5 -163.5t-161 -67.5zM618 1487q-49 0 -82.5 -36t-33.5 -85q0 -53 33.5 -87t82.5 -34q51 0 86 34t35 87q0 49 -35 85t-86 36zM1171 1126v-1126h-249l-19 152 q-61 -76 -160.5 -119t-203.5 -43q-186 0 -303 120.5t-117 309.5v706h280v-673q0 -98 58.5 -157.5t158.5 -59.5q109 0 192 61t83 156v673h280z" glyph-name="uring" horiz-adv-x="1232" unicode="ů"/><glyph d="M752 2048h243l-352 -362h-182zM1151 2048h244l-353 -362h-182zM731 -20q-258 0 -436 150.5t-178 367.5v1038h266v-991q0 -137 101.5 -234.5t247 -97.5t248.5 97.5t103 234.5v991h267v-1038q0 -217 -181.5 -367.5t-437.5 -150.5z" glyph-name="Uhungarumlaut" horiz-adv-x="1503" unicode="Ű"/><glyph d="M510 1174h-182l290 362h244zM727 1174l291 362h244l-353 -362h-182zM1171 1126v-1126h-249l-19 152q-61 -76 -160.5 -119t-203.5 -43q-186 0 -303 120.5t-117 309.5v706h280v-673q0 -98 58.5 -157.5t158.5 -59.5q109 0 192 61t83 156v673h280z" glyph-name="uhungarumlaut" horiz-adv-x="1232" unicode="ű"/><glyph d="M1083 1536h267v-1038q0 -195 -148.5 -339.5t-374.5 -172.5h4q-84 -37 -137 -112t-53 -148q0 -55 33 -88t90 -33q55 0 106.5 28.5t81.5 73.5l82 -115q-127 -127 -313 -116q-115 6 -184.5 64.5t-69.5 164.5q0 168 188 279q-231 23 -384.5 168t-153.5 346v1038h266v-991 q0 -137 101.5 -234.5t247 -97.5t248.5 97.5t103 234.5v991z" glyph-name="Uogonek" horiz-adv-x="1503" unicode="Ų"/><glyph d="M1122 -299l82 -115q-131 -131 -313 -116q-115 6 -184.5 63t-69.5 164q0 195 231 303h54l-19 152q-61 -76 -160.5 -119t-203.5 -43q-186 0 -303 120.5t-117 309.5v706h280v-673q0 -98 58.5 -157.5t158.5 -59.5q109 0 192 61t83 156v673h280v-1126h-71q-125 -8 -208 -96 t-83 -185q0 -55 34 -87.5t91 -32.5q55 0 106 28.5t82 73.5z" glyph-name="uogonek" horiz-adv-x="1232" unicode="ų"/><glyph d="M1018 1698h-199l213 350h268l216 -350h-199l-150 235zM2253 1536l-441 -1536h-292l-367 1083l-338 -1083h-293l-473 1536h289l338 -1241l346 1241h264l373 -1243l307 1243h287z" glyph-name="Wcircumflex" horiz-adv-x="2332" unicode="Ŵ"/><glyph d="M643 1186h-199l213 350h269l215 -350h-199l-149 235zM1710 1124l-354 -1124h-318l-164 596l-161 -596h-316l-356 1124h317l205 -798l201 798h244l196 -800l193 800h313z" glyph-name="wcircumflex" horiz-adv-x="1568" unicode="ŵ"/><glyph d="M537 1698h-199l213 350h268l215 -350h-198l-150 235zM817 727v-727h-264v723l-539 813h297l373 -586l377 586h293z" glyph-name="Ycircumflex" horiz-adv-x="1368" unicode="Ŷ"/><glyph d="M455 1186h-199l213 350h268l215 -350h-198l-150 235zM1227 1126l-674 -1679h-254l256 631h-61l-435 1048h277l323 -772l299 772h269z" glyph-name="ycircumflex" horiz-adv-x="1234" unicode="ŷ"/><glyph d="M473 1702q-61 0 -105 44t-44 107q0 61 44 105.5t105 44.5q63 0 107.5 -44t44.5 -106q0 -63 -44.5 -107t-107.5 -44zM899.5 1702q-61.5 0 -106.5 44t-45 107q0 61 45 105.5t106.5 44.5t105.5 -44t44 -106q0 -63 -44 -107t-105.5 -44zM817 727v-727h-264v723l-539 813h297 l373 -586l377 586h293z" glyph-name="Ydieresis" horiz-adv-x="1368" unicode="Ÿ"/><glyph d="M782 1714h-196l174 334h260zM1243 233v-233h-1169v141l798 1164h-778v231h1137v-141l-801 -1162h813z" glyph-name="Zacute" horiz-adv-x="1320" unicode="Ź"/><glyph d="M627 1536h260l-236 -334h-198zM88 186l555 627h-549v211h877v-182l-555 -631h563v-211h-891v186z" glyph-name="zacute" horiz-adv-x="1067" unicode="ź"/><glyph d="M682 1702q-63 0 -107.5 44t-44.5 107q0 61 44 105.5t108 44.5q61 0 106.5 -44t45.5 -106q0 -63 -45.5 -107t-106.5 -44zM1243 233v-233h-1169v141l798 1164h-778v231h1137v-141l-801 -1162h813z" glyph-name="Zdotaccent" horiz-adv-x="1320" unicode="Ż"/><glyph d="M548.5 1190q-61.5 0 -106.5 44t-45 107q0 61 45 105.5t106.5 44.5t106.5 -44t45 -106q0 -63 -45 -107t-106.5 -44zM88 186l555 627h-549v211h877v-182l-555 -631h563v-211h-891v186z" glyph-name="zdotaccent" horiz-adv-x="1067" unicode="ż"/><glyph d="M545 1698l-213 350h190l158 -233l158 233h190l-215 -350h-268zM1243 233v-233h-1169v141l798 1164h-778v231h1137v-141l-801 -1162h813z" glyph-name="Zcaron" horiz-adv-x="1320" unicode="Ž"/><glyph d="M201 1536h190l158 -233l158 233h190l-215 -350h-268zM88 186l555 627h-549v211h877v-182l-555 -631h563v-211h-891v186z" glyph-name="zcaron" horiz-adv-x="1067" unicode="ž"/><glyph d="M784 1372q-78 0 -130 -50t-66 -136l-27 -162h279l-29 -195h-281l-213 -1341h-231l211 1341h-170l31 195h172l30 197q23 143 139.5 239t262.5 96q102 0 147 -36l-22 -181q-35 33 -103 33z" glyph-name="florin" horiz-adv-x="950" unicode="ƒ"/><glyph d="M645 1698l-213 350h191l157 -233l158 233h190l-215 -350h-268zM1124 334h-690l-127 -334h-289l617 1536h297l616 -1536h-286zM1049 565l-265 701l-272 -701h537z" glyph-name="uni01CD" horiz-adv-x="1558" unicode="Ǎ"/><glyph d="M397 1186l-213 350h191l157 -233l158 233h191l-215 -350h-269zM432 -14q-164 0 -266.5 89t-102.5 244q0 152 126 246t335 111l240 20v25q0 201 -205 201q-96 0 -161.5 -47.5t-73.5 -143.5h-232q14 174 130 290t345 116q211 0 331 -105.5t120 -314.5v-369q0 -141 88 -141 v-207h-76q-59 2 -95 8t-79 36t-65 83q-47 -63 -145.5 -102t-213.5 -39zM498 193q84 0 156.5 43t109.5 104v174l-189 -20q-242 -29 -241 -162q0 -63 47 -101t117 -38z" glyph-name="uni01CE" horiz-adv-x="1132" unicode="ǎ"/><glyph d="M-86 2048h192l158 -233l158 233h190l-215 -350h-268zM133 1536h266v-1536h-266v1536z" glyph-name="uni01CF" horiz-adv-x="532" unicode="Ǐ"/><glyph d="M-88 1536h192l158 -233l158 233h190l-215 -350h-268zM133 1024h258v-1024h-258v1024z" glyph-name="uni01D0" horiz-adv-x="524" unicode="ǐ"/><glyph d="M487 2048h191l158 -233l157 233h191l-215 -350h-269zM835.5 -20q-327.5 0 -538.5 228t-211 560t211 560t538.5 228t538.5 -228t211 -560t-211 -560t-538.5 -228zM836 238q223 0 357 150.5t134 379.5q0 231 -134 381.5t-357 150.5q-225 0 -360.5 -150.5t-135.5 -381.5 q0 -229 135.5 -379.5t360.5 -150.5z" glyph-name="uni01D1" horiz-adv-x="1669" unicode="Ǒ"/><glyph d="M246 1536h190l158 -233l158 233h190l-215 -350h-268zM594 -20q-227 0 -375.5 153.5t-148.5 378.5q0 227 148.5 379.5t375.5 152.5t375.5 -153.5t148.5 -378.5t-148.5 -378.5t-375.5 -153.5zM594 207q119 0 193.5 88t74.5 217q0 131 -74.5 219t-193.5 88 q-121 0 -195.5 -88t-74.5 -219t74.5 -218t195.5 -87z" glyph-name="uni01D2" horiz-adv-x="1185" unicode="ǒ"/><glyph d="M403 2048h191l158 -233l157 233h191l-215 -350h-269zM752 -20q-258 0 -436.5 150.5t-178.5 367.5v1038h269v-991q0 -139 101 -235.5t244.5 -96.5t245 96.5t101.5 235.5v991h266v-1038q0 -217 -178 -367.5t-434 -150.5z" glyph-name="uni01D3" horiz-adv-x="1503" unicode="Ǔ"/><glyph d="M483 1186l-211 350h191l155 -233l160 233h191l-217 -350h-269zM1171 1126v-1126h-249l-19 152q-61 -76 -160.5 -119t-203.5 -43q-186 0 -303 120.5t-117 309.5v706h280v-673q0 -98 58.5 -157.5t158.5 -59.5q109 0 192 61t83 156v673h280z" glyph-name="uni01D4" horiz-adv-x="1232" unicode="ǔ"/><glyph d="M719 1698l-213 350h190l158 -233l158 233h190l-215 -350h-268zM1479 809v-262v-547h-179l-36 205q-82 -113 -198 -164t-286 -51q-328 0 -525.5 215t-197.5 557q0 350 197 566t514 216q272 0 459.5 -134t218.5 -390h-256q-27 131 -137.5 207t-259.5 76 q-233 0 -361.5 -144.5t-128.5 -396.5q0 -238 139.5 -384.5t335.5 -146.5q193 0 311.5 95.5t118.5 257.5h-383v225h654z" glyph-name="Gcaron" horiz-adv-x="1509" unicode="Ǧ"/><glyph d="M455 1186l-213 350h190l158 -233l158 233h190l-215 -350h-268zM580 -508q-225 -4 -360.5 78t-156.5 213q-12 78 21 166t113 131q-47 16 -82 65.5t-35 106.5q0 125 149 205q-51 49 -87 128t-36 167q0 160 131.5 274.5t331.5 114.5q72 0 157 -21.5t130 -56.5q23 76 110 117 t154 26v-174q-49 14 -95 -2t-64 -63q92 -121 92 -230q0 -182 -135.5 -297.5t-337.5 -120.5q-139 -6 -215 41q-35 -12 -50.5 -35.5t-7.5 -45.5q20 -63 160 -66l223 -2q180 -4 292 -77t126 -206q20 -203 -125 -316.5t-403 -119.5zM793 739q0 84 -62.5 133.5t-161.5 49.5 q-96 0 -156.5 -50.5t-60.5 -134.5t61.5 -136t155.5 -52q98 0 161 52t63 138zM856 -119q-6 121 -283 121h-174q-45 -12 -71.5 -52t-26.5 -85q0 -74 70.5 -115t187.5 -41q139 0 221 47t76 125z" glyph-name="gcaron" horiz-adv-x="1234" unicode="ǧ"/><glyph d="M938 1714h-199l174 334h261zM1323 1378q125 -111 193.5 -269.5t68.5 -340.5q0 -332 -211 -560t-538 -228q-213 0 -379 100l-88 -135h-162l141 213q-125 109 -193.5 267.5t-68.5 342.5q0 332 211 560t539 228q205 0 376 -100l88 133h164zM340 768q0 -246 149 -395l582 870 q-104 57 -235 57q-225 0 -360.5 -150.5t-135.5 -381.5zM836 238q223 0 357 150.5t134 379.5q0 246 -145 395l-582 -870q99 -55 236 -55z" glyph-name="Oslashacute" horiz-adv-x="1669" unicode="Ǿ"/><glyph d="M694 1202h-196l174 334h260zM928 930q190 -158 190 -418q0 -225 -148.5 -378.5t-375.5 -153.5q-141 0 -256 63l-74 -111h-114l108 162q-188 156 -188 418q0 227 148.5 379.5t375.5 152.5q139 0 254 -63l74 111h114zM324 512q0 -127 69 -213l326 485q-57 35 -125 35 q-121 0 -195.5 -88t-74.5 -219zM594 207q119 0 193.5 88t74.5 217q0 123 -69 213l-326 -487q55 -31 127 -31z" glyph-name="oslashacute" horiz-adv-x="1185" unicode="ǿ"/><glyph d="M657 -20q-244 0 -396 138t-173 357h238q25 -104 105.5 -176t234.5 -72q129 0 206.5 50.5t79.5 150.5q0 39 -12 71.5t-46 61.5t-55.5 46.5t-82 43t-82 34.5t-94.5 36q-80 31 -130.5 51.5t-116 59t-103 77.5t-64.5 99.5t-27 132.5q0 188 155 301.5t374 113.5 q477 0 561 -473h-246q-12 100 -92 175t-217 75q-106 0 -184 -49t-78 -133q0 -35 19.5 -66.5t43 -52t74.5 -46t82 -38t98 -39.5q227 -90 309 -145q184 -127 185 -332q0 -217 -162 -334.5t-404 -117.5zM623 -442q-45 16 -73 55t-28 86q0 63 44 106t105.5 43t103.5 -43t42 -106 q0 -53 -43 -136t-96 -151h-139z" glyph-name="Scommaaccent" horiz-adv-x="1312" unicode="Ș"/><glyph d="M551 -16q-221 0 -347 112.5t-141 257.5h238q16 -76 86 -124t156 -44q170 8 170 138q0 63 -62.5 96t-187.5 63q-80 20 -133.5 39t-114.5 54.5t-92 91t-31 129.5q0 158 124 253t321 95q168 0 294.5 -89t143.5 -257h-238q-14 63 -66.5 97t-121.5 38q-74 4 -123 -23.5 t-49 -81.5q0 -31 15.5 -52t52 -38.5t67.5 -28t88 -24.5q20 -6 31 -8q76 -20 129 -43t111.5 -60.5t89 -98t30.5 -138.5q0 -160 -120.5 -257t-319.5 -97zM475 -440q-45 16 -72.5 55t-27.5 86q0 63 44 106t105.5 43t103.5 -43t42 -106q0 -53 -43 -136t-97 -151h-139z" glyph-name="scommaaccent" horiz-adv-x="1005" unicode="ș"/><glyph d="M1190 1305h-445v-1305h-262v1305h-446v231h1153v-231zM586 -428q-45 16 -72 56t-27 87q0 61 43 105.5t107 44.5q59 0 102 -44t43 -106q0 -55 -44 -139t-97 -149h-139z" glyph-name="uni021A" horiz-adv-x="1155" unicode="Ț"/><glyph d="M659 -2q-100 0 -165.5 10t-130 45t-96 110t-31.5 193v553h-187v221h187v406h260v-406h290v-221h-292v-532q0 -82 39.5 -118t125.5 -36h136v-225h-136zM397 -430q-45 16 -71.5 56t-26.5 87q0 61 43 105.5t107 44.5q59 0 102 -44t43 -106q0 -55 -44 -139t-97 -149h-140z " glyph-name="uni021B" horiz-adv-x="761" unicode="ț"/><glyph d="M1108 1305h-725v-420h639v-234h-639v-418h725v-233h-469l-68 -129q102 20 174 -34t72 -150q0 -92 -63.5 -155.5t-155.5 -63.5q-74 0 -142.5 41.5t-95.5 101.5l113 43q18 -29 54 -48.5t71 -19.5q41 0 69.5 30t28.5 71q0 61 -53 81.5t-129 -12.5l-94 58l98 186h-401v1536 h991v-231z" glyph-name="uni0228" horiz-adv-x="1105" unicode="Ȩ"/><glyph d="M1110 567q0 -39 -6 -88h-787q10 -127 89 -201.5t188 -74.5q199 0 268 151h225q-25 -141 -137 -245.5t-307 -116.5v-10l-61 -111q102 18 174.5 -36t72.5 -150q0 -92 -63.5 -156t-155.5 -64q-74 0 -143.5 42t-93.5 102l112 43q18 -29 55.5 -48.5t69.5 -19.5q41 0 69 30 t28 71q0 61 -52.5 82.5t-128.5 -11.5l-96 58l90 170q0 2 -1 5t-1 5q-213 27 -341 183.5t-128 385.5q0 254 144.5 414t398.5 160q240 0 379 -155t139 -415zM324 674h520q-33 246 -254 246q-113 0 -180.5 -65.5t-85.5 -180.5z" glyph-name="uni0229" horiz-adv-x="1122" unicode="ȩ"/><glyph d="M78 -532q-98 0 -146 32v217q49 -39 115 -39q57 0 96 44.5t39 107.5v1194h258v-1210q0 -145 -105 -245.5t-257 -100.5z" glyph-name="uni0237" horiz-adv-x="606" unicode="ȷ"/><glyph d="M252 1536h268l215 -350h-198l-150 235l-149 -235h-199z" glyph-name="circumflex" horiz-adv-x="63" unicode="ˆ"/><glyph d="M39 1536h190l158 -233l158 233h190l-215 -350h-268z" glyph-name="caron" horiz-adv-x="63" unicode="ˇ"/><glyph d="M588 1147q-162 0 -259.5 89t-97.5 251h150q0 -76 58.5 -133.5t148.5 -57.5q92 0 151.5 57.5t59.5 133.5h147q0 -162 -98 -251t-260 -89z" glyph-name="breve" horiz-adv-x="63" unicode="˘"/><glyph d="M313 1190q-63 0 -107 44t-44 107q0 61 44 105.5t107 44.5q61 0 106.5 -44t45.5 -106q0 -63 -45.5 -107t-106.5 -44z" glyph-name="dotaccent" horiz-adv-x="63" unicode="˙"/><glyph d="M184 1135q-96 0 -164.5 67.5t-68.5 163.5q0 92 68.5 159.5t164.5 67.5q92 0 159 -67.5t67 -159.5q0 -96 -66 -163.5t-160 -67.5zM184 1245q49 0 84 34t35 87q0 49 -35 85t-84 36t-83.5 -36t-34.5 -85q0 -53 33.5 -87t84.5 -34z" glyph-name="ring" horiz-adv-x="63" unicode="˚"/><glyph d="M256 -530q-115 6 -185.5 63t-70.5 164q0 115 88 204t256 138l121 -39q-125 -8 -208 -96t-83 -185q0 -55 33 -87.5t92 -32.5q55 0 106.5 28.5t79.5 73.5l84 -115q-131 -130 -313 -116z" glyph-name="ogonek" horiz-adv-x="63" unicode="˛"/><glyph d="M520 1237q-121 0 -203 117q-27 45 -67.5 45t-56 -41t3.5 -105h-152q-27 127 32.5 211t166.5 84q125 0 202 -116q25 -45 68 -46q41 0 56.5 40t-3.5 104h152q27 -125 -30.5 -209t-168.5 -84z" glyph-name="tilde" horiz-adv-x="65" unicode="˜"/><glyph d="M330 1536h243l-352 -362h-182zM729 1536h244l-352 -362h-183z" glyph-name="hungarumlaut" horiz-adv-x="63" unicode="˝"/><glyph d="M-473 1536h260l174 -334h-197z" glyph-name="gravecomb" unicode="̀"/><glyph d="M-299 1536h260l-237 -334h-197z" glyph-name="acutecomb" unicode="́"/><glyph d="M-522 1536h268l217 -350h-201l-149 235l-150 -235h-196z" glyph-name="uni0302" unicode="̂"/><glyph d="M-246 1237q-121 0 -203 117q-27 45 -67.5 45t-56 -41t3.5 -105h-152q-27 127 32.5 211t166.5 84q125 0 203 -116q25 -45 67 -46q41 0 56.5 40t-3.5 104h152q27 -125 -30.5 -209t-168.5 -84z" glyph-name="tildecomb" unicode="̃"/><glyph d="M-672 1372h635v-164h-635v164z" glyph-name="uni0304" unicode="̄"/><glyph d="M-690 1147q-160 0 -257 89t-97 251h149q0 -76 57.5 -133.5t147.5 -57.5q94 0 152.5 56.5t58.5 134.5h149q0 -162 -98 -251t-262 -89z" glyph-name="uni0306" unicode="̆"/><glyph d="M-313 1190q-61 0 -105.5 44t-44.5 107q0 61 44 105.5t106 44.5q63 0 107 -44t44 -106q0 -63 -44 -107t-107 -44z" glyph-name="uni0307" unicode="̇"/><glyph d="M-678 1190q-63 0 -107 44t-44 107q0 61 44 105.5t107 44.5q61 0 106.5 -44t45.5 -106q0 -63 -45.5 -107t-106.5 -44zM-254 1190q-61 0 -106.5 44t-45.5 107q0 61 45.5 105.5t106.5 44.5t106.5 -44t45.5 -106q0 -63 -45.5 -107t-106.5 -44z" glyph-name="uni0308" unicode="̈"/><glyph d="M-180 1135q-94 0 -163 67.5t-69 163.5q0 92 69 159.5t163 67.5t160.5 -67.5t66.5 -159.5q0 -96 -66.5 -163.5t-160.5 -67.5zM-180 1245q51 0 86 34t35 87q0 49 -35 85t-86 36q-49 0 -83 -36t-34 -85q0 -53 34 -87t83 -34z" glyph-name="uni030A" unicode="̊"/><glyph d="M-682 1536h244l-353 -362h-182zM-283 1536h244l-352 -362h-182z" glyph-name="uni030B" unicode="̋"/><glyph d="M-733 1536h190l156 -233l160 233h190l-217 -350h-268z" glyph-name="uni030C" unicode="̌"/><glyph d="M-266 1356q45 -16 71.5 -56t26.5 -88q0 -61 -43 -105t-106 -44q-59 0 -102.5 44t-43.5 105q0 55 44 139.5t97 149.5h140z" glyph-name="uni0312" unicode="̒"/><glyph d="M-190 -512q-61 0 -105.5 44t-44.5 108q0 61 44 105t106 44q63 0 107 -44t44 -105q0 -63 -44 -107.5t-107 -44.5z" glyph-name="dotbelowcomb" unicode="̣"/><glyph d="M-281 2q-45 14 -72.5 54t-27.5 87q0 61 43 105.5t107 44.5q61 0 103 -43t42 -107q0 -55 -44 -139t-97 -149h-138z" glyph-name="uni0326" unicode="̦"/><glyph d="M-256 -532q-74 0 -143.5 41.5t-94.5 101.5l113 43q18 -29 54 -48.5t71 -19.5q41 0 68.5 30t27.5 71q0 61 -51 81.5t-129 -12.5l-96 58l98 186h123l-70 -129q104 20 176 -34t72 -150q0 -92 -63.5 -155.5t-155.5 -63.5z" glyph-name="uni0327" unicode="̧"/><glyph d="M-350 -530q-115 6 -185.5 63t-70.5 164q0 113 88 203t256 139l123 -39q-127 -8 -210 -96t-83 -185q0 -55 33.5 -87.5t91.5 -32.5q55 0 106 28.5t82 73.5l82 -115q-131 -130 -313 -116z" glyph-name="uni0328" unicode="̨"/><glyph d="M-991 598h665v-152h-665v152z" glyph-name="uni0335" unicode="̵"/><glyph d="M-1540 584h1501v-103h-1501v103z" glyph-name="uni0336" unicode="̶"/><glyph d="M-365 834h166l-600 -625h-157z" glyph-name="uni0337" unicode="̷"/><glyph d="M-178 1591h162l-1094 -1644h-166z" glyph-name="uni0338" unicode="̸"/><glyph d="M61 141l594 1411h291l582 -1409v-143h-1467v141zM1253 211l-307 721q-12 33 -72.5 189.5t-76.5 209.5h-17q-10 -39 -65.5 -180t-69.5 -182l-321 -758h929z" glyph-name="Delta" horiz-adv-x="1589" unicode="Δ"/><glyph d="M1255 0l-475 1239l-479 -1239h-287l617 1536h297l616 -1536h-289z" glyph-name="Lambda" horiz-adv-x="1558" unicode="Λ"/><glyph d="M139 1536h905v-231h-905v231zM256 885h672v-234h-672v234zM139 233h905v-233h-905v233z" glyph-name="Xi" horiz-adv-x="1208" unicode="Ξ"/><glyph d="M102 186h299v11q-111 98 -188.5 263t-77.5 357q0 311 212 518t542 207q170 0 312 -59.5t235.5 -160.5t145.5 -231t52 -272q0 -186 -79.5 -355t-192.5 -267v-11h305v-186h-629v139q150 80 250.5 247t100.5 390q0 240 -134.5 409t-363.5 169q-227 0 -368.5 -164 t-141.5 -414q0 -219 102.5 -391t247.5 -246v-139h-629v186z" glyph-name="Omega" horiz-adv-x="1769" unicode="Ω"/><glyph d="M891 1126h280v-1126h-249l-19 152q-61 -76 -160.5 -119t-203.5 -43q-115 0 -209 49v-551h-189v782q-23 72 -22 150v706h280v-673q0 -98 58.5 -157.5t158.5 -59.5q109 0 192 61t83 156v673z" glyph-name="mu" horiz-adv-x="1286" unicode="μ"/><glyph d="M139 0q61 174 108.5 450.5t53.5 487.5q-174 0 -264 -27q4 29 11 72t9 56.5t10.5 39t11.5 28.5t18.5 14.5t26.5 9t40 1t53.5 0t71.5 -4.5t92 -1h1010l-21 -188h-186v-598q0 -221 30 -340h-233q-39 61 -39 319v619h-401q-10 -219 -58.5 -508t-107.5 -430h-236z" glyph-name="pi" horiz-adv-x="1425" unicode="π"/><glyph d="M977 797q135 -37 215 -136.5t80 -246.5q0 -188 -127 -301t-316 -113h-718v1536h624q190 0 317.5 -114.5t127.5 -303.5q0 -115 -56.5 -197.5t-146.5 -123.5zM915 1092q0 86 -62 149.5t-148 63.5h-330v-408h330q90 0 150 54.5t60 140.5zM793 233q88 0 149.5 63.5 t61.5 149.5q0 90 -62.5 162t-148.5 72h-418v-447h418zM655 -115q61 0 105.5 -44t44.5 -105q0 -63 -44 -107.5t-106 -44.5q-63 0 -107 44t-44 108q0 61 44 105t107 44z" glyph-name="uni1E04" horiz-adv-x="1333" unicode="Ḅ"/><glyph d="M709 1137q227 0 372.5 -164t145.5 -410t-145.5 -409.5t-372.5 -163.5q-217 0 -347 153l-18 -143l-242 2v1536h277v-539q125 138 330 138zM657 229q129 0 211 96.5t82 237.5q0 143 -82 239.5t-211 96.5q-98 0 -172.5 -61.5t-105.5 -159.5v-227q29 -100 104.5 -161 t173.5 -61zM623 -115q61 0 105 -44t44 -105q0 -63 -44 -107.5t-105 -44.5q-63 0 -107.5 44t-44.5 108q0 61 44.5 105t107.5 44z" glyph-name="uni1E05" horiz-adv-x="1232" unicode="ḅ"/><glyph d="M1380 1536v-1536h-266v651h-715v-651h-266v1536h266v-649h715v649h266zM760 -115q63 0 107 -44t44 -105q0 -63 -44 -107.5t-107 -44.5q-61 0 -105.5 44t-44.5 108q0 61 44.5 105t105.5 44z" glyph-name="uni1E24" horiz-adv-x="1513" unicode="Ḥ"/><glyph d="M760 1137q195 0 304.5 -108.5t109.5 -301.5v-727h-281v692q0 96 -56.5 147.5t-158.5 51.5q-111 0 -193 -59.5t-82 -155.5v-676h-280v1536h280v-547q61 68 158 108t199 40zM606 -115q61 0 106.5 -44t45.5 -105q0 -63 -45 -107.5t-107 -44.5q-63 0 -107 44t-44 108 q0 61 44 105t107 44z" glyph-name="uni1E25" horiz-adv-x="1226" unicode="ḥ"/><glyph d="M133 1536h266v-1303h535v-233h-801v1536zM535 -416q-61 0 -105.5 44t-44.5 108q0 61 44 105t106 44q63 0 107 -44t44 -105q0 -63 -44 -107.5t-107 -44.5z" glyph-name="uni1E36" horiz-adv-x="995" unicode="Ḷ"/><glyph d="M150 0v1536h258v-1536h-258zM283 -416q-63 0 -107.5 44t-44.5 108q0 61 44 105t108 44q61 0 105 -44t44 -105q0 -63 -44 -107.5t-105 -44.5z" glyph-name="uni1E37" horiz-adv-x="714" unicode="ḷ"/><glyph d="M819 1702q-61 0 -105 44t-44 107q0 61 44 105.5t105 44.5q63 0 107.5 -44t44.5 -106q0 -63 -44.5 -107t-107.5 -44zM1499 1536v-1536h-266l-834 1128v-1128h-266v1536h268l834 -1126v1126h264z" glyph-name="uni1E44" horiz-adv-x="1632" unicode="Ṅ"/><glyph d="M616 1190q-61 0 -105 44t-44 107q0 61 44 105.5t105 44.5q63 0 107.5 -44t44.5 -106q0 -63 -44.5 -107t-107.5 -44zM741 1141q193 0 302.5 -108.5t109.5 -303.5v-729h-279v696q0 96 -55 147.5t-157 51.5q-111 0 -193 -59.5t-82 -153.5v-682h-281v1126h250l19 -147 q61 74 160.5 118t205.5 44z" glyph-name="uni1E45" horiz-adv-x="1226" unicode="ṅ"/><glyph d="M1499 1536v-1536h-266l-834 1128v-1128h-266v1536h268l834 -1126v1126h264zM817.5 -115q61.5 0 106.5 -44t45 -105q0 -63 -45 -107.5t-106.5 -44.5t-106.5 44t-45 108q0 61 45 105t106.5 44z" glyph-name="uni1E46" horiz-adv-x="1632" unicode="Ṇ"/><glyph d="M741 1141q193 0 302.5 -108.5t109.5 -303.5v-729h-279v696q0 96 -55 147.5t-157 51.5q-111 0 -193 -59.5t-82 -153.5v-682h-281v1126h250l19 -147q61 74 160.5 118t205.5 44zM616 -115q63 0 107.5 -44t44.5 -105q0 -63 -44 -107.5t-108 -44.5q-61 0 -105 44t-44 108 q0 61 44 105t105 44z" glyph-name="uni1E47" horiz-adv-x="1226" unicode="ṇ"/><glyph d="M657 -20q-244 0 -396 138t-173 357h238q25 -104 105.5 -176t234.5 -72q129 0 206.5 50.5t79.5 150.5q0 39 -12 71.5t-46 61.5t-55.5 46.5t-82 43t-82 34.5t-94.5 36q-80 31 -130.5 51.5t-116 59t-103 77.5t-64.5 99.5t-27 132.5q0 188 155 301.5t374 113.5 q477 0 561 -473h-246q-12 100 -92 175t-217 75q-106 0 -184 -49t-78 -133q0 -35 19.5 -66.5t43 -52t74.5 -46t82 -38t98 -39.5q227 -90 309 -145q184 -127 185 -332q0 -217 -162 -334.5t-404 -117.5zM678 -416q-63 0 -107.5 44t-44.5 108q0 61 44 106t108 45q61 0 106 -45 t45 -106q0 -63 -45 -107.5t-106 -44.5z" glyph-name="uni1E62" horiz-adv-x="1312" unicode="Ṣ"/><glyph d="M551 -16q-221 0 -347 112.5t-141 257.5h238q16 -76 86 -124t156 -44q170 8 170 138q0 63 -62.5 96t-187.5 63q-80 20 -133.5 39t-114.5 54.5t-92 91t-31 129.5q0 158 124 253t321 95q168 0 294.5 -89t143.5 -257h-238q-14 63 -66.5 97t-121.5 38q-74 4 -123 -23.5 t-49 -81.5q0 -31 15.5 -52t52 -38.5t67.5 -28t88 -24.5q20 -6 31 -8q76 -20 129 -43t111.5 -60.5t89 -98t30.5 -138.5q0 -160 -120.5 -257t-319.5 -97zM528 -416q-63 0 -107 44t-44 108q0 61 44 105t107 44q61 0 106.5 -44t45.5 -105q0 -63 -45.5 -107.5t-106.5 -44.5z" glyph-name="uni1E63" horiz-adv-x="1005" unicode="ṣ"/><glyph d="M1190 1305h-445v-1305h-262v1305h-446v231h1153v-231zM629 -115q61 0 106 -44t45 -105q0 -63 -45 -107.5t-106 -44.5q-63 0 -107.5 44t-44.5 108q0 61 44.5 105t107.5 44z" glyph-name="uni1E6C" horiz-adv-x="1155" unicode="Ṭ"/><glyph d="M659 -2q-100 0 -165.5 10t-130 45t-96 110t-31.5 193v553h-187v221h187v406h260v-406h290v-221h-292v-532q0 -82 39.5 -118t125.5 -36h136v-225h-136zM438.5 -115q61.5 0 106.5 -44t45 -105q0 -63 -45 -107.5t-106.5 -44.5t-106.5 44t-45 108q0 61 45 105t106.5 44z" glyph-name="uni1E6D" horiz-adv-x="761" unicode="ṭ"/><glyph d="M1059 1714l-238 334h258l176 -334h-196zM2253 1536l-441 -1536h-292l-367 1083l-338 -1083h-293l-473 1536h289l338 -1241l346 1241h264l373 -1243l307 1243h287z" glyph-name="Wgrave" horiz-adv-x="2332" unicode="Ẁ"/><glyph d="M680 1202l-238 334h258l177 -334h-197zM1710 1124l-354 -1124h-318l-164 596l-161 -596h-316l-356 1124h317l205 -798l201 798h244l196 -800l193 800h313z" glyph-name="wgrave" horiz-adv-x="1568" unicode="ẁ"/><glyph d="M1270 1714h-197l174 334h260zM2253 1536l-441 -1536h-292l-367 1083l-338 -1083h-293l-473 1536h289l338 -1241l346 1241h264l373 -1243l307 1243h287z" glyph-name="Wacute" horiz-adv-x="2332" unicode="Ẃ"/><glyph d="M911 1202h-198l176 334h258zM1710 1124l-354 -1124h-318l-164 596l-161 -596h-316l-356 1124h317l205 -798l201 798h244l196 -800l193 800h313z" glyph-name="wacute" horiz-adv-x="1568" unicode="ẃ"/><glyph d="M954.5 1702q-61.5 0 -106.5 44t-45 107q0 61 45 105.5t106.5 44.5t106.5 -44t45 -106q0 -63 -45 -107t-106.5 -44zM1378 1702q-59 0 -104 44t-45 107q0 61 45 105.5t104 44.5q63 0 107.5 -44t44.5 -106q0 -63 -44.5 -107t-107.5 -44zM2253 1536l-441 -1536h-292 l-367 1083l-338 -1083h-293l-473 1536h289l338 -1241l346 1241h264l373 -1243l307 1243h287z" glyph-name="Wdieresis" horiz-adv-x="2332" unicode="Ẅ"/><glyph d="M596 1190q-61 0 -106.5 44t-45.5 107q0 61 45.5 105.5t106.5 44.5t106.5 -44t45.5 -106q0 -63 -45.5 -107t-106.5 -44zM1020 1190q-61 0 -105.5 44t-44.5 107q0 61 45.5 105.5t104.5 44.5q63 0 107 -44t44 -106q0 -63 -44 -107t-107 -44zM1710 1124l-354 -1124h-318 l-164 596l-161 -596h-316l-356 1124h317l205 -798l201 798h244l196 -800l193 800h313z" glyph-name="wdieresis" horiz-adv-x="1568" unicode="ẅ"/><glyph d="M1243 233v-233h-1169v141l798 1164h-778v231h1137v-141l-801 -1162h813zM655 -115q63 0 107.5 -44t44.5 -105q0 -63 -44 -107.5t-108 -44.5q-61 0 -105 44t-44 108q0 61 44 105t105 44z" glyph-name="uni1E92" horiz-adv-x="1320" unicode="Ẓ"/><glyph d="M88 186l555 627h-549v211h877v-182l-555 -631h563v-211h-891v186zM534.5 -416q-61.5 0 -106.5 44t-45 108q0 61 45 105t106.5 44t106.5 -44t45 -105q0 -63 -45 -107.5t-106.5 -44.5z" glyph-name="uni1E93" horiz-adv-x="1067" unicode="ẓ"/><glyph d="M1124 334h-690l-127 -334h-289l617 1536h297l616 -1536h-286zM1049 565l-265 701l-272 -701h537zM782 -115q61 0 105.5 -44t44.5 -105q0 -63 -44 -107.5t-106 -44.5q-63 0 -107 44t-44 108q0 61 44 105t107 44z" glyph-name="uni1EA0" horiz-adv-x="1558" unicode="Ạ"/><glyph d="M432 -14q-164 0 -266.5 89t-102.5 244q0 152 126 246t335 111l240 20v25q0 201 -205 201q-96 0 -161.5 -47.5t-73.5 -143.5h-232q14 174 130 290t345 116q211 0 331 -105.5t120 -314.5v-369q0 -141 88 -141v-207h-76q-59 2 -95 8t-79 36t-65 83q-47 -63 -145.5 -102 t-213.5 -39zM498 193q84 0 156.5 43t109.5 104v174l-189 -20q-242 -29 -241 -162q0 -63 47 -101t117 -38zM551 -115q61 0 105 -44t44 -105q0 -63 -44 -107.5t-105 -44.5q-63 0 -107.5 44t-44.5 108q0 61 44.5 105t107.5 44z" glyph-name="uni1EA1" horiz-adv-x="1132" unicode="ạ"/><glyph d="M383 1305v-420h639v-234h-639v-418h725v-233h-991v1536h991v-231h-725zM580 -115q61 0 106 -44t45 -105q0 -63 -45 -107.5t-106 -44.5q-63 0 -107.5 44t-44.5 108q0 61 44.5 105t107.5 44z" glyph-name="uni1EB8" horiz-adv-x="1105" unicode="Ẹ"/><glyph d="M1110 567q0 -39 -6 -88h-787q10 -127 89 -201.5t188 -74.5q199 0 268 151h225q-25 -152 -151.5 -258t-343.5 -106q-244 0 -393.5 161.5t-149.5 411.5q0 254 144.5 414t398.5 160q240 0 379 -155t139 -415zM590 920q-113 0 -180.5 -66t-85.5 -180h520q-33 246 -254 246z M590 -115q63 0 107 -44t44 -105q0 -63 -44 -107.5t-107 -44.5q-61 0 -105.5 44t-44.5 108q0 61 44.5 105t105.5 44z" glyph-name="uni1EB9" horiz-adv-x="1122" unicode="ẹ"/><glyph d="M242 1704q-27 127 32.5 211t165.5 84q125 0 203 -117q25 -45 68 -45q41 0 56 40t-3 103h151q27 -125 -30.5 -208.5t-167.5 -83.5q-121 0 -203 116q-27 45 -67.5 45t-56 -41t2.5 -104h-151zM383 1305v-420h639v-234h-639v-418h725v-233h-991v1536h991v-231h-725z" glyph-name="uni1EBC" horiz-adv-x="1105" unicode="Ẽ"/><glyph d="M242 1194q-25 129 34.5 212t163.5 83q129 0 203 -115q27 -47 70 -47q41 0 55 40t-2 103h152q27 -125 -32 -208.5t-169 -83.5q-119 0 -201 116q-27 45 -67.5 45t-56 -41t2.5 -104h-153zM1110 567q0 -39 -6 -88h-787q10 -127 89 -201.5t188 -74.5q199 0 268 151h225 q-25 -152 -151.5 -258t-343.5 -106q-244 0 -393.5 161.5t-149.5 411.5q0 254 144.5 414t398.5 160q240 0 379 -155t139 -415zM590 920q-113 0 -180.5 -66t-85.5 -180h520q-33 246 -254 246z" glyph-name="uni1EBD" horiz-adv-x="1122" unicode="ẽ"/><glyph d="M133 1536h266v-1536h-266v1536zM266 -416q-63 0 -107 44t-44 108q0 61 44 105t107 44q61 0 106.5 -44t45.5 -105q0 -63 -45.5 -107.5t-106.5 -44.5z" glyph-name="uni1ECA" horiz-adv-x="532" unicode="Ị"/><glyph d="M288.5 1204q-61.5 0 -106.5 45t-45 107q0 63 45 107t106.5 44t106.5 -44t45 -107q0 -61 -45 -106.5t-106.5 -45.5zM160 1024h258v-1024h-258v1024zM301 -449q-63 0 -107 44.5t-44 107.5q0 61 44 106.5t107 45.5q61 0 105.5 -45.5t44.5 -106.5q0 -63 -44.5 -107.5 t-105.5 -44.5z" glyph-name="uni1ECB" horiz-adv-x="577" unicode="ị"/><glyph d="M835.5 -20q-327.5 0 -538.5 228t-211 560t211 560t538.5 228t538.5 -228t211 -560t-211 -560t-538.5 -228zM836 238q223 0 357 150.5t134 379.5q0 231 -134 381.5t-357 150.5q-225 0 -360.5 -150.5t-135.5 -381.5q0 -229 135.5 -379.5t360.5 -150.5zM835.5 -416 q-61.5 0 -106.5 44t-45 108q0 61 45 105t106.5 44t106.5 -44t45 -105q0 -63 -45 -107.5t-106.5 -44.5z" glyph-name="uni1ECC" horiz-adv-x="1669" unicode="Ọ"/><glyph d="M594 -20q-227 0 -375.5 153.5t-148.5 378.5q0 227 148.5 379.5t375.5 152.5t375.5 -153.5t148.5 -378.5t-148.5 -378.5t-375.5 -153.5zM594 207q119 0 193.5 88t74.5 217q0 131 -74.5 219t-193.5 88q-121 0 -195.5 -88t-74.5 -219t74.5 -218t195.5 -87zM594 -416 q-63 0 -107.5 44t-44.5 108q0 61 44 105t108 44q61 0 106 -44t45 -105q0 -63 -45 -107.5t-106 -44.5z" glyph-name="uni1ECD" horiz-adv-x="1185" unicode="ọ"/><glyph d="M752 -20q-258 0 -436.5 150.5t-178.5 367.5v1038h269v-991q0 -139 101 -235.5t244.5 -96.5t245 96.5t101.5 235.5v991h266v-1038q0 -217 -178 -367.5t-434 -150.5zM751.5 -416q-61.5 0 -106.5 44t-45 108q0 61 45 105t106.5 44t106.5 -44t45 -105q0 -63 -45 -107.5 t-106.5 -44.5z" glyph-name="uni1EE4" horiz-adv-x="1503" unicode="Ụ"/><glyph d="M578 1714l-238 334h260l174 -334h-196zM817 727v-727h-264v723l-539 813h297l373 -586l377 586h293z" glyph-name="Ygrave" horiz-adv-x="1368" unicode="Ỳ"/><glyph d="M500 1202l-240 334h260l174 -334h-194zM1227 1126l-674 -1679h-254l256 631h-61l-435 1048h277l323 -772l299 772h269z" glyph-name="ygrave" horiz-adv-x="1234" unicode="ỳ"/><glyph d="M553 723l-539 813h297l373 -586l377 586h293l-537 -809v-727h-264v723zM688 -115q61 0 105.5 -44t44.5 -105q0 -63 -44 -107.5t-106 -44.5q-63 0 -107 44t-44 108q0 61 44 105t107 44z" glyph-name="uni1EF4" horiz-adv-x="1368" unicode="Ỵ"/><glyph d="M348 1704q-25 127 34.5 211t164.5 84q129 0 203 -117q27 -45 69 -45q41 0 55.5 40t-2.5 103h152q27 -125 -31.5 -208.5t-169.5 -83.5q-119 0 -200 116q-27 45 -68 45t-56.5 -41t3.5 -104h-154zM817 727v-727h-264v723l-539 813h297l373 -586l377 586h293z" glyph-name="uni1EF8" horiz-adv-x="1368" unicode="Ỹ"/><glyph d="M162 621h1024v-175h-1024v175z" glyph-name="endash" horiz-adv-x="1345" unicode="–"/><glyph d="M4 621h2050v-175h-2050v175z" glyph-name="emdash" horiz-adv-x="2056" unicode="—"/><glyph d="M168 1098q-61 0 -103 44t-42 105q0 55 44 139t97 150h135l-39 -174q57 -43 57 -115q0 -63 -45 -106t-104 -43z" glyph-name="quoteleft" horiz-adv-x="335" unicode="‘"/><glyph d="M123 1245q-45 16 -72.5 55t-27.5 86q0 61 44 105.5t105 44.5t103 -43t42 -107q0 -111 -141 -288h-137z" glyph-name="quoteright" horiz-adv-x="335" unicode="’"/><glyph d="M123 2q-45 14 -72.5 54t-27.5 87q0 61 43 105.5t106 44.5q61 0 103 -43t42 -107q0 -55 -44 -139t-97 -149h-137z" glyph-name="quotesinglbase" horiz-adv-x="335" unicode="‚"/><glyph d="M167.5 1098q-61.5 0 -103 44t-41.5 105q0 55 44 139t97 150h135l-39 -174q57 -43 57 -115q0 -61 -44 -105t-105.5 -44zM573.5 1098q-61.5 0 -103.5 44t-42 105q0 55 44 139t97 150h138l-41 -174q57 -43 57 -115q0 -61 -44 -105t-105.5 -44z" glyph-name="quotedblleft" horiz-adv-x="743" unicode="“"/><glyph d="M80 1272q-57 43 -57 114q0 61 44 105.5t105 44.5t103 -43t42 -107q0 -111 -141 -288h-137zM485 1272q-57 43 -57 114q0 61 44 105.5t106 44.5q63 0 104 -43t41 -107q0 -111 -141 -288h-136z" glyph-name="quotedblright" horiz-adv-x="743" unicode="”"/><glyph d="M80 0q-57 43 -57 115q0 61 44 105t105 44t103 -43t42 -106q0 -55 -44 -139.5t-97 -149.5h-137zM485 0q-57 43 -57 115q0 61 44 105t106 44q63 0 104 -43t41 -106q0 -55 -44 -139.5t-97 -149.5h-136z" glyph-name="quotedblbase" horiz-adv-x="743" unicode="„"/><glyph d="M1092 836h-347v-1184h-163v1184h-338v163h338v373h163v-373h347v-163z" glyph-name="dagger" horiz-adv-x="1335" unicode="†"/><glyph d="M745 836v-631h347v-166h-347v-387h-163v387h-338v166h338v631h-338v163h338v373h163v-373h347v-163h-347z" glyph-name="daggerdbl" horiz-adv-x="1335" unicode="‡"/><glyph d="M506 369q-123 0 -213 88t-90 215q0 121 91 212t212 91t212 -91t91 -212q0 -127 -90 -215t-213 -88z" glyph-name="bullet" horiz-adv-x="1009" unicode="•"/><glyph d="M335.5 -16q-61.5 0 -106.5 45t-45 106q0 63 45 107.5t107 44.5q63 0 106 -44t43 -108q0 -61 -44 -106t-105.5 -45zM913.5 -16q-63.5 0 -107.5 45t-44 106q0 63 44 107.5t107.5 44.5t107.5 -44t44 -108q0 -61 -44 -106t-107.5 -45zM1489 -16q-61 0 -104.5 45t-43.5 106 q0 63 43 107.5t105 44.5q63 0 108 -44t45 -108q0 -61 -45 -106t-108 -45z" glyph-name="ellipsis" horiz-adv-x="1812" unicode="…"/><glyph d="M397 850q-131 0 -221 103.5t-90 248.5q0 147 90 250.5t221 103.5q129 0 219.5 -103t90.5 -251q0 -145 -90.5 -248.5t-219.5 -103.5zM1190 1536h266l-1040 -1536h-264zM397 1044q45 0 80 46.5t35 112t-35 112.5t-80 47q-47 0 -80.5 -46t-33.5 -114q0 -66 33.5 -112 t80.5 -46zM1212 -20q-129 0 -219 104t-90 249.5t90 250t219 104.5t219.5 -104.5t90.5 -250t-90.5 -249.5t-219.5 -104zM1935 -20q-129 0 -220 104t-91 249.5t91 250t220 104.5t220.5 -104.5t91.5 -250t-91.5 -249.5t-220.5 -104zM1212 176q47 0 81 45t34 112.5t-33.5 113 t-81.5 45.5q-49 0 -82.5 -45.5t-33.5 -113t33.5 -112.5t82.5 -45zM1935 176q45 0 80 46t35 111.5t-35 112t-80 46.5q-47 0 -80.5 -45.5t-33.5 -113t33.5 -112.5t80.5 -45z" glyph-name="perthousand" horiz-adv-x="2326" unicode="‰"/><glyph d="M80 571l311 377h209l-311 -377l311 -376h-209z" glyph-name="guilsinglleft" horiz-adv-x="718" unicode="‹"/><glyph d="M432 571l-311 377h207l311 -377l-311 -376h-207z" glyph-name="guilsinglright" horiz-adv-x="718" unicode="›"/><glyph d="M1012 1536h258l-1071 -1536h-260z" glyph-name="fraction" horiz-adv-x="1239" unicode="⁄"/><glyph d="M49 950h137q31 244 177.5 388.5t371.5 144.5q229 0 366.5 -136.5t145.5 -371.5h-211q-23 311 -301 311q-137 0 -223 -88t-109 -248h486l-33 -170h-461v-90h445l-33 -182h-404q23 -162 108 -247t226 -85q293 0 318 336h209q-10 -250 -151.5 -393.5t-375.5 -143.5 q-227 0 -373.5 143.5t-177.5 389.5h-137v182h129v90h-129v170z" glyph-name="Euro" horiz-adv-x="1368" unicode="€"/><glyph d="M678 -14q-190 0 -294.5 103.5t-127.5 266.5l-2 23q-12 -8 -58 -42t-73 -52l-68 131q29 23 95.5 72t99.5 75v559q0 285 115.5 421t293.5 136q164 0 248 -108.5t84 -270.5q0 -193 -128 -383t-374 -403l3 -63q2 -127 71.5 -198t170 -71t186.5 64.5t143 156.5l108 -104 q-174 -313 -493 -313zM489 733q330 334 330 565q0 213 -151 213q-72 0 -125.5 -85t-53.5 -273v-420z" glyph-name="afii61289" horiz-adv-x="1224" unicode="ℓ"/><glyph d="M27 1536h503v-109h-190v-608h-125v608h-188v109zM1405 1534v-717h-121v543l-197 -543h-122l-193 543v-543h-125v717h172l207 -557l209 557h170z" glyph-name="trademark" horiz-adv-x="1515" unicode="™"/><glyph d="M938 -18q-362 0 -618.5 230t-256.5 554q0 328 256 559t619 231q365 0 621 -231t256 -559v-21h-1418q-12 0 -12 -8v-430q0 -23 18 -49q227 -233 537 -233q166 0 313.5 69.5t251.5 192.5h125q-119 -141 -301 -223t-391 -82zM1485 788q8 0 8 15v430q0 33 -20 51 q-229 225 -532.5 225t-534.5 -231q-20 -25 -21 -53v-422q0 -14 12 -15h1088z" glyph-name="estimated" horiz-adv-x="1880" unicode="℮"/><glyph d="M1546 598h-1100l62 -260l-498 385l498 385l-62 -262h1100v-248z" glyph-name="arrowleft" horiz-adv-x="1720" unicode="←"/><glyph d="M375 1100l-262 -62l385 498l385 -498l-260 62v-1100h-248v1100z" glyph-name="arrowup" horiz-adv-x="1024" unicode="↑"/><glyph d="M1274 846l-62 262l498 -385l-498 -385l62 260h-1100v248h1100z" glyph-name="arrowright" horiz-adv-x="1720" unicode="→"/><glyph d="M623 1536v-1100l260 62l-385 -498l-385 498l262 -62v1100h248z" glyph-name="arrowdown" horiz-adv-x="995" unicode="↓"/><glyph d="M-133 682l498 385l-64 -260l1149 -2l-61 260l497 -385l-495 -385l61 262l-1151 2l59 -264z" glyph-name="arrowboth" horiz-adv-x="1753" unicode="↔"/><glyph d="M113 350l262 -61v798l-262 -61l385 496l385 -498l-260 61v-794l260 61l-385 -497z" glyph-name="arrowupdn" horiz-adv-x="995" unicode="↕"/><glyph d="M1055 137l-779 776l-141 -227l-80 625l625 -80l-229 -141l778 -779z" glyph-name="uni2196" horiz-adv-x="1095" unicode="↖"/><glyph d="M645 1090l-229 141l624 80l-79 -625l-142 227l-778 -776l-174 174z" glyph-name="uni2197" horiz-adv-x="1095" unicode="↗"/><glyph d="M43 1399l778 -776l142 227l79 -625l-624 80l229 141l-778 779z" glyph-name="uni2198" horiz-adv-x="1097" unicode="↘"/><glyph d="M451 446l229 -141l-625 -80l80 625l141 -227l779 776l174 -174z" glyph-name="uni2199" horiz-adv-x="1097" unicode="↙"/><glyph d="M326 1452q297 59 504.5 -170t203.5 -610q-2 -283 -152.5 -474.5t-371.5 -191.5q-260 0 -368.5 178t-8.5 443q84 227 261 323.5t370 32.5q-57 182 -176 264t-262 25v180zM809 672q0 63 -6 119q-141 86 -265 26.5t-196 -248.5q-59 -160 -9 -278.5t177 -118.5 q119 0 208 148.5t91 351.5z" glyph-name="partialdiff" horiz-adv-x="1114" unicode="∂"/><glyph d="M1280 991q147 -170 147 -395q0 -254 -179 -433t-433 -179q-227 0 -395 145l-90 -88l-72 72l90 88q-145 168 -145 395q0 254 179 433t433 179q225 0 393 -145l90 90l72 -72zM408 596q0 -143 84 -250l573 572q-109 86 -250 86q-170 0 -288.5 -119t-118.5 -289zM815 188 q170 0 289 119t119 289q0 141 -86 250l-574 -572q109 -86 252 -86z" glyph-name="emptyset" horiz-adv-x="1628" unicode="∅"/><glyph glyph-name="product" horiz-adv-x="1519" unicode="∏"/><glyph d="M162 -90l717 688l-717 688v154h1192v-195h-875l660 -647l-660 -647h875v-195l-1192 2v152z" glyph-name="summation" horiz-adv-x="1515" unicode="∑"/><glyph d="M100 705h1229v-168h-1229v168z" glyph-name="minus" horiz-adv-x="1427" unicode="−"/><glyph d="M262 541h-141v164h260l197 -601l702 1467l152 -66l-799 -1665h-144z" glyph-name="radical" horiz-adv-x="1490" unicode="√"/><glyph d="M408 274q-131 0 -217.5 90.5t-90.5 231.5q4 141 90 231.5t218 90.5q182 0 374 -199q193 199 375 199q137 0 220 -86.5t87 -235.5q-4 -147 -87 -234.5t-220 -87.5q-180 0 -375 199q-194 -199 -374 -199zM408 438q117 0 264 158q-145 158 -264 158q-59 0 -100.5 -45 t-43.5 -113q2 -68 43.5 -113t100.5 -45zM1157 438q61 0 101 44t42 114q-2 72 -41.5 115t-101.5 43q-119 0 -264 -158q147 -158 264 -158z" glyph-name="infinity" horiz-adv-x="1564" unicode="∞"/><glyph d="M346 -387q-92 0 -145.5 66.5t-32.5 166.5h127q0 -57 10 -78.5t41 -21.5q45 0 45 53v1532q0 82 53.5 134.5t133.5 52.5q88 0 141 -68t33 -166h-129q0 57 -9.5 78.5t-38.5 21.5q-20 0 -34.5 -14t-14.5 -39v-1532q0 -82 -52 -134t-128 -52z" glyph-name="integral" horiz-adv-x="917" unicode="∫"/><glyph d="M807 651q-66 0 -125 31t-83 53.5t-67 71.5q-76 86 -147 86q-78 0 -122 -63.5t-34 -155.5h-133q-16 156 68 254t223 98q80 0 137.5 -36t120.5 -111q72 -94 152 -95q74 0 119 60.5t32 156.5h133q20 -147 -61.5 -248.5t-212.5 -101.5zM807 236q-66 0 -125 30.5t-83 53 t-67 71.5q-76 86 -147 86q-78 0 -122 -63.5t-34 -155.5h-133q-16 158 68 256t223 98q78 0 135.5 -35.5t122.5 -113.5q72 -94 152 -94q74 0 119 60t32 157h133q20 -147 -61.5 -248.5t-212.5 -101.5z" glyph-name="approxequal" horiz-adv-x="1177" unicode="≈"/><glyph d="M903 662l-205 -236h631v-166h-770l-209 -244h-149l211 244h-312v166h453l201 236h-654v163h795l182 215h150l-185 -215h287v-163h-426z" glyph-name="notequal" horiz-adv-x="1427" unicode="≠"/><glyph d="M1354 1260l-918 -406l918 -410v-215l-1131 508v232l1131 506v-215zM223 150h1131v-150h-1131v150z" glyph-name="lessequal" horiz-adv-x="1574" unicode="≤"/><glyph d="M1354 969v-232l-1131 -508v215l916 410l-916 406v215zM223 150h1131v-150h-1131v150z" glyph-name="greaterequal" horiz-adv-x="1574" unicode="≥"/><glyph d="M162 723l618 618l617 -616l-617 -619zM1114 725l-334 334l-336 -336l336 -334z" glyph-name="lozenge" horiz-adv-x="1558" unicode="◊"/><glyph glyph-name="glyph432"/><glyph d="M375 1100l-262 -62l385 498l385 -498l-260 62v-1100h-248v1100z" glyph-name="glyph433" horiz-adv-x="995"/><glyph d="M282.5 1204q-61.5 0 -106.5 45t-45 107q0 63 45 107t106.5 44t106.5 -44t45 -107q0 -61 -45 -106.5t-106.5 -45.5zM154 1024h258v-1024h-258v1024z" glyph-name="i.locl" horiz-adv-x="661"/><glyph d="M1124 334h-690l-127 -334h-289l617 1536h297l616 -1536h-286zM1049 565l-265 701l-272 -701h537z" glyph-name="glyph435" horiz-adv-x="1568"/><glyph d="M883 1714h-197l174 334h260zM1124 334h-690l-127 -334h-289l617 1536h297l616 -1536h-286zM1049 565l-265 701l-272 -701h537z" glyph-name="glyph436" horiz-adv-x="1568"/><glyph d="M780 1659q-162 0 -259 89t-97 251h149q0 -76 58.5 -133.5t148.5 -57.5q92 0 150.5 56.5t58.5 134.5h150q0 -162 -98.5 -251t-260.5 -89zM1124 334h-690l-127 -334h-289l617 1536h297l616 -1536h-286zM1049 565l-265 701l-272 -701h537z" glyph-name="glyph437" horiz-adv-x="1568"/><glyph d="M645 1698l-213 350h191l157 -233l158 233h190l-215 -350h-268zM1124 334h-690l-127 -334h-289l617 1536h297l616 -1536h-286zM1049 565l-265 701l-272 -701h537z" glyph-name="glyph438" horiz-adv-x="1568"/><glyph d="M631 1698h-199l213 350h268l215 -350h-198l-150 235zM1124 334h-690l-127 -334h-289l617 1536h297l616 -1536h-286zM1049 565l-265 701l-272 -701h537z" glyph-name="glyph439" horiz-adv-x="1568"/><glyph d="M567 1702q-61 0 -105 44t-44 107q0 61 44 105.5t105 44.5q63 0 107.5 -44t44.5 -106q0 -63 -44.5 -107t-107.5 -44zM993.5 1702q-61.5 0 -106.5 44t-45 107q0 61 45 105.5t106.5 44.5t105.5 -44t44 -106q0 -63 -44 -107t-105.5 -44zM1124 334h-690l-127 -334h-289 l617 1536h297l616 -1536h-286zM1049 565l-265 701l-272 -701h537z" glyph-name="glyph440" horiz-adv-x="1568"/><glyph d="M1124 334h-690l-127 -334h-289l617 1536h297l616 -1536h-286zM1049 565l-265 701l-272 -701h537zM782 -115q61 0 105.5 -44t44.5 -105q0 -63 -44 -107.5t-106 -44.5q-63 0 -107 44t-44 108q0 61 44 105t107 44z" glyph-name="glyph441" horiz-adv-x="1568"/><glyph d="M672 1714l-238 334h260l174 -334h-196zM1124 334h-690l-127 -334h-289l617 1536h297l616 -1536h-286zM1049 565l-265 701l-272 -701h537z" glyph-name="glyph442" horiz-adv-x="1568"/><glyph d="M1100 1720h-635v164h635v-164zM1124 334h-690l-127 -334h-289l617 1536h297l616 -1536h-286zM1049 565l-265 701l-272 -701h537z" glyph-name="glyph443" horiz-adv-x="1568"/><glyph d="M1565 -299l84 -115q-131 -131 -314 -116q-115 6 -184.5 63t-69.5 164q0 190 234 303h-53l-138 334h-690l-127 -334h-289l617 1536h297l616 -1536h-4q-141 -14 -216 -99t-75 -182q0 -55 33 -87.5t92 -32.5q55 0 106.5 28.5t80.5 73.5zM512 565h537l-265 701z" glyph-name="glyph444" horiz-adv-x="1558"/><glyph d="M944 1505l604 -1505h-286l-138 334h-690l-127 -334h-289l605 1505h-7q-66 66 -65 156q0 94 67.5 160.5t163.5 66.5q94 0 161 -66.5t67 -160.5q0 -90 -66 -156zM782 1784q-49 0 -84.5 -37t-35.5 -86q0 -53 34.5 -87t85.5 -34q49 0 84 34t35 87q0 49 -35 86t-84 37z M512 565h537l-265 701z" glyph-name="glyph445" horiz-adv-x="1568"/><glyph d="M442 1704q-25 127 35 211t164 84q129 0 203 -117q27 -45 69 -45q41 0 55.5 40t-1.5 103h151q27 -125 -31.5 -208.5t-168.5 -83.5q-119 0 -201 116q-27 45 -68 45t-56 -41t3 -104h-154zM1124 334h-690l-127 -334h-289l617 1536h297l616 -1536h-286zM1049 565l-265 701 l-272 -701h537z" glyph-name="glyph446" horiz-adv-x="1568"/><glyph d="M635 1536h1173v-225h-628v-441h542v-202h-542v-441h628v-227h-886v326h-490l-115 -326h-299zM922 528v783h-103l-301 -783h404z" glyph-name="glyph447" horiz-adv-x="1890"/><glyph d="M920 797q135 -37 214.5 -136.5t79.5 -246.5q0 -188 -125.5 -301t-314.5 -113h-663v1536h567q193 0 319.5 -114.5t126.5 -303.5q0 -115 -56 -197.5t-148 -123.5zM858 1092q0 86 -62.5 149.5t-148.5 63.5h-272v-408h272q90 0 150.5 54.5t60.5 140.5zM735 233 q88 0 150.5 63.5t62.5 149.5q0 90 -62.5 162t-150.5 72h-360v-447h360z" glyph-name="glyph448" horiz-adv-x="1255"/><glyph d="M977 797q135 -37 215 -136.5t80 -246.5q0 -188 -127 -301t-316 -113h-718v1536h624q190 0 317.5 -114.5t127.5 -303.5q0 -115 -56.5 -197.5t-146.5 -123.5zM915 1092q0 86 -62 149.5t-148 63.5h-330v-408h330q90 0 150 54.5t60 140.5zM793 233q88 0 149.5 63.5 t61.5 149.5q0 90 -62.5 162t-148.5 72h-418v-447h418zM655 -115q61 0 105.5 -44t44.5 -105q0 -63 -44 -107.5t-106 -44.5q-63 0 -107 44t-44 108q0 61 44 105t107 44z" glyph-name="glyph449" horiz-adv-x="1312"/><glyph d="M819 -20q-215 0 -386 105t-264 285.5t-93 397.5q0 334 209 561t534 227q295 0 484.5 -168.5t207.5 -418.5h-256q-8 57 -36.5 112.5t-78.5 106.5t-133 83t-188 32q-225 0 -358 -152t-133 -383t133 -383t358 -152q186 0 302 100.5t134 219.5h256q-20 -221 -219 -396 t-473 -177z" glyph-name="glyph450" horiz-adv-x="1642"/><glyph d="M913 2048h261l-236 -334h-199zM819 -20q-215 0 -386 105t-264 285.5t-93 397.5q0 334 209 561t534 227q295 0 484.5 -168.5t207.5 -418.5h-256q-8 57 -36.5 112.5t-78.5 106.5t-133 83t-188 32q-225 0 -358 -152t-133 -383t133 -383t358 -152q186 0 302 100.5t134 219.5 h256q-20 -221 -219 -396t-473 -177z" glyph-name="glyph451" horiz-adv-x="1642"/><glyph d="M473 2048h191l157 -233l158 233h190l-215 -350h-268zM819 -20q-215 0 -386 105t-264 285.5t-93 397.5q0 334 209 561t534 227q295 0 484.5 -168.5t207.5 -418.5h-256q-8 57 -36.5 112.5t-78.5 106.5t-133 83t-188 32q-225 0 -358 -152t-133 -383t133 -383t358 -152 q186 0 302 100.5t134 219.5h256q-20 -221 -219 -396t-473 -177z" glyph-name="glyph452" horiz-adv-x="1642"/><glyph d="M819 233q186 0 302 100.5t134 219.5h256q-18 -207 -195 -376t-429 -193v-2l-58 -111q102 20 174 -34t72 -150q0 -92 -63.5 -155.5t-155.5 -63.5q-74 0 -142.5 41.5t-95.5 101.5l113 43q18 -29 54 -48.5t71 -19.5q41 0 69.5 30t28.5 71q0 61 -53 81.5t-129 -12.5l-94 58 l86 168q-303 20 -495.5 244.5t-192.5 541.5q0 334 209 561t534 227q295 0 484.5 -168.5t207.5 -418.5h-256q-8 57 -36.5 112.5t-78.5 106.5t-133 83t-188 32q-225 0 -358 -152t-133 -383t133 -383t358 -152z" glyph-name="glyph453" horiz-adv-x="1642"/><glyph d="M821 1702q-63 0 -107 44t-44 107q0 61 44 105.5t107 44.5q61 0 105.5 -44t44.5 -106q0 -63 -44.5 -107t-105.5 -44zM819 -20q-215 0 -386 105t-264 285.5t-93 397.5q0 334 209 561t534 227q295 0 484.5 -168.5t207.5 -418.5h-256q-8 57 -36.5 112.5t-78.5 106.5t-133 83 t-188 32q-225 0 -358 -152t-133 -383t133 -383t358 -152q186 0 302 100.5t134 219.5h256q-20 -221 -219 -396t-473 -177z" glyph-name="glyph454" horiz-adv-x="1642"/><glyph d="M129 1536h469q334 0 551 -200.5t217 -571.5q0 -358 -218 -561t-550 -203h-469v1536zM596 233q227 0 366.5 132.5t139.5 398.5q0 281 -138.5 411t-367.5 130h-203v-1072h203z" glyph-name="glyph455" horiz-adv-x="1449"/><glyph d="M752 1536q324 0 546 -217t222 -551t-222.5 -551t-545.5 -217h-471v692h-152v152h152v692h471zM750 233q215 0 359 149.5t144 385.5t-144 386.5t-359 150.5h-205v-461h250v-152h-250v-459h205z" glyph-name="glyph456" horiz-adv-x="1603"/><glyph d="M254 2048h190l158 -233l158 233h190l-215 -350h-268zM129 1536h510q334 0 551 -200.5t217 -571.5q0 -358 -218 -561t-550 -203h-510v1536zM637 233q227 0 366.5 132.5t139.5 398.5q0 281 -138.5 411t-367.5 130h-244v-1072h244z" glyph-name="glyph457" horiz-adv-x="1490"/><glyph d="M786 1536q334 0 551 -200.5t217 -571.5q0 -358 -218 -561t-550 -203h-512v692h-145v152h145v692h512zM784 233q225 0 365.5 133.5t140.5 397.5q0 281 -138 411t-368 130h-243v-461h219v-152h-219v-459h243z" glyph-name="glyph458" horiz-adv-x="1638"/><glyph d="M383 1305v-420h580v-234h-580v-418h666v-233h-932v1536h932v-231h-666z" glyph-name="glyph459" horiz-adv-x="1163"/><glyph d="M680 1714h-197l174 334h261zM383 1305v-420h639v-234h-639v-418h725v-233h-991v1536h991v-231h-725z" glyph-name="glyph460" horiz-adv-x="1222"/><glyph d="M442 1698l-213 350h191l158 -233l157 233h191l-215 -350h-269zM383 1305v-420h639v-234h-639v-418h725v-233h-991v1536h991v-231h-725z" glyph-name="glyph461" horiz-adv-x="1222"/><glyph d="M1108 1305h-725v-420h639v-234h-639v-418h725v-233h-469l-68 -129q102 20 174 -34t72 -150q0 -92 -63.5 -155.5t-155.5 -63.5q-74 0 -142.5 41.5t-95.5 101.5l113 43q18 -29 54 -48.5t71 -19.5q41 0 69.5 30t28.5 71q0 61 -53 81.5t-129 -12.5l-94 58l98 186h-401v1536 h991v-231z" glyph-name="glyph462" horiz-adv-x="1222"/><glyph d="M428 1698h-199l213 350h269l215 -350h-199l-149 235zM383 1305v-420h639v-234h-639v-418h725v-233h-991v1536h991v-231h-725z" glyph-name="glyph463" horiz-adv-x="1222"/><glyph d="M367 1702q-63 0 -107.5 44t-44.5 107q0 61 44 105.5t108 44.5q61 0 105 -44t44 -106q0 -63 -44 -107t-105 -44zM790.5 1702q-61.5 0 -106.5 44t-45 107q0 61 45 105.5t106.5 44.5t105.5 -44t44 -106q0 -63 -44 -107t-105.5 -44zM383 1305v-420h639v-234h-639v-418h725 v-233h-991v1536h991v-231h-725z" glyph-name="glyph464" horiz-adv-x="1222"/><glyph d="M580 1702q-63 0 -107.5 44t-44.5 107q0 61 44 105.5t108 44.5q61 0 106 -44t45 -106q0 -63 -45 -107t-106 -44zM383 1305v-420h639v-234h-639v-418h725v-233h-991v1536h991v-231h-725z" glyph-name="glyph465" horiz-adv-x="1222"/><glyph d="M383 1305v-420h639v-234h-639v-418h725v-233h-991v1536h991v-231h-725zM580 -115q61 0 106 -44t45 -105q0 -63 -45 -107.5t-106 -44.5q-63 0 -107.5 44t-44.5 108q0 61 44.5 105t107.5 44z" glyph-name="glyph466" horiz-adv-x="1222"/><glyph d="M469 1714l-238 334h261l174 -334h-197zM383 1305v-420h639v-234h-639v-418h725v-233h-991v1536h991v-231h-725z" glyph-name="glyph467" horiz-adv-x="1222"/><glyph d="M897 1720h-635v164h635v-164zM383 1305v-420h639v-234h-639v-418h725v-233h-991v1536h991v-231h-725z" glyph-name="glyph468" horiz-adv-x="1222"/><glyph d="M1044 -299l82 -115q-131 -131 -313 -116q-115 6 -184.5 63t-69.5 164q0 190 234 303h-676v1536h991v-231h-725v-420h639v-234h-639v-418h725v-233h-84q-127 -8 -209 -96t-82 -185q0 -55 33 -87.5t90 -32.5q55 0 106 28.5t82 73.5z" glyph-name="glyph469" horiz-adv-x="1247"/><glyph d="M242 1704q-27 127 32.5 211t165.5 84q125 0 203 -117q25 -45 68 -45q41 0 56 40t-3 103h151q27 -125 -30.5 -208.5t-167.5 -83.5q-121 0 -203 116q-27 45 -67.5 45t-56 -41t2.5 -104h-151zM383 1305v-420h639v-234h-639v-418h725v-233h-991v1536h991v-231h-725z" glyph-name="glyph470" horiz-adv-x="1222"/><glyph d="M385 1305v-420h578v-234h-578v-651h-266v1536h930v-231h-664z" glyph-name="glyph471" horiz-adv-x="1107"/><glyph d="M793 1311q-236 0 -366 -146.5t-130 -402.5q0 -244 139 -392.5t342 -148.5q190 0 312 98.5t124 262.5h-389v229h664q4 -406 -163 -622t-546 -216q-334 0 -534.5 220.5t-200.5 568.5q0 356 199.5 575t523.5 219q276 0 465.5 -137t222.5 -397h-260q-27 133 -139 211t-264 78 z" glyph-name="glyph472" horiz-adv-x="1583"/><glyph d="M846 1659q-162 0 -259.5 89t-97.5 251h150q0 -76 58.5 -133.5t148.5 -57.5q92 0 151.5 57.5t59.5 133.5h149q0 -162 -98 -251t-262 -89zM1479 809v-262v-547h-179l-36 205q-82 -113 -198 -164t-286 -51q-328 0 -525.5 215t-197.5 557q0 350 197 566t514 216 q272 0 459.5 -134t218.5 -390h-256q-27 131 -137.5 207t-259.5 76q-233 0 -361.5 -144.5t-128.5 -396.5q0 -238 139.5 -384.5t335.5 -146.5q193 0 311.5 95.5t118.5 257.5h-383v225h654z" glyph-name="glyph473" horiz-adv-x="1581"/><glyph d="M719 1698l-213 350h190l158 -233l158 233h190l-215 -350h-268zM1479 809v-262v-547h-179l-36 205q-82 -113 -198 -164t-286 -51q-328 0 -525.5 215t-197.5 557q0 350 197 566t514 216q272 0 459.5 -134t218.5 -390h-256q-27 131 -137.5 207t-259.5 76 q-233 0 -361.5 -144.5t-128.5 -396.5q0 -238 139.5 -384.5t335.5 -146.5q193 0 311.5 95.5t118.5 257.5h-383v225h654z" glyph-name="glyph474" horiz-adv-x="1581"/><glyph d="M1479 809v-262v-547h-179l-36 205q-82 -113 -198 -164t-286 -51q-328 0 -525.5 215t-197.5 557q0 350 197 566t514 216q272 0 459.5 -134t218.5 -390h-256q-27 131 -137.5 207t-259.5 76q-233 0 -361.5 -144.5t-128.5 -396.5q0 -238 139.5 -384.5t335.5 -146.5 q193 0 311.5 95.5t118.5 257.5h-383v225h654zM813 -387q-45 16 -72.5 55t-27.5 86q0 61 44 105.5t105.5 44.5t103.5 -43t42 -107q0 -109 -140 -289h-139z" glyph-name="glyph475" horiz-adv-x="1581"/><glyph d="M885 1702q-63 0 -107.5 44t-44.5 107q0 61 44 105.5t108 44.5q61 0 105 -44t44 -106q0 -63 -44 -107t-105 -44zM1479 809v-262v-547h-179l-36 205q-82 -113 -198 -164t-286 -51q-328 0 -525.5 215t-197.5 557q0 350 197 566t514 216q272 0 459.5 -134t218.5 -390h-256 q-27 131 -137.5 207t-259.5 76q-233 0 -361.5 -144.5t-128.5 -396.5q0 -238 139.5 -384.5t335.5 -146.5q193 0 311.5 95.5t118.5 257.5h-383v225h654z" glyph-name="glyph476" horiz-adv-x="1581"/><glyph d="M1380 1536v-1536h-266v651h-715v-651h-266v1536h266v-649h715v649h266z" glyph-name="glyph477" horiz-adv-x="1513"/><glyph d="M1634 1155h-127v-1155h-266v651h-713v-651h-268v1155h-127v102h127v279h268v-279h713v279h266v-279h127v-102zM1241 1155h-713v-268h713v268z" glyph-name="glyph478" horiz-adv-x="1767"/><glyph d="M1380 1536v-1536h-266v651h-715v-651h-266v1536h266v-649h715v649h266zM760 -115q63 0 107 -44t44 -105q0 -63 -44 -107.5t-107 -44.5q-61 0 -105.5 44t-44.5 108q0 61 44.5 105t105.5 44z" glyph-name="glyph479" horiz-adv-x="1513"/><glyph d="M133 1536h266v-1536h-266v1536z" glyph-name="glyph480" horiz-adv-x="532"/><glyph d="M182 1536h269v-1536h-269v1536zM940 -20q-104 0 -162 20v270q70 -25 148 -24q53 0 92 39t39 94v1157h264v-1180q0 -166 -107.5 -271t-273.5 -105z" glyph-name="glyph481" horiz-adv-x="1554"/><glyph d="M344 2048h260l-237 -334h-197zM133 1536h266v-1536h-266v1536z" glyph-name="glyph482" horiz-adv-x="532"/><glyph d="M-86 2048h192l158 -233l158 233h190l-215 -350h-268zM133 1536h266v-1536h-266v1536z" glyph-name="glyph483" horiz-adv-x="532"/><glyph d="M129 2048h268l215 -350h-198l-150 235l-149 -235h-201zM133 1536h266v-1536h-266v1536z" glyph-name="glyph484" horiz-adv-x="532"/><glyph d="M51 1702q-61 0 -107 45t-46 106.5t46 105.5t107 44q63 0 107.5 -44t44.5 -106q0 -63 -44.5 -107t-107.5 -44zM477.5 1702q-61.5 0 -106.5 44t-45 107q0 61 45 105.5t106.5 44.5t105.5 -44t44 -106q0 -63 -44 -107t-105.5 -44zM133 1536h266v-1536h-266v1536z" glyph-name="glyph485" horiz-adv-x="532"/><glyph d="M266 1702q-63 0 -107 44t-44 107q0 61 44 105.5t107 44.5q61 0 106.5 -44t45.5 -106q0 -63 -45.5 -107t-106.5 -44zM133 1536h266v-1536h-266v1536z" glyph-name="glyph486" horiz-adv-x="532"/><glyph d="M133 1536h266v-1536h-266v1536zM266 -416q-63 0 -107 44t-44 108q0 61 44 105t107 44q61 0 106.5 -44t45.5 -105q0 -63 -45.5 -107.5t-106.5 -44.5z" glyph-name="glyph487" horiz-adv-x="532"/><glyph d="M-84 2048h262l174 -334h-196zM133 1536h266v-1536h-266v1536z" glyph-name="glyph488" horiz-adv-x="532"/><glyph d="M-53 1884h637v-164h-637v164zM133 1536h266v-1536h-266v1536z" glyph-name="glyph489" horiz-adv-x="532"/><glyph d="M473 -414q-127 -131 -313 -116q-115 6 -185.5 63t-70.5 164q0 188 237 303h-8v1536h266v-1536h-28q-125 -8 -208 -96t-83 -185q0 -55 32.5 -87.5t92.5 -32.5q53 0 105 28.5t81 73.5z" glyph-name="glyph490" horiz-adv-x="532"/><glyph d="M401 1688q-119 0 -200 116q-27 45 -68 45t-56.5 -41t3.5 -104h-156q-25 127 34.5 211t166.5 84q129 0 203 -117q27 -45 69 -45q41 0 55.5 40t-1.5 103h151q27 -125 -31.5 -208.5t-169.5 -83.5zM133 1536h266v-1536h-266v1536z" glyph-name="glyph491" horiz-adv-x="532"/><glyph d="M240 -20q-104 0 -162 20v270q68 -25 145 -24q53 0 93 39t40 94v1157h265v-1180q0 -166 -107.5 -271t-273.5 -105z" glyph-name="glyph492" horiz-adv-x="759"/><glyph d="M1012 0l-623 694v-694h-266v1536h266v-696l543 696h309l-577 -758l696 -778h-348z" glyph-name="glyph493" horiz-adv-x="1370"/><glyph d="M1032 0l-643 694v-694h-266v1536h266v-696l563 696h310l-598 -758l716 -778h-348zM635 -365q-45 16 -72.5 55.5t-27.5 86.5q0 61 44 105t105 44t103 -43t42 -106q0 -109 -139 -289h-139z" glyph-name="glyph494" horiz-adv-x="1390"/><glyph d="M119 1536h266v-1303h533v-233h-799v1536z" glyph-name="glyph495" horiz-adv-x="991"/><glyph d="M330 2048h260l-236 -334h-198zM119 1536h266v-1303h533v-233h-799v1536z" glyph-name="glyph496" horiz-adv-x="991"/><glyph d="M784 1245q-45 16 -71.5 56t-26.5 88q0 61 43 105t107 44q59 0 102 -44t43 -105q0 -55 -44 -139.5t-97 -149.5h-140zM119 1536h266v-1303h533v-233h-799v1536z" glyph-name="glyph497" horiz-adv-x="1054"/><glyph d="M119 1536h266v-1303h533v-233h-799v1536zM469 -403q-45 16 -72.5 55t-27.5 86q0 63 43 106t106 43q61 0 103.5 -43t42.5 -106q0 -53 -44.5 -137t-97.5 -150h-137z" glyph-name="glyph498" horiz-adv-x="991"/><glyph d="M119 1536h266v-1303h533v-233h-799v1536zM520 -416q-63 0 -107 44t-44 108q0 61 44 105t107 44q61 0 106.5 -44t45.5 -105q0 -63 -45.5 -107.5t-106.5 -44.5z" glyph-name="glyph499" horiz-adv-x="991"/><glyph d="M1165 233v-233h-798v547l-88 -90h-160l248 262v817h266v-539l78 84h168l-246 -256v-592h532z" glyph-name="glyph500" horiz-adv-x="1239"/><glyph d="M1761 1536v-1536h-264v1159l-416 -1159h-262l-420 1159v-1159h-266v1536h373l442 -1194l445 1194h368z" glyph-name="glyph501" horiz-adv-x="1894"/><glyph d="M1479 1536v-1536h-267l-833 1128v-1128h-266v1536h268l833 -1126v1126h265z" glyph-name="glyph502" horiz-adv-x="1607"/><glyph d="M901 1714h-199l177 334h258zM1479 1536v-1536h-267l-833 1128v-1128h-266v1536h268l833 -1126v1126h265z" glyph-name="glyph503" horiz-adv-x="1607"/><glyph d="M664 1698l-213 350h190l158 -233l157 233h191l-215 -350h-268zM1479 1536v-1536h-267l-833 1128v-1128h-266v1536h268l833 -1126v1126h265z" glyph-name="glyph504" horiz-adv-x="1607"/><glyph d="M1479 1536v-1536h-267l-833 1128v-1128h-266v1536h268l833 -1126v1126h265zM772 -360q-45 16 -72.5 56t-27.5 87q0 61 43 105t106 44q61 0 103.5 -44t42.5 -105q0 -55 -44 -139t-98 -150h-137z" glyph-name="glyph505" horiz-adv-x="1607"/><glyph d="M799 1702q-61 0 -105.5 44t-44.5 107q0 61 44 105.5t106 44.5q63 0 107 -44t44 -106q0 -63 -44 -107t-107 -44zM1479 1536v-1536h-267l-833 1128v-1128h-266v1536h268l833 -1126v1126h265z" glyph-name="glyph506" horiz-adv-x="1607"/><glyph d="M1479 1536v-1536h-267l-833 1128v-1128h-266v1536h268l833 -1126v1126h265zM796.5 -115q61.5 0 106.5 -44t45 -105q0 -63 -45 -107.5t-106.5 -44.5t-106.5 44t-45 108q0 61 45 105t106.5 44z" glyph-name="glyph507" horiz-adv-x="1607"/><glyph d="M1468 1536v-1657q0 -172 -113.5 -253t-301.5 -81v172q74 -2 112.5 30t38.5 132v133l-835 1102v-1114h-256v1536h258l841 -1112v1112h256z" glyph-name="glyph508" horiz-adv-x="1597"/><glyph d="M481 1704q-27 127 32.5 211t166.5 84q125 0 203 -117q27 -45 67.5 -45t56 40t-2.5 103h153q27 -125 -31.5 -208.5t-169.5 -83.5q-123 0 -200 116q-31 45 -70 45t-54.5 -41t3.5 -104h-154zM1479 1536v-1536h-267l-833 1128v-1128h-266v1536h268l833 -1126v1126h265z" glyph-name="glyph509" horiz-adv-x="1607"/><glyph d="M819.5 -20q-327.5 0 -538.5 228t-211 560t211 560t538.5 228t538.5 -228t211 -560t-211 -560t-538.5 -228zM819 238q225 0 359.5 150.5t134.5 379.5q0 231 -134.5 381.5t-359.5 150.5t-360 -150.5t-135 -381.5q0 -229 135 -379.5t360 -150.5z" glyph-name="glyph510" horiz-adv-x="1646"/><glyph d="M899 2048h260l-237 -334h-197zM819.5 -20q-327.5 0 -538.5 228t-211 560t211 560t538.5 228t538.5 -228t211 -560t-211 -560t-538.5 -228zM819 238q225 0 359.5 150.5t134.5 379.5q0 231 -134.5 381.5t-359.5 150.5t-360 -150.5t-135 -381.5q0 -229 135 -379.5 t360 -150.5z" glyph-name="glyph511" horiz-adv-x="1646"/><glyph d="M473 2048h191l157 -233l158 233h190l-215 -350h-268zM819.5 -20q-327.5 0 -538.5 228t-211 560t211 560t538.5 228t538.5 -228t211 -560t-211 -560t-538.5 -228zM819 238q225 0 359.5 150.5t134.5 379.5q0 231 -134.5 381.5t-359.5 150.5t-360 -150.5t-135 -381.5 q0 -229 135 -379.5t360 -150.5z" glyph-name="glyph512" horiz-adv-x="1646"/><glyph d="M686 2048h268l215 -350h-198l-150 235l-151 -235h-197zM819.5 -20q-327.5 0 -538.5 228t-211 560t211 560t538.5 228t538.5 -228t211 -560t-211 -560t-538.5 -228zM819 238q225 0 359.5 150.5t134.5 379.5q0 231 -134.5 381.5t-359.5 150.5t-360 -150.5t-135 -381.5 q0 -229 135 -379.5t360 -150.5z" glyph-name="glyph513" horiz-adv-x="1646"/><glyph d="M608 1702q-63 0 -107 44t-44 107q0 61 44 105.5t107 44.5q61 0 106.5 -44t45.5 -106q0 -63 -45.5 -107t-106.5 -44zM1032.5 1702q-61.5 0 -106.5 44t-45 107q0 61 45 105.5t106.5 44.5t106.5 -44t45 -106q0 -63 -45 -107t-106.5 -44zM819.5 -20q-327.5 0 -538.5 228 t-211 560t211 560t538.5 228t538.5 -228t211 -560t-211 -560t-538.5 -228zM819 238q225 0 359.5 150.5t134.5 379.5q0 231 -134.5 381.5t-359.5 150.5t-360 -150.5t-135 -381.5q0 -229 135 -379.5t360 -150.5z" glyph-name="glyph514" horiz-adv-x="1646"/><glyph d="M819.5 -20q-327.5 0 -538.5 228t-211 560t211 560t538.5 228t538.5 -228t211 -560t-211 -560t-538.5 -228zM819 238q225 0 359.5 150.5t134.5 379.5q0 231 -134.5 381.5t-359.5 150.5t-360 -150.5t-135 -381.5q0 -229 135 -379.5t360 -150.5zM821 -416q-63 0 -107 44 t-44 108q0 61 44 105t107 44q61 0 105.5 -44t44.5 -105q0 -63 -44.5 -107.5t-105.5 -44.5z" glyph-name="glyph515" horiz-adv-x="1646"/><glyph d="M473 2048h258l176 -334h-196zM819.5 -20q-327.5 0 -538.5 228t-211 560t211 560t538.5 228t538.5 -228t211 -560t-211 -560t-538.5 -228zM819 238q225 0 359.5 150.5t134.5 379.5q0 231 -134.5 381.5t-359.5 150.5t-360 -150.5t-135 -381.5q0 -229 135 -379.5t360 -150.5 z" glyph-name="glyph516" horiz-adv-x="1646"/><glyph d="M821 2048h242l-352 -362h-183zM1219 2048h243l-352 -362h-182zM819.5 -20q-327.5 0 -538.5 228t-211 560t211 560t538.5 228t538.5 -228t211 -560t-211 -560t-538.5 -228zM819 238q225 0 359.5 150.5t134.5 379.5q0 231 -134.5 381.5t-359.5 150.5t-360 -150.5 t-135 -381.5q0 -229 135 -379.5t360 -150.5z" glyph-name="glyph517" horiz-adv-x="1646"/><glyph d="M504 1884h635v-164h-635v164zM819.5 -20q-327.5 0 -538.5 228t-211 560t211 560t538.5 228t538.5 -228t211 -560t-211 -560t-538.5 -228zM819 238q225 0 359.5 150.5t134.5 379.5q0 231 -134.5 381.5t-359.5 150.5t-360 -150.5t-135 -381.5q0 -229 135 -379.5t360 -150.5 z" glyph-name="glyph518" horiz-adv-x="1646"/><glyph d="M1307 1378q125 -111 193.5 -269.5t68.5 -340.5q0 -332 -211 -560t-539 -228q-211 0 -377 100l-88 -135h-164l142 213q-123 109 -192.5 268.5t-69.5 341.5q0 332 211 560t538 228q207 0 379 -100l88 133h162zM324 768q0 -244 151 -395l582 870q-104 57 -238 57 q-225 0 -360 -150.5t-135 -381.5zM819 238q225 0 359.5 150.5t134.5 379.5q0 244 -148 395l-579 -870q98 -55 233 -55z" glyph-name="glyph519" horiz-adv-x="1646"/><glyph d="M922 1714h-197l174 334h260zM1307 1378q125 -111 193.5 -269.5t68.5 -340.5q0 -332 -211 -560t-539 -228q-211 0 -377 100l-88 -135h-164l142 213q-123 109 -192.5 268.5t-69.5 341.5q0 332 211 560t538 228q207 0 379 -100l88 133h162zM324 768q0 -244 151 -395l582 870 q-104 57 -238 57q-225 0 -360 -150.5t-135 -381.5zM819 238q225 0 359.5 150.5t134.5 379.5q0 244 -148 395l-579 -870q98 -55 233 -55z" glyph-name="glyph520" horiz-adv-x="1646"/><glyph d="M956 1688q-123 0 -200 116q-31 45 -68 45q-41 0 -56.5 -41t3.5 -104h-154q-27 127 32.5 211t166.5 84q125 0 203 -117q27 -45 69 -45q41 0 55.5 40t-3.5 103h153q27 -125 -31.5 -208.5t-169.5 -83.5zM819.5 -20q-327.5 0 -538.5 228t-211 560t211 560t538.5 228 t538.5 -228t211 -560t-211 -560t-538.5 -228zM819 238q225 0 359.5 150.5t134.5 379.5q0 231 -134.5 381.5t-359.5 150.5t-360 -150.5t-135 -381.5q0 -229 135 -379.5t360 -150.5z" glyph-name="glyph521" horiz-adv-x="1646"/><glyph d="M2388 1305h-725v-420h639v-234h-639v-418h725v-233h-991v199q-227 -217 -539 -217q-328 0 -558 230t-230 558t230 558.5t558 230.5q315 0 539 -218v195h991v-231zM858 238q223 0 378 154.5t155 377.5t-155 378t-378 155t-377.5 -155t-154.5 -378t154.5 -377.5 t377.5 -154.5z" glyph-name="glyph522" horiz-adv-x="2502"/><glyph d="M727 1536q184 0 315.5 -146.5t131.5 -337t-130.5 -334t-316.5 -143.5h-342v-575h-266v1536h608zM705 795q92 0 159.5 77.5t67.5 178.5q0 98 -67.5 176t-159.5 78h-320v-510h320z" glyph-name="glyph523" horiz-adv-x="1222"/><glyph d="M725 1317q184 0 313 -131t129 -320q0 -182 -129 -309t-313 -127h-348v-430h-258v1534h258v-217h348zM715 657q92 0 155.5 63.5t63.5 154t-63.5 153t-155.5 62.5h-338v-433h338z" glyph-name="glyph524" horiz-adv-x="1214"/><glyph d="M1616 205v-205h-57q-156 0 -261 113l-22 20q-197 -154 -457 -153q-328 0 -538.5 228t-210.5 560t211 560t538.5 228t538.5 -228t211 -560q0 -270 -144 -475l35 -37q51 -51 135 -51h21zM819 238q162 0 281 81l-228 240l150 154l221 -230q70 127 70 285q0 231 -134.5 381.5 t-359.5 150.5t-360 -150.5t-135 -381.5q0 -229 135 -379.5t360 -150.5z" glyph-name="glyph525" horiz-adv-x="1648"/><glyph d="M1239 0h-299l-367 592h-194v-592h-266v1536h610q182 0 314 -147.5t132 -337.5q0 -156 -94 -283t-235 -160zM713 801q90 0 152.5 72.5t62.5 179t-62.5 179.5t-152.5 73h-334v-504h334z" glyph-name="glyph526" horiz-adv-x="1306"/><glyph d="M743 1714h-198l176 334h258zM1305 0h-299l-367 592h-260v-592h-266v1536h675q184 0 315.5 -147.5t131.5 -337.5q0 -156 -93 -283t-235 -160zM778 801q92 0 153.5 71.5t61.5 180.5q0 106 -62.5 179t-152.5 73h-399v-504h399z" glyph-name="glyph527" horiz-adv-x="1374"/><glyph d="M506 1698l-211 350h190l156 -233l160 233h190l-217 -350h-268zM1305 0h-299l-367 592h-260v-592h-266v1536h675q184 0 315.5 -147.5t131.5 -337.5q0 -156 -93 -283t-235 -160zM778 801q92 0 153.5 71.5t61.5 180.5q0 106 -62.5 179t-152.5 73h-399v-504h399z" glyph-name="glyph528" horiz-adv-x="1374"/><glyph d="M1305 0h-299l-367 592h-260v-592h-266v1536h675q184 0 315.5 -147.5t131.5 -337.5q0 -156 -93 -283t-235 -160zM778 801q92 0 153.5 71.5t61.5 180.5q0 106 -62.5 179t-152.5 73h-399v-504h399zM606 -365q-45 16 -71.5 56.5t-26.5 87.5q0 61 43 105t106 44 q59 0 102.5 -44t43.5 -105q0 -55 -44 -139t-97 -150h-140z" glyph-name="glyph529" horiz-adv-x="1374"/><glyph d="M653 -20q-244 0 -394 137t-171 358h238q55 -248 336 -248q127 0 202.5 50.5t77.5 150.5q0 72 -57.5 129t-105.5 79.5t-175 72.5q-18 8 -29 12q-80 31 -128 51.5t-114.5 59t-103 77.5t-63.5 99.5t-27 132.5q0 188 151.5 301.5t373.5 113.5q244 0 380 -120.5t179 -358.5 h-246q-12 104 -89 180t-218 76q-106 0 -182 -49t-76 -133q0 -43 22.5 -78t74.5 -65.5t93 -49t121 -49.5q227 -90 309 -147q180 -125 180 -330q0 -217 -158.5 -334.5t-400.5 -117.5z" glyph-name="glyph530" horiz-adv-x="1280"/><glyph d="M776 2048h258l-235 -334h-199zM657 -20q-244 0 -396 138t-173 357h238q25 -104 105.5 -176t234.5 -72q129 0 206.5 50.5t79.5 150.5q0 39 -12 71.5t-46 61.5t-55.5 46.5t-82 43t-82 34.5t-94.5 36q-80 31 -130.5 51.5t-116 59t-103 77.5t-64.5 99.5t-27 132.5 q0 188 155 301.5t374 113.5q477 0 561 -473h-246q-12 100 -92 175t-217 75q-106 0 -184 -49t-78 -133q0 -35 19.5 -66.5t43 -52t74.5 -46t82 -38t98 -39.5q227 -90 309 -145q184 -127 185 -332q0 -217 -162 -334.5t-404 -117.5z" glyph-name="glyph531" horiz-adv-x="1290"/><glyph d="M348 2048h191l157 -233l158 233h190l-215 -350h-268zM657 -20q-244 0 -396 138t-173 357h238q25 -104 105.5 -176t234.5 -72q129 0 206.5 50.5t79.5 150.5q0 39 -12 71.5t-46 61.5t-55.5 46.5t-82 43t-82 34.5t-94.5 36q-80 31 -130.5 51.5t-116 59t-103 77.5t-64.5 99.5 t-27 132.5q0 188 155 301.5t374 113.5q477 0 561 -473h-246q-12 100 -92 175t-217 75q-106 0 -184 -49t-78 -133q0 -35 19.5 -66.5t43 -52t74.5 -46t82 -38t98 -39.5q227 -90 309 -145q184 -127 185 -332q0 -217 -162 -334.5t-404 -117.5z" glyph-name="glyph532" horiz-adv-x="1290"/><glyph d="M729 909q227 -90 309 -145q184 -127 185 -332q0 -207 -145.5 -322.5t-368.5 -127.5l-60 -109q104 18 176 -36t72 -150q0 -92 -63.5 -155.5t-155.5 -63.5q-74 0 -143.5 41.5t-94.5 101.5l113 43q18 -29 55 -48.5t70 -19.5q41 0 68.5 30t27.5 71q0 61 -51 82.5t-129 -11.5 l-96 58l90 168q-215 20 -348.5 154t-151.5 337h238q25 -104 105.5 -176t234.5 -72q129 0 206.5 50.5t79.5 150.5q0 39 -12 71.5t-46 61.5t-55.5 46.5t-82 43t-82 34.5t-94.5 36q-80 31 -130.5 51.5t-116 59t-103 77.5t-64.5 99.5t-27 132.5q0 188 155 301.5t374 113.5 q477 0 561 -473h-246q-12 100 -92 175t-217 75q-106 0 -184 -49t-78 -133q0 -35 19.5 -66.5t43 -52t74.5 -46t81.5 -38t98.5 -39.5z" glyph-name="glyph533" horiz-adv-x="1290"/><glyph d="M657 -20q-244 0 -396 138t-173 357h238q25 -104 105.5 -176t234.5 -72q129 0 206.5 50.5t79.5 150.5q0 39 -12 71.5t-46 61.5t-55.5 46.5t-82 43t-82 34.5t-94.5 36q-80 31 -130.5 51.5t-116 59t-103 77.5t-64.5 99.5t-27 132.5q0 188 155 301.5t374 113.5 q477 0 561 -473h-246q-12 100 -92 175t-217 75q-106 0 -184 -49t-78 -133q0 -35 19.5 -66.5t43 -52t74.5 -46t82 -38t98 -39.5q227 -90 309 -145q184 -127 185 -332q0 -217 -162 -334.5t-404 -117.5zM623 -442q-45 16 -73 55t-28 86q0 63 44 106t105.5 43t103.5 -43t42 -106 q0 -53 -43 -136t-96 -151h-139z" glyph-name="glyph534" horiz-adv-x="1290"/><glyph d="M657 -20q-244 0 -396 138t-173 357h238q25 -104 105.5 -176t234.5 -72q129 0 206.5 50.5t79.5 150.5q0 39 -12 71.5t-46 61.5t-55.5 46.5t-82 43t-82 34.5t-94.5 36q-80 31 -130.5 51.5t-116 59t-103 77.5t-64.5 99.5t-27 132.5q0 188 155 301.5t374 113.5 q477 0 561 -473h-246q-12 100 -92 175t-217 75q-106 0 -184 -49t-78 -133q0 -35 19.5 -66.5t43 -52t74.5 -46t82 -38t98 -39.5q227 -90 309 -145q184 -127 185 -332q0 -217 -162 -334.5t-404 -117.5zM678 -416q-63 0 -107.5 44t-44.5 108q0 61 44 106t108 45q61 0 106 -45 t45 -106q0 -63 -45 -107.5t-106 -44.5z" glyph-name="glyph535" horiz-adv-x="1290"/><glyph d="M1190 1305h-445v-1305h-262v1305h-446v231h1153v-231z" glyph-name="glyph536" horiz-adv-x="1241"/><glyph d="M1190 1305h-445v-461h76l144 -25l-88 -127h-132v-692h-262v707l-182 12l55 125h127v461h-446v231h1153v-231z" glyph-name="glyph537" horiz-adv-x="1241"/><glyph d="M512 1698l-213 350h190l158 -233l158 233h190l-215 -350h-268zM1190 1305h-445v-1305h-262v1305h-446v231h1153v-231z" glyph-name="glyph538" horiz-adv-x="1241"/><glyph d="M745 0h-75l-64 -123q102 18 174 -36t72 -150q0 -92 -63.5 -155.5t-153.5 -63.5q-74 0 -143.5 43t-96.5 102l115 41q16 -29 53 -48.5t72 -19.5q41 0 68.5 30t27.5 71q0 61 -52 82.5t-128 -11.5l-96 58l94 180h-66v1305h-446v231h1153v-231h-445v-1305z" glyph-name="glyph539" horiz-adv-x="1241"/><glyph d="M1190 1305h-445v-1305h-262v1305h-446v231h1153v-231zM571 -428q-45 16 -72.5 56t-27.5 87q0 61 43 105.5t107 44.5q61 0 103 -44t42 -106q0 -55 -44 -139t-97 -149h-138z" glyph-name="glyph540" horiz-adv-x="1241"/><glyph d="M1190 1305h-445v-1305h-262v1305h-446v231h1153v-231zM614 -115q61 0 106.5 -44t45.5 -105q0 -63 -45 -107.5t-107 -44.5q-63 0 -107 44t-44 108q0 61 44 105t107 44z" glyph-name="glyph541" horiz-adv-x="1241"/><glyph d="M729 -20q-256 0 -434 150.5t-178 367.5v1038h266v-991q0 -139 101.5 -235.5t244.5 -96.5q145 0 246.5 96.5t101.5 235.5v991h266v-1038q0 -217 -178 -367.5t-436 -150.5z" glyph-name="glyph542" horiz-adv-x="1476"/><glyph d="M829 2048h261l-236 -334h-199zM731 -20q-258 0 -436 150.5t-178 367.5v1038h266v-991q0 -137 101.5 -234.5t247 -97.5t248.5 97.5t103 234.5v991h267v-1038q0 -217 -181.5 -367.5t-437.5 -150.5z" glyph-name="glyph543" horiz-adv-x="1482"/><glyph d="M383 2048h190l158 -233l158 233h190l-215 -350h-268zM729 -20q-256 0 -434 150.5t-178 367.5v1038h266v-991q0 -139 101.5 -235.5t244.5 -96.5q145 0 246.5 96.5t101.5 235.5v991h266v-1038q0 -217 -178 -367.5t-436 -150.5z" glyph-name="glyph544" horiz-adv-x="1476"/><glyph d="M616 2048h269l215 -350h-199l-149 235l-150 -235h-199zM731 -20q-258 0 -436 150.5t-178 367.5v1038h266v-991q0 -137 101.5 -234.5t247 -97.5t248.5 97.5t103 234.5v991h267v-1038q0 -217 -181.5 -367.5t-437.5 -150.5z" glyph-name="glyph545" horiz-adv-x="1482"/><glyph d="M539 1702q-61 0 -105.5 44t-44.5 107q0 61 44 105.5t106 44.5q63 0 107 -44t44 -106q0 -63 -44 -107t-107 -44zM964.5 1702q-61.5 0 -106.5 44t-45 107q0 61 45 105.5t106.5 44.5t105.5 -44t44 -106q0 -63 -44 -107t-105.5 -44zM731 -20q-258 0 -436 150.5t-178 367.5 v1038h266v-991q0 -137 101.5 -234.5t247 -97.5t248.5 97.5t103 234.5v991h267v-1038q0 -217 -181.5 -367.5t-437.5 -150.5z" glyph-name="glyph546" horiz-adv-x="1482"/><glyph d="M729 -20q-256 0 -434 150.5t-178 367.5v1038h266v-991q0 -139 101.5 -235.5t244.5 -96.5q145 0 246.5 96.5t101.5 235.5v991h266v-1038q0 -217 -178 -367.5t-436 -150.5zM731 -416q-63 0 -107 44t-44 108q0 61 44 105t107 44q61 0 105.5 -44t44.5 -105 q0 -63 -44.5 -107.5t-105.5 -44.5z" glyph-name="glyph547" horiz-adv-x="1476"/><glyph d="M403 2048h261l174 -334h-197zM731 -20q-258 0 -436 150.5t-178 367.5v1038h266v-991q0 -137 101.5 -234.5t247 -97.5t248.5 97.5t103 234.5v991h267v-1038q0 -217 -181.5 -367.5t-437.5 -150.5z" glyph-name="glyph548" horiz-adv-x="1482"/><glyph d="M752 2048h243l-352 -362h-182zM1151 2048h244l-353 -362h-182zM731 -20q-258 0 -436 150.5t-178 367.5v1038h266v-991q0 -137 101.5 -234.5t247 -97.5t248.5 97.5t103 234.5v991h267v-1038q0 -217 -181.5 -367.5t-437.5 -150.5z" glyph-name="glyph549" horiz-adv-x="1525"/><glyph d="M434 1884h635v-164h-635v164zM731 -20q-258 0 -436 150.5t-178 367.5v1038h266v-991q0 -137 101.5 -234.5t247 -97.5t248.5 97.5t103 234.5v991h267v-1038q0 -217 -181.5 -367.5t-437.5 -150.5z" glyph-name="glyph550" horiz-adv-x="1482"/><glyph d="M1083 1536h267v-1038q0 -195 -148.5 -339.5t-374.5 -172.5h4q-84 -37 -137 -112t-53 -148q0 -55 33 -88t90 -33q55 0 106.5 28.5t81.5 73.5l82 -115q-127 -127 -313 -116q-115 6 -184.5 64.5t-69.5 164.5q0 168 188 279q-231 23 -384.5 168t-153.5 346v1038h266v-991 q0 -137 101.5 -234.5t247 -97.5t248.5 97.5t103 234.5v991z" glyph-name="glyph551" horiz-adv-x="1482"/><glyph d="M752 1647q-96 0 -164 67.5t-68 163.5q0 92 68.5 159.5t163 67.5t161 -67.5t66.5 -159.5q0 -96 -66.5 -163.5t-160.5 -67.5zM751.5 1757q51.5 0 85 34t33.5 87q0 49 -34.5 85t-84 36t-84 -36t-34.5 -85q0 -53 33.5 -87t85 -34zM731 -20q-258 0 -436 150.5t-178 367.5v1038 h266v-991q0 -137 101.5 -234.5t247 -97.5t248.5 97.5t103 234.5v991h267v-1038q0 -217 -181.5 -367.5t-437.5 -150.5z" glyph-name="glyph552" horiz-adv-x="1482"/><glyph d="M889 1688q-121 0 -203 116q-27 45 -67.5 45t-56 -41t2.5 -104h-151q-27 127 32.5 211t165.5 84q125 0 203 -117q25 -45 68 -45q41 0 56 40t-3 103h151q27 -125 -30 -208.5t-168 -83.5zM731 -20q-258 0 -436 150.5t-178 367.5v1038h266v-991q0 -137 101.5 -234.5 t247 -97.5t248.5 97.5t103 234.5v991h267v-1038q0 -217 -181.5 -367.5t-437.5 -150.5z" glyph-name="glyph553" horiz-adv-x="1482"/><glyph d="M1532 1536l-617 -1536h-299l-616 1536h299l467 -1227l467 1227h299z" glyph-name="glyph554" horiz-adv-x="1533"/><glyph d="M2253 1536l-441 -1536h-292l-367 1083l-338 -1083h-293l-473 1536h289l338 -1241l346 1241h264l373 -1243l307 1243h287z" glyph-name="glyph555" horiz-adv-x="2308"/><glyph d="M1270 1714h-197l174 334h260zM2253 1536l-441 -1536h-292l-367 1083l-338 -1083h-293l-473 1536h289l338 -1241l346 1241h264l373 -1243l307 1243h287z" glyph-name="glyph556" horiz-adv-x="2308"/><glyph d="M1018 1698h-199l213 350h268l216 -350h-199l-150 235zM2253 1536l-441 -1536h-292l-367 1083l-338 -1083h-293l-473 1536h289l338 -1241l346 1241h264l373 -1243l307 1243h287z" glyph-name="glyph557" horiz-adv-x="2308"/><glyph d="M954.5 1702q-61.5 0 -106.5 44t-45 107q0 61 45 105.5t106.5 44.5t106.5 -44t45 -106q0 -63 -45 -107t-106.5 -44zM1378 1702q-59 0 -104 44t-45 107q0 61 45 105.5t104 44.5q63 0 107.5 -44t44.5 -106q0 -63 -44.5 -107t-107.5 -44zM2253 1536l-441 -1536h-292 l-367 1083l-338 -1083h-293l-473 1536h289l338 -1241l346 1241h264l373 -1243l307 1243h287z" glyph-name="glyph558" horiz-adv-x="2308"/><glyph d="M1059 1714l-238 334h258l176 -334h-196zM2253 1536l-441 -1536h-292l-367 1083l-338 -1083h-293l-473 1536h289l338 -1241l346 1241h264l373 -1243l307 1243h287z" glyph-name="glyph559" horiz-adv-x="2308"/><glyph d="M1053 0l-369 567l-367 -567h-303l527 786l-504 750h303l344 -530l348 530h301l-506 -750l531 -786h-305z" glyph-name="glyph560" horiz-adv-x="1372"/><glyph d="M817 727v-727h-264v723l-539 813h297l373 -586l377 586h293z" glyph-name="glyph561" horiz-adv-x="1368"/><glyph d="M788 1714h-196l174 334h260zM817 727v-727h-264v723l-539 813h297l373 -586l377 586h293z" glyph-name="glyph562" horiz-adv-x="1368"/><glyph d="M537 1698h-199l213 350h268l215 -350h-198l-150 235zM817 727v-727h-264v723l-539 813h297l373 -586l377 586h293z" glyph-name="glyph563" horiz-adv-x="1368"/><glyph d="M473 1702q-61 0 -105 44t-44 107q0 61 44 105.5t105 44.5q63 0 107.5 -44t44.5 -106q0 -63 -44.5 -107t-107.5 -44zM899.5 1702q-61.5 0 -106.5 44t-45 107q0 61 45 105.5t106.5 44.5t105.5 -44t44 -106q0 -63 -44 -107t-105.5 -44zM817 727v-727h-264v723l-539 813h297 l373 -586l377 586h293z" glyph-name="glyph564" horiz-adv-x="1368"/><glyph d="M553 723l-539 813h297l373 -586l377 586h293l-537 -809v-727h-264v723zM688 -115q61 0 105.5 -44t44.5 -105q0 -63 -44 -107.5t-106 -44.5q-63 0 -107 44t-44 108q0 61 44 105t107 44z" glyph-name="glyph565" horiz-adv-x="1368"/><glyph d="M578 1714l-238 334h260l174 -334h-196zM817 727v-727h-264v723l-539 813h297l373 -586l377 586h293z" glyph-name="glyph566" horiz-adv-x="1368"/><glyph d="M348 1704q-25 127 34.5 211t164.5 84q129 0 203 -117q27 -45 69 -45q41 0 55.5 40t-2.5 103h152q27 -125 -31.5 -208.5t-169.5 -83.5q-119 0 -200 116q-27 45 -68 45t-56.5 -41t3.5 -104h-154zM817 727v-727h-264v723l-539 813h297l373 -586l377 586h293z" glyph-name="glyph567" horiz-adv-x="1368"/><glyph d="M1243 233v-233h-1169v141l798 1164h-778v231h1137v-141l-801 -1162h813z" glyph-name="glyph568" horiz-adv-x="1320"/><glyph d="M782 1714h-196l174 334h260zM1243 233v-233h-1169v141l798 1164h-778v231h1137v-141l-801 -1162h813z" glyph-name="glyph569" horiz-adv-x="1320"/><glyph d="M545 1698l-213 350h190l158 -233l158 233h190l-215 -350h-268zM1243 233v-233h-1169v141l798 1164h-778v231h1137v-141l-801 -1162h813z" glyph-name="glyph570" horiz-adv-x="1320"/><glyph d="M682 1702q-63 0 -107.5 44t-44.5 107q0 61 44 105.5t108 44.5q61 0 106.5 -44t45.5 -106q0 -63 -45.5 -107t-106.5 -44zM1243 233v-233h-1169v141l798 1164h-778v231h1137v-141l-801 -1162h813z" glyph-name="glyph571" horiz-adv-x="1320"/><glyph d="M1243 233v-233h-1169v141l798 1164h-778v231h1137v-141l-801 -1162h813zM655 -115q63 0 107.5 -44t44.5 -105q0 -63 -44 -107.5t-108 -44.5q-61 0 -105 44t-44 108q0 61 44 105t105 44z" glyph-name="glyph572" horiz-adv-x="1320"/><glyph d="M379 -18q-141 8 -228.5 89t-87.5 218t119 222t312 85h215v63q0 184 -185 185q-203 0 -221 -166h-209q12 158 118.5 260t319.5 102q193 0 305.5 -95t112.5 -290v-655h-211l-16 115q-100 -143 -344 -133zM457 172q74 0 142.5 34t109.5 91v135h-168q-109 0 -168.5 -36 t-59.5 -95t40.5 -94t103.5 -35z" glyph-name="glyph573" horiz-adv-x="1001"/><glyph d="M926 1536l-236 -334h-198l176 334h258zM1018 348q0 -141 88 -141v-207h-76q-59 2 -95 8t-79 36t-65 83q-47 -63 -145.5 -102t-213.5 -39q-164 0 -266.5 89t-102.5 244q0 152 126 246t335 111l240 20v25q0 201 -205 201q-96 0 -161.5 -47.5t-73.5 -143.5h-232 q14 174 130 290t345 116q211 0 331 -105.5t120 -314.5v-369zM764 340v174l-189 -20q-242 -29 -241 -162q0 -63 47 -101t117 -38q84 0 156.5 43t109.5 104z" glyph-name="glyph574" horiz-adv-x="1159"/><glyph d="M510 1147q-162 0 -259 89t-97 251h149q0 -76 58.5 -133.5t148.5 -57.5q92 0 151.5 57.5t59.5 133.5h147q0 -162 -98 -251t-260 -89zM432 -14q-164 0 -266.5 89t-102.5 244q0 152 126 246t335 111l240 20v25q0 201 -205 201q-96 0 -161.5 -47.5t-73.5 -143.5h-232 q14 174 130 290t345 116q211 0 331 -105.5t120 -314.5v-369q0 -141 88 -141v-207h-76q-59 2 -95 8t-79 36t-65 83q-47 -63 -145.5 -102t-213.5 -39zM498 193q84 0 156.5 43t109.5 104v174l-189 -20q-242 -29 -241 -162q0 -63 47 -101t117 -38z" glyph-name="glyph575" horiz-adv-x="1159"/><glyph d="M397 1186l-213 350h191l157 -233l158 233h191l-215 -350h-269zM432 -14q-164 0 -266.5 89t-102.5 244q0 152 126 246t335 111l240 20v25q0 201 -205 201q-96 0 -161.5 -47.5t-73.5 -143.5h-232q14 174 130 290t345 116q211 0 331 -105.5t120 -314.5v-369q0 -141 88 -141 v-207h-76q-59 2 -95 8t-79 36t-65 83q-47 -63 -145.5 -102t-213.5 -39zM498 193q84 0 156.5 43t109.5 104v174l-189 -20q-242 -29 -241 -162q0 -63 47 -101t117 -38z" glyph-name="glyph576" horiz-adv-x="1159"/><glyph d="M516 1421l-149 -235h-199l213 350h268l215 -350h-198zM1018 348q0 -141 88 -141v-207h-76q-59 2 -95 8t-79 36t-65 83q-47 -63 -145.5 -102t-213.5 -39q-164 0 -266.5 89t-102.5 244q0 152 126 246t335 111l240 20v25q0 201 -205 201q-96 0 -161.5 -47.5t-73.5 -143.5 h-232q14 174 130 290t345 116q211 0 331 -105.5t120 -314.5v-369zM764 340v174l-189 -20q-242 -29 -241 -162q0 -63 47 -101t117 -38q84 0 156.5 43t109.5 104z" glyph-name="glyph577" horiz-adv-x="1159"/><glyph d="M299 1190q-61 0 -105 44t-44 107q0 61 44 105.5t105 44.5q63 0 107.5 -44t44.5 -106q0 -63 -44.5 -107t-107.5 -44zM725 1190q-61 0 -106.5 44t-45.5 107q0 61 45.5 105.5t106.5 44.5t105 -44t44 -106q0 -63 -44 -107t-105 -44zM432 -14q-164 0 -266.5 89t-102.5 244 q0 152 126 246t335 111l240 20v25q0 201 -205 201q-96 0 -161.5 -47.5t-73.5 -143.5h-232q14 174 130 290t345 116q211 0 331 -105.5t120 -314.5v-369q0 -141 88 -141v-207h-76q-59 2 -95 8t-79 36t-65 83q-47 -63 -145.5 -102t-213.5 -39zM498 193q84 0 156.5 43t109.5 104 v174l-189 -20q-242 -29 -241 -162q0 -63 47 -101t117 -38z" glyph-name="glyph578" horiz-adv-x="1159"/><glyph d="M432 -14q-164 0 -266.5 89t-102.5 244q0 152 126 246t335 111l240 20v25q0 201 -205 201q-96 0 -161.5 -47.5t-73.5 -143.5h-232q14 174 130 290t345 116q211 0 331 -105.5t120 -314.5v-369q0 -141 88 -141v-207h-76q-59 2 -95 8t-79 36t-65 83q-47 -63 -145.5 -102 t-213.5 -39zM498 193q84 0 156.5 43t109.5 104v174l-189 -20q-242 -29 -241 -162q0 -63 47 -101t117 -38zM551 -115q61 0 105 -44t44 -105q0 -63 -44 -107.5t-105 -44.5q-63 0 -107.5 44t-44.5 108q0 61 44.5 105t107.5 44z" glyph-name="glyph579" horiz-adv-x="1159"/><glyph d="M676 1202h-197l-237 334h258zM1018 348q0 -141 88 -141v-207h-76q-59 2 -95 8t-79 36t-65 83q-47 -63 -145.5 -102t-213.5 -39q-164 0 -266.5 89t-102.5 244q0 152 126 246t335 111l240 20v25q0 201 -205 201q-96 0 -161.5 -47.5t-73.5 -143.5h-232q14 174 130 290 t345 116q211 0 331 -105.5t120 -314.5v-369zM764 340v174l-189 -20q-242 -29 -241 -162q0 -63 47 -101t117 -38q84 0 156.5 43t109.5 104z" glyph-name="glyph580" horiz-adv-x="1159"/><glyph d="M815 1208h-635v164h635v-164zM432 -14q-164 0 -266.5 89t-102.5 244q0 152 126 246t335 111l240 20v25q0 201 -205 201q-96 0 -161.5 -47.5t-73.5 -143.5h-232q14 174 130 290t345 116q211 0 331 -105.5t120 -314.5v-369q0 -141 88 -141v-207h-76q-59 2 -95 8t-79 36 t-65 83q-47 -63 -145.5 -102t-213.5 -39zM498 193q84 0 156.5 43t109.5 104v174l-189 -20q-242 -29 -241 -162q0 -63 47 -101t117 -38z" glyph-name="glyph581" horiz-adv-x="1159"/><glyph d="M432 -14q-164 0 -266.5 89t-102.5 244q0 152 126 246t335 111l240 20v25q0 201 -205 201q-96 0 -161.5 -47.5t-73.5 -143.5h-232q14 174 130 290t345 116q211 0 331 -105.5t120 -314.5v-369q0 -141 88 -141v-207h-76q-59 2 -95 8t-79 36t-65 83q-47 -63 -145.5 -102 t-213.5 -39zM498 193q84 0 156.5 43t109.5 104v174l-189 -20q-242 -29 -241 -162q0 -63 47 -101t117 -38zM737 -530q-115 6 -184.5 63t-69.5 164q0 195 246 303h211q-129 -29 -206 -108.5t-77 -172.5q0 -55 33 -87.5t92 -32.5q53 0 105.5 28.5t81.5 73.5l82 -115 q-128 -130 -314 -116z" glyph-name="glyph582" horiz-adv-x="1159"/><glyph d="M1018 348q0 -141 88 -141v-207h-76q-59 2 -95 8t-79 36t-65 83q-47 -63 -145.5 -102t-213.5 -39q-164 0 -266.5 89t-102.5 244q0 152 126 246t335 111l240 20v25q0 201 -205 201q-96 0 -161.5 -47.5t-73.5 -143.5h-232q14 164 116.5 276.5t303.5 127.5q-94 2 -159.5 69.5 t-65.5 161.5q0 92 67.5 159.5t161.5 67.5t160.5 -67.5t66.5 -159.5q0 -88 -58 -153.5t-142 -75.5h24q211 0 331 -105.5t120 -314.5v-369zM399 1366q0 -53 34 -87t83 -34q51 0 86 34t35 87q0 49 -35 85t-86 36q-49 0 -83 -36t-34 -85zM764 340v174l-189 -20 q-242 -29 -241 -162q0 -63 47 -101t117 -38q84 0 156.5 43t109.5 104z" glyph-name="glyph583" horiz-adv-x="1159"/><glyph d="M186 1192q-25 127 35 211t164 84q129 0 203 -117q27 -45 69 -45q41 0 55.5 40t-1.5 103h151q27 -125 -31.5 -208.5t-168.5 -83.5q-119 0 -201 116q-27 45 -68 45t-56 -41t3 -104h-154zM432 -14q-164 0 -266.5 89t-102.5 244q0 152 126 246t335 111l240 20v25 q0 201 -205 201q-96 0 -161.5 -47.5t-73.5 -143.5h-232q14 174 130 290t345 116q211 0 331 -105.5t120 -314.5v-369q0 -141 88 -141v-207h-76q-59 2 -95 8t-79 36t-65 83q-47 -63 -145.5 -102t-213.5 -39zM498 193q84 0 156.5 43t109.5 104v174l-189 -20q-242 -29 -241 -162 q0 -63 47 -101t117 -38z" glyph-name="glyph584" horiz-adv-x="1159"/><glyph d="M1894 565q0 -41 -6 -86h-792q14 -133 93 -206.5t195 -73.5q84 0 161 37.5t110 115.5h225q-29 -160 -163 -265t-345 -105q-209 0 -354 129v-111h-178l-49 131q-39 -63 -141.5 -104t-217.5 -41q-164 0 -266.5 89t-102.5 244q0 145 125 239.5t336 117.5l240 24v21 q0 203 -205 203q-98 0 -162.5 -47.5t-72.5 -145.5h-230q12 174 127 290t346 116q279 0 387 -176q156 184 420 182q240 0 380 -158t140 -420zM1102 672h526q-16 119 -80.5 184.5t-175.5 65.5q-225 0 -270 -250zM764 340v180l-189 -24q-242 -31 -241 -166q0 -63 47 -101.5 t117 -38.5q86 0 157.5 43.5t108.5 106.5z" glyph-name="glyph585" horiz-adv-x="2021"/><glyph d="M690 1044q209 0 342 -152.5t133 -379.5q0 -225 -134 -378.5t-341 -153.5q-193 0 -317 147l-11 -129l-229 2v1536h254v-625q117 133 303 133zM641 207q121 0 195.5 87t74.5 218t-74.5 219t-195.5 88q-90 0 -158.5 -56t-95.5 -147v-208q27 -90 95.5 -145.5t158.5 -55.5z " glyph-name="glyph586" horiz-adv-x="1232"/><glyph d="M709 1137q227 0 372.5 -164t145.5 -410t-145.5 -409.5t-372.5 -163.5q-217 0 -347 153l-18 -143l-242 2v1536h277v-539q125 138 330 138zM657 229q129 0 211 96.5t82 237.5q0 143 -82 239.5t-211 96.5q-98 0 -172.5 -61.5t-105.5 -159.5v-227q29 -100 104.5 -161 t173.5 -61zM623 -115q61 0 105 -44t44 -105q0 -63 -44 -107.5t-105 -44.5q-63 0 -107.5 44t-44.5 108q0 61 44.5 105t107.5 44z" glyph-name="glyph587" horiz-adv-x="1232"/><glyph d="M539 -20q-223 0 -358.5 149.5t-135.5 382.5t135 382.5t359 149.5q127 0 225 -38.5t152.5 -103t83 -130t36.5 -135.5h-227q-10 80 -80 135t-168 55q-127 0 -195.5 -85t-68.5 -230q0 -143 68.5 -229t195.5 -86q96 0 165 58t83 136h225q-10 -74 -37.5 -139.5t-82 -130 t-150.5 -103t-225 -38.5z" glyph-name="glyph588" horiz-adv-x="1085"/><glyph d="M629 1536h260l-238 -334h-196zM584 -10q-244 0 -391.5 160.5t-147.5 414.5t147.5 413t391.5 159q139 0 244.5 -41t166 -108.5t91 -139.5t38.5 -148h-247q-10 86 -87 146.5t-184 60.5q-137 0 -212 -93t-75 -249q0 -154 76 -249t213 -95q102 0 177 64.5t92 150.5h245 q-10 -80 -40.5 -152.5t-89 -142t-164 -110.5t-244.5 -41z" glyph-name="glyph589" horiz-adv-x="1173"/><glyph d="M231 1536h191l158 -233l157 233h191l-215 -350h-269zM584 -10q-244 0 -391.5 160.5t-147.5 414.5t147.5 413t391.5 159q139 0 244.5 -41t166 -108.5t91 -139.5t38.5 -148h-247q-10 86 -87 146.5t-184 60.5q-137 0 -212 -93t-75 -249q0 -154 76 -249t213 -95 q102 0 177 64.5t92 150.5h245q-10 -80 -40.5 -152.5t-89 -142t-164 -110.5t-244.5 -41z" glyph-name="glyph590" horiz-adv-x="1173"/><glyph d="M608 221q102 0 177 64.5t92 150.5h245q-10 -80 -39.5 -151.5t-88 -140t-162 -110.5t-240.5 -44l-55 -109q102 20 173.5 -34t71.5 -150q0 -92 -63.5 -155.5t-155.5 -63.5q-74 0 -142.5 42t-94.5 101l112 43q18 -29 54 -48t71 -19q41 0 70 29.5t29 70.5q0 61 -52.5 81.5 t-130.5 -11.5l-94 57l90 172l2 2q-199 35 -315.5 189.5t-116.5 377.5q0 254 147.5 413t391.5 159q139 0 244.5 -41t166 -108.5t91 -139.5t38.5 -148h-247q-10 86 -87 146.5t-184 60.5q-137 0 -212 -93t-75 -249q0 -154 76 -249t213 -95z" glyph-name="glyph591" horiz-adv-x="1173"/><glyph d="M594 1190q-61 0 -105.5 44t-44.5 107q0 61 44 105.5t106 44.5q63 0 107 -44t44 -106q0 -63 -44 -107t-107 -44zM584 -10q-244 0 -391.5 160.5t-147.5 414.5t147.5 413t391.5 159q139 0 244.5 -41t166 -108.5t91 -139.5t38.5 -148h-247q-10 86 -87 146.5t-184 60.5 q-137 0 -212 -93t-75 -249q0 -154 76 -249t213 -95q102 0 177 64.5t92 150.5h245q-10 -80 -40.5 -152.5t-89 -142t-164 -110.5t-244.5 -41z" glyph-name="glyph592" horiz-adv-x="1173"/><glyph d="M1100 1536v-1536l-230 -2l-14 127q-123 -145 -311 -145q-209 0 -342 153.5t-133 378.5q0 227 133 379.5t342 152.5q184 0 301 -133v625h254zM594 207q88 0 155.5 55t96.5 146v210q-29 90 -96.5 145.5t-155.5 55.5q-121 0 -195.5 -88t-74.5 -219t74.5 -218t195.5 -87z" glyph-name="glyph593" horiz-adv-x="1232"/><glyph d="M801 1409q182 -141 288.5 -376.5t106.5 -520.5q0 -223 -164 -377.5t-399.5 -154.5t-399 154.5t-163.5 377.5t162.5 377.5t400.5 154.5q119 0 221 -51q-66 160 -182 248l-99 -123l-79 62l90 112q-121 59 -269 64l52 205q186 0 350 -97l90 113l80 -61zM633 207 q127 0 216 89t89 216q0 129 -89 218t-216 89t-217 -89t-90 -218q0 -127 90 -216t217 -89z" glyph-name="glyph594" horiz-adv-x="1253"/><glyph d="M1391 1249q-45 16 -73 55t-28 87q0 63 44 106t105.5 43t103.5 -43t42 -106q0 -53 -43 -136.5t-96 -150.5h-139zM1180 1534v-1532l-242 -2l-23 133q-125 -143 -342 -143q-227 0 -371.5 160.5t-144.5 404.5q0 248 145.5 415t372.5 167q195 0 328 -144v541h277zM627 223 q96 0 170.5 60.5t105.5 156.5v232q-31 98 -105.5 158.5t-170.5 60.5q-131 0 -212 -96.5t-81 -239.5q0 -141 81 -236.5t212 -95.5z" glyph-name="glyph595" horiz-adv-x="1603"/><glyph d="M1243 1188h-143v-1188l-230 -2l-14 127q-123 -145 -311 -145q-209 0 -342 153.5t-133 378.5q0 227 133 379.5t342 152.5q184 0 301 -133v277h-268v151h268v197h254v-197h143v-151zM594 207q88 0 155.5 55t96.5 146v210q-29 90 -96.5 145.5t-155.5 55.5q-121 0 -195.5 -88 t-74.5 -219t74.5 -218t195.5 -87z" glyph-name="glyph596" horiz-adv-x="1232"/><glyph d="M1040 516q0 -37 -6 -80h-725q12 -123 84 -190.5t180 -67.5q76 0 147 36t101 108h207q-27 -150 -148.5 -246t-318.5 -96q-223 0 -365.5 151.5t-142.5 380.5q0 233 138.5 384t371.5 151q219 0 348 -144.5t129 -386.5zM561 842q-104 0 -166.5 -60.5t-81.5 -167.5h484 q-14 109 -74 168.5t-162 59.5z" glyph-name="glyph597" horiz-adv-x="1091"/><glyph d="M920 1540l-238 -332h-197l174 332h261zM1110 567q0 -39 -6 -88h-787q10 -127 89 -201.5t188 -74.5q199 0 268 151h225q-25 -152 -151.5 -258t-343.5 -106q-244 0 -393.5 161.5t-149.5 411.5q0 254 144.5 414t398.5 160q240 0 379 -155t139 -415zM324 674h520 q-33 246 -254 246q-113 0 -180.5 -65.5t-85.5 -180.5z" glyph-name="glyph598" horiz-adv-x="1177"/><glyph d="M444 1190l-213 350h191l158 -233l157 233h191l-215 -350h-269zM1110 567q0 -39 -6 -88h-787q10 -127 89 -201.5t188 -74.5q199 0 268 151h225q-25 -152 -151.5 -258t-343.5 -106q-244 0 -393.5 161.5t-149.5 411.5q0 254 144.5 414t398.5 160q240 0 379 -155t139 -415z M590 920q-113 0 -180.5 -66t-85.5 -180h520q-33 246 -254 246z" glyph-name="glyph599" horiz-adv-x="1177"/><glyph d="M1110 567q0 -39 -6 -88h-787q10 -127 89 -201.5t188 -74.5q199 0 268 151h225q-25 -141 -137 -245.5t-307 -116.5v-10l-61 -111q102 18 174.5 -36t72.5 -150q0 -92 -63.5 -156t-155.5 -64q-74 0 -143.5 42t-93.5 102l112 43q18 -29 55.5 -48.5t69.5 -19.5q41 0 69 30 t28 71q0 61 -52.5 82.5t-128.5 -11.5l-96 58l90 170q0 2 -1 5t-1 5q-213 27 -341 183.5t-128 385.5q0 254 144.5 414t398.5 160q240 0 379 -155t139 -415zM324 674h520q-33 246 -254 246q-113 0 -180.5 -65.5t-85.5 -180.5z" glyph-name="glyph600" horiz-adv-x="1177"/><glyph d="M430 1190h-199l213 350h269l215 -350h-199l-149 237zM1110 567q0 -39 -6 -88h-787q10 -127 89 -201.5t188 -74.5q199 0 268 151h225q-25 -152 -151.5 -258t-343.5 -106q-244 0 -393.5 161.5t-149.5 411.5q0 254 144.5 414t398.5 160q240 0 379 -155t139 -415zM590 920 q-113 0 -180.5 -66t-85.5 -180h520q-33 246 -254 246z" glyph-name="glyph601" horiz-adv-x="1177"/><glyph d="M367 1194q-61 0 -105.5 44t-44.5 108q0 61 44 106t106 45q63 0 107 -45t44 -106q0 -63 -44 -107.5t-107 -44.5zM792.5 1194q-61.5 0 -106.5 44t-45 108q0 61 45 106t106.5 45t105.5 -45t44 -106q0 -63 -44 -107.5t-105.5 -44.5zM1110 567q0 -39 -6 -88h-787 q10 -127 89 -201.5t188 -74.5q199 0 268 151h225q-25 -152 -151.5 -258t-343.5 -106q-244 0 -393.5 161.5t-149.5 411.5q0 254 144.5 414t398.5 160q240 0 379 -155t139 -415zM590 920q-113 0 -180.5 -66t-85.5 -180h520q-33 246 -254 246z" glyph-name="glyph602" horiz-adv-x="1177"/><glyph d="M582 1194q-63 0 -107.5 44t-44.5 108q0 61 44 106t108 45q61 0 106 -45t45 -106q0 -63 -45 -107.5t-106 -44.5zM1110 567q0 -39 -6 -88h-787q10 -127 89 -201.5t188 -74.5q199 0 268 151h225q-25 -152 -151.5 -258t-343.5 -106q-244 0 -393.5 161.5t-149.5 411.5 q0 254 144.5 414t398.5 160q240 0 379 -155t139 -415zM590 920q-113 0 -180.5 -66t-85.5 -180h520q-33 246 -254 246z" glyph-name="glyph603" horiz-adv-x="1177"/><glyph d="M1110 567q0 -39 -6 -88h-787q10 -127 89 -201.5t188 -74.5q199 0 268 151h225q-25 -152 -151.5 -258t-343.5 -106q-244 0 -393.5 161.5t-149.5 411.5q0 254 144.5 414t398.5 160q240 0 379 -155t139 -415zM590 920q-113 0 -180.5 -66t-85.5 -180h520q-33 246 -254 246z M590 -115q63 0 107 -44t44 -105q0 -63 -44 -107.5t-107 -44.5q-61 0 -105.5 44t-44.5 108q0 61 44.5 105t105.5 44z" glyph-name="glyph604" horiz-adv-x="1177"/><glyph d="M471 1208l-238 332h261l174 -332h-197zM1110 567q0 -39 -6 -88h-787q10 -127 89 -201.5t188 -74.5q199 0 268 151h225q-25 -152 -151.5 -258t-343.5 -106q-244 0 -393.5 161.5t-149.5 411.5q0 254 144.5 414t398.5 160q240 0 379 -155t139 -415zM590 920 q-113 0 -180.5 -66t-85.5 -180h520q-33 246 -254 246z" glyph-name="glyph605" horiz-adv-x="1177"/><glyph d="M899 1212h-635v166h635v-166zM1110 567q0 -39 -6 -88h-787q10 -127 89 -201.5t188 -74.5q199 0 268 151h225q-25 -152 -151.5 -258t-343.5 -106q-244 0 -393.5 161.5t-149.5 411.5q0 254 144.5 414t398.5 160q240 0 379 -155t139 -415zM590 920q-113 0 -180.5 -66 t-85.5 -180h520q-33 246 -254 246z" glyph-name="glyph606" horiz-adv-x="1177"/><glyph d="M1110 567q0 -39 -6 -88h-787q10 -127 89 -201.5t188 -74.5q199 0 268 151h225q-23 -133 -125 -234.5t-276 -123.5l-6 -8q-55 -76 -55 -150q0 -55 33.5 -88t91.5 -33q55 0 106 29t82 74l82 -115q-127 -127 -313 -117q-115 6 -184.5 64.5t-69.5 165.5q0 92 57 168v10 q-209 27 -335 184.5t-126 382.5q0 254 144.5 414t398.5 160q240 0 379 -155t139 -415zM324 674h520q-33 246 -254 246q-113 0 -180.5 -65.5t-85.5 -180.5z" glyph-name="glyph607" horiz-adv-x="1177"/><glyph d="M242 1194q-25 129 34.5 212t163.5 83q129 0 203 -115q27 -47 70 -47q41 0 55 40t-2 103h152q27 -125 -32 -208.5t-169 -83.5q-119 0 -201 116q-27 45 -67.5 45t-56 -41t2.5 -104h-153zM1110 567q0 -39 -6 -88h-787q10 -127 89 -201.5t188 -74.5q199 0 268 151h225 q-25 -152 -151.5 -258t-343.5 -106q-244 0 -393.5 161.5t-149.5 411.5q0 254 144.5 414t398.5 160q240 0 379 -155t139 -415zM590 920q-113 0 -180.5 -66t-85.5 -180h520q-33 246 -254 246z" glyph-name="glyph608" horiz-adv-x="1177"/><glyph d="M231 0v829h-172v195h172v166q0 152 105.5 259t255.5 107q139 0 219 -59v-168q-94 53 -190 27q-133 -35 -134 -182v-150h254v-195h-254v-829h-256z" glyph-name="glyph609" horiz-adv-x="786"/><glyph d="M1102 1024v-1012q0 -242 -140.5 -383t-377.5 -141q-131 0 -233.5 39t-158 99.5t-83 122t-29.5 116.5h203q10 -78 104 -135.5t209 -48.5q113 8 182.5 94t67.5 241v99q-123 -135 -301 -135q-209 0 -342 153.5t-133 378.5q0 227 133 379.5t342 152.5q193 0 313 -147l12 127 h232zM594 207q86 0 154.5 55t97.5 146v208q-29 90 -97.5 146.5t-154.5 56.5q-121 0 -195.5 -88t-74.5 -219t74.5 -218t195.5 -87z" glyph-name="glyph610" horiz-adv-x="1234"/><glyph d="M618.5 1147q-161.5 0 -259 89t-97.5 251h150q0 -76 58 -133.5t148 -57.5q92 0 151.5 57.5t59.5 133.5h148q0 -162 -98.5 -251t-260 -89zM580 -508q-225 -4 -360.5 78t-156.5 213q-12 78 21 166t113 131q-47 16 -82 65.5t-35 106.5q0 125 149 205q-51 49 -87 128t-36 167 q0 160 131.5 274.5t331.5 114.5q72 0 157 -21.5t130 -56.5q23 76 110 117t154 26v-174q-49 14 -95 -2t-64 -63q92 -121 92 -230q0 -182 -135.5 -297.5t-337.5 -120.5q-139 -6 -215 41q-35 -12 -50.5 -35.5t-7.5 -45.5q20 -63 160 -66l223 -2q180 -4 292 -77t126 -206 q20 -203 -125 -316.5t-403 -119.5zM793 739q0 84 -62.5 133.5t-161.5 49.5q-96 0 -156.5 -50.5t-60.5 -134.5t61.5 -136t155.5 -52q98 0 161 52t63 138zM856 -119q-6 121 -283 121h-174q-45 -12 -71.5 -52t-26.5 -85q0 -74 70.5 -115t187.5 -41q139 0 221 47t76 125z" glyph-name="glyph611" horiz-adv-x="1177"/><glyph d="M455 1186l-213 350h190l158 -233l158 233h190l-215 -350h-268zM580 -508q-225 -4 -360.5 78t-156.5 213q-12 78 21 166t113 131q-47 16 -82 65.5t-35 106.5q0 125 149 205q-51 49 -87 128t-36 167q0 160 131.5 274.5t331.5 114.5q72 0 157 -21.5t130 -56.5q23 76 110 117 t154 26v-174q-49 14 -95 -2t-64 -63q92 -121 92 -230q0 -182 -135.5 -297.5t-337.5 -120.5q-139 -6 -215 41q-35 -12 -50.5 -35.5t-7.5 -45.5q20 -63 160 -66l223 -2q180 -4 292 -77t126 -206q20 -203 -125 -316.5t-403 -119.5zM793 739q0 84 -62.5 133.5t-161.5 49.5 q-96 0 -156.5 -50.5t-60.5 -134.5t61.5 -136t155.5 -52q98 0 161 52t63 138zM856 -119q-6 121 -283 121h-174q-45 -12 -71.5 -52t-26.5 -85q0 -74 70.5 -115t187.5 -41q139 0 221 47t76 125z" glyph-name="glyph612" horiz-adv-x="1177"/><glyph d="M649 1452q45 -16 73 -55t28 -86q0 -63 -43 -106.5t-107 -43.5q-61 0 -103 43t-42 107q0 53 44 137t97 149h137zM580 -508q-225 -4 -360.5 78t-156.5 213q-12 78 21 166t113 131q-47 16 -82 65.5t-35 106.5q0 125 149 205q-51 49 -87 128t-36 167q0 160 131.5 274.5 t331.5 114.5q72 0 157 -21.5t130 -56.5q23 76 110 117t154 26v-174q-49 14 -95 -2t-64 -63q92 -121 92 -230q0 -182 -135.5 -297.5t-337.5 -120.5q-139 -6 -215 41q-35 -12 -50.5 -35.5t-7.5 -45.5q20 -63 160 -66l223 -2q180 -4 292 -77t126 -206q20 -203 -125 -316.5 t-403 -119.5zM793 739q0 84 -62.5 133.5t-161.5 49.5q-96 0 -156.5 -50.5t-60.5 -134.5t61.5 -136t155.5 -52q98 0 161 52t63 138zM856 -119q-6 121 -283 121h-174q-45 -12 -71.5 -52t-26.5 -85q0 -74 70.5 -115t187.5 -41q139 0 221 47t76 125z" glyph-name="glyph613" horiz-adv-x="1177"/><glyph d="M590 1190q-63 0 -107.5 44t-44.5 107q0 61 44 105.5t108 44.5q61 0 106 -44t45 -106q0 -63 -45 -107t-106 -44zM580 -508q-225 -4 -360.5 78t-156.5 213q-12 78 21 166t113 131q-47 16 -82 65.5t-35 106.5q0 125 149 205q-51 49 -87 128t-36 167q0 160 131.5 274.5 t331.5 114.5q72 0 157 -21.5t130 -56.5q23 76 110 117t154 26v-174q-49 14 -95 -2t-64 -63q92 -121 92 -230q0 -182 -135.5 -297.5t-337.5 -120.5q-139 -6 -215 41q-35 -12 -50.5 -35.5t-7.5 -45.5q20 -63 160 -66l223 -2q180 -4 292 -77t126 -206q20 -203 -125 -316.5 t-403 -119.5zM793 739q0 84 -62.5 133.5t-161.5 49.5q-96 0 -156.5 -50.5t-60.5 -134.5t61.5 -136t155.5 -52q98 0 161 52t63 138zM856 -119q-6 121 -283 121h-174q-45 -12 -71.5 -52t-26.5 -85q0 -74 70.5 -115t187.5 -41q139 0 221 47t76 125z" glyph-name="glyph614" horiz-adv-x="1177"/><glyph d="M719 1044q178 0 278.5 -99t100.5 -277v-668h-258v637q0 88 -50.5 135t-144.5 47q-102 0 -178 -54t-76 -142v-623h-258v1536h258v-627q57 63 145.5 99t182.5 36z" glyph-name="glyph615" horiz-adv-x="1226"/><glyph d="M760 1137q195 0 304.5 -108.5t109.5 -301.5v-727h-281v692q0 96 -56.5 147.5t-158.5 51.5q-111 0 -193 -59.5t-82 -155.5v-676h-280v1198h-107v152h107v186h280v-186h277v-152h-277v-209q61 68 158 108t199 40z" glyph-name="glyph616" horiz-adv-x="1226"/><glyph d="M760 1137q195 0 304.5 -108.5t109.5 -301.5v-727h-281v692q0 96 -56.5 147.5t-158.5 51.5q-111 0 -193 -59.5t-82 -155.5v-676h-280v1536h280v-547q61 68 158 108t199 40zM606 -115q61 0 106.5 -44t45.5 -105q0 -63 -45 -107.5t-107 -44.5q-63 0 -107 44t-44 108 q0 61 44 105t107 44z" glyph-name="glyph617" horiz-adv-x="1226"/><glyph d="M282.5 1204q-61.5 0 -106.5 45t-45 107q0 63 45 107t106.5 44t106.5 -44t45 -107q0 -61 -45 -106.5t-106.5 -45.5zM154 1024h258v-1024h-258v1024z" glyph-name="glyph618" horiz-adv-x="561"/><glyph d="M133 1024h258v-1024h-258v1024z" glyph-name="glyph619" horiz-adv-x="524"/><glyph d="M342 1536h260l-235 -334h-199zM133 1024h258v-1024h-258v1024z" glyph-name="glyph620" horiz-adv-x="524"/><glyph d="M-88 1536h192l158 -233l158 233h190l-215 -350h-268zM133 1024h258v-1024h-258v1024z" glyph-name="glyph621" horiz-adv-x="524"/><glyph d="M127 1536h268l215 -350h-198l-150 235l-149 -235h-201zM133 1024h258v-1024h-258v1024z" glyph-name="glyph622" horiz-adv-x="524"/><glyph d="M51 1190q-63 0 -108 44t-45 107q0 61 45 105.5t108 44.5q61 0 105.5 -44t44.5 -106q0 -63 -44.5 -107t-105.5 -44zM475.5 1190q-61.5 0 -106.5 44t-45 107q0 61 45 105.5t106.5 44.5t105.5 -44t44 -106q0 -63 -44 -107t-105.5 -44zM133 1024h258v-1024h-258v1024z" glyph-name="glyph623" horiz-adv-x="524"/><glyph d="M282.5 1204q-61.5 0 -106.5 45t-45 107q0 63 45 107t106.5 44t106.5 -44t45 -107q0 -61 -45 -106.5t-106.5 -45.5zM154 1024h258v-1024h-258v1024z" glyph-name="glyph624" horiz-adv-x="661"/><glyph d="M288.5 1204q-61.5 0 -106.5 45t-45 107q0 63 45 107t106.5 44t106.5 -44t45 -107q0 -61 -45 -106.5t-106.5 -45.5zM160 1024h258v-1024h-258v1024zM301 -449q-63 0 -107 44.5t-44 107.5q0 61 44 106.5t107 45.5q61 0 105.5 -45.5t44.5 -106.5q0 -63 -44.5 -107.5 t-105.5 -44.5z" glyph-name="glyph625" horiz-adv-x="577"/><glyph d="M-88 1536h262l174 -334h-194zM133 1024h258v-1024h-258v1024z" glyph-name="glyph626" horiz-adv-x="524"/><glyph d="M309 1235q-61 0 -107 45t-46 108.5t46 108.5t107 45q63 0 108.5 -45t45.5 -108.5t-45.5 -108.5t-108.5 -45zM952 1235q-63 0 -108 44t-45 107q0 61 45 105.5t108 44.5q59 0 104.5 -44t45.5 -106q0 -63 -45.5 -107t-104.5 -44zM608 -510v227h49q86 0 125 35t39 119v1255 h258v-1276q0 -88 -27.5 -155.5t-69.5 -105.5t-101.5 -61.5t-111.5 -30.5t-112 -7h-49zM178 1051h260v-1051h-260v1051z" glyph-name="glyph627" horiz-adv-x="1267"/><glyph d="M-57 1372h637v-164h-637v164zM133 1024h258v-1024h-258v1024z" glyph-name="glyph628" horiz-adv-x="524"/><glyph d="M262.5 1190q-61.5 0 -106.5 44t-45 107q0 61 45 105.5t106.5 44.5t106.5 -44t45 -106q0 -63 -45 -107t-106.5 -44zM471 -414q-131 -131 -313 -116q-115 6 -186.5 63t-71.5 164q0 188 237 303h-4v1024h258v-1024h-24q-125 -8 -208 -96t-83 -185q0 -55 32.5 -87.5 t92.5 -32.5q55 0 106 28.5t80 73.5z" glyph-name="glyph629" horiz-adv-x="524"/><glyph d="M399 1176q-123 0 -200 116q-31 45 -70 45t-54.5 -41t1.5 -104h-154q-25 127 34.5 211t166.5 84q125 0 203 -117q27 -45 67.5 -45t56 40t-3.5 103h154q27 -125 -31.5 -208.5t-169.5 -83.5zM133 1024h258v-1024h-258v1024z" glyph-name="glyph630" horiz-adv-x="524"/><glyph d="M288.5 1204q-61.5 0 -106.5 45t-45 107q0 63 45 107t106.5 44t106.5 -44t45 -107q0 -61 -45 -106.5t-106.5 -45.5zM10 -518v225q74 2 112 38t38 136v1143h258v-1159q0 -119 -38 -202t-100.5 -122t-129 -53t-140.5 -6z" glyph-name="glyph631" horiz-adv-x="542"/><glyph d="M78 -532q-98 0 -146 32v217q49 -39 115 -39q57 0 96 44.5t39 107.5v1194h258v-1210q0 -145 -105 -245.5t-257 -100.5z" glyph-name="glyph632" horiz-adv-x="606"/><glyph d="M133 0v1536h258v-897l303 385h277l-381 -465l469 -559h-273l-395 485v-485h-258z" glyph-name="glyph633" horiz-adv-x="1105"/><glyph d="M111 0v1536h280v-836l344 426h291l-434 -518l485 -608h-297l-389 492v-492h-280zM541 -365q-45 16 -72 56.5t-27 87.5q0 61 43 105t107 44q59 0 102 -44t43 -105q0 -55 -44 -139t-97 -150h-139z" glyph-name="glyph634" horiz-adv-x="1114"/><glyph d="M152 0v1536h258v-1536h-258z" glyph-name="glyph635" horiz-adv-x="585"/><glyph d="M330 2048h260l-238 -334h-196zM150 0v1536h258v-1536h-258z" glyph-name="glyph636" horiz-adv-x="714"/><glyph d="M680 1257q-45 16 -71.5 56.5t-26.5 87.5q0 61 43 105t106 44q59 0 102.5 -44t43.5 -105q0 -55 -44.5 -139t-97.5 -150h-139zM150 0v1536h258v-1536h-258z" glyph-name="glyph637" horiz-adv-x="927"/><glyph d="M150 0v1536h258v-1536h-258zM229 -383q-45 16 -71.5 55t-26.5 86q0 63 43 106.5t107 43.5q59 0 102 -43t43 -107q0 -53 -44 -137t-97 -149h-140z" glyph-name="glyph638" horiz-adv-x="714"/><glyph d="M150 0v1536h258v-1536h-258zM629 625q-47 0 -80 32.5t-33 79.5t34 81t79 34t79.5 -35t34.5 -80q0 -47 -34.5 -79.5t-79.5 -32.5z" glyph-name="glyph639" horiz-adv-x="780"/><glyph d="M150 0v1536h258v-1536h-258zM283 -416q-63 0 -107.5 44t-44.5 108q0 61 44 105t108 44q61 0 105 -44t44 -105q0 -63 -44 -107.5t-105 -44.5z" glyph-name="glyph640" horiz-adv-x="714"/><glyph d="M657 1083l-247 -258l-2 -2v-823h-258v553l-93 -94h-159l252 264v813h258v-541l2 2l82 86h165z" glyph-name="glyph641" horiz-adv-x="714"/><glyph d="M1362 1044q170 0 266 -98t96 -272v-674h-258v643q0 176 -176 176q-94 0 -163.5 -53t-69.5 -139v-627h-258v643q0 176 -174 176q-94 0 -164 -53t-70 -139v-627h-258v1024h234l12 -119q53 63 139 101t178 38q199 0 303 -174q59 78 158 126t205 48z" glyph-name="glyph642" horiz-adv-x="1851"/><glyph d="M690 1044q178 0 278.5 -99t100.5 -277v-668h-258v637q0 182 -197 182q-102 0 -177 -54t-75 -142v-623h-258v1024h232l14 -127q59 68 150.5 107.5t189.5 39.5z" glyph-name="glyph643" horiz-adv-x="1159"/><glyph d="M719 1202h-199l176 334h258zM741 1141q193 0 302.5 -108.5t109.5 -303.5v-729h-279v696q0 96 -55 147.5t-157 51.5q-111 0 -193 -59.5t-82 -153.5v-682h-281v1126h250l19 -147q61 74 160.5 118t205.5 44z" glyph-name="glyph644" horiz-adv-x="1247"/><glyph d="M481 1186l-211 350h191l155 -233l160 233h191l-217 -350h-269zM741 1141q193 0 302.5 -108.5t109.5 -303.5v-729h-279v696q0 96 -55 147.5t-157 51.5q-111 0 -193 -59.5t-82 -153.5v-682h-281v1126h250l19 -147q61 74 160.5 118t205.5 44z" glyph-name="glyph645" horiz-adv-x="1247"/><glyph d="M741 1141q193 0 302.5 -108.5t109.5 -303.5v-729h-279v696q0 96 -55 147.5t-157 51.5q-111 0 -193 -59.5t-82 -153.5v-682h-281v1126h250l19 -147q61 74 160.5 118t205.5 44zM555 -395q-45 16 -71.5 55t-26.5 86q0 63 43 106.5t106 43.5q59 0 102.5 -43t43.5 -107 q0 -53 -44 -137t-98 -150h-139z" glyph-name="glyph646" horiz-adv-x="1247"/><glyph d="M616 1190q-61 0 -105 44t-44 107q0 61 44 105.5t105 44.5q63 0 107.5 -44t44.5 -106q0 -63 -44.5 -107t-107.5 -44zM741 1141q193 0 302.5 -108.5t109.5 -303.5v-729h-279v696q0 96 -55 147.5t-157 51.5q-111 0 -193 -59.5t-82 -153.5v-682h-281v1126h250l19 -147 q61 74 160.5 118t205.5 44z" glyph-name="glyph647" horiz-adv-x="1247"/><glyph d="M741 1141q193 0 302.5 -108.5t109.5 -303.5v-729h-279v696q0 96 -55 147.5t-157 51.5q-111 0 -193 -59.5t-82 -153.5v-682h-281v1126h250l19 -147q61 74 160.5 118t205.5 44zM616 -115q63 0 107.5 -44t44.5 -105q0 -63 -44 -107.5t-108 -44.5q-61 0 -105 44t-44 108 q0 61 44 105t105 44z" glyph-name="glyph648" horiz-adv-x="1247"/><glyph d="M1153 729v-729h-18v-139q0 -170 -116 -252t-302 -80v172q76 -2 118 29.5t42 130.5v139h-3v696q0 96 -55 147.5t-157 51.5q-111 0 -193 -59.5t-82 -153.5v-682h-281v1126h250l19 -147q61 74 160.5 118t205.5 44q193 0 302.5 -108.5t109.5 -303.5z" glyph-name="glyph649" horiz-adv-x="1247"/><glyph d="M279 1192q-27 127 32.5 211t165.5 84q125 0 203 -117q27 -45 67.5 -45t56 40t-2.5 103h153q27 -125 -31.5 -208.5t-168.5 -83.5q-123 0 -201 116q-31 45 -70 45t-54 -41t3 -104h-153zM741 1141q193 0 302.5 -108.5t109.5 -303.5v-729h-279v696q0 96 -55 147.5t-157 51.5 q-111 0 -193 -59.5t-82 -153.5v-682h-281v1126h250l19 -147q61 74 160.5 118t205.5 44z" glyph-name="glyph650" horiz-adv-x="1247"/><glyph d="M579.5 -20q-227.5 0 -376 153.5t-148.5 378.5q0 227 148.5 379.5t376 152.5t376 -153.5t148.5 -378.5t-148.5 -378.5t-376 -153.5zM580 207q119 0 193.5 88t74.5 217q0 131 -75 219t-193 88q-121 0 -196 -88t-75 -219t75 -218t196 -87z" glyph-name="glyph651" horiz-adv-x="1153"/><glyph d="M672 1536h260l-238 -334h-196zM624.5 -14q-247.5 0 -408.5 166.5t-161 412.5t161 413t408.5 167t409.5 -167t162 -413t-162 -412.5t-409.5 -166.5zM625 231q131 0 213 96.5t82 238t-83 238.5t-212 97q-131 0 -213 -96t-82 -239.5t82 -239t213 -95.5z" glyph-name="glyph652" horiz-adv-x="1247"/><glyph d="M231 1536h191l158 -233l157 233h191l-215 -350h-269zM579.5 -20q-227.5 0 -376 153.5t-148.5 378.5q0 227 148.5 379.5t376 152.5t376 -153.5t148.5 -378.5t-148.5 -378.5t-376 -153.5zM580 207q119 0 193.5 88t74.5 217q0 131 -75 219t-193 88q-121 0 -196 -88t-75 -219 t75 -218t196 -87z" glyph-name="glyph653" horiz-adv-x="1153"/><glyph d="M500 1536h268l215 -350h-199l-149 235l-150 -235h-198zM624.5 -14q-247.5 0 -408.5 166.5t-161 412.5t161 413t408.5 167t409.5 -167t162 -413t-162 -412.5t-409.5 -166.5zM625 231q131 0 213 96.5t82 238t-83 238.5t-212 97q-131 0 -213 -96t-82 -239.5t82 -239 t213 -95.5z" glyph-name="glyph654" horiz-adv-x="1247"/><glyph d="M428 1190q-61 0 -105 44t-44 107q0 61 44 105.5t105 44.5q63 0 107.5 -44t44.5 -106q0 -63 -44.5 -107t-107.5 -44zM854 1190q-61 0 -106.5 44t-45.5 107q0 61 45.5 105.5t106.5 44.5t105.5 -44t44.5 -106q0 -63 -44.5 -107t-105.5 -44zM624.5 -14q-247.5 0 -408.5 166.5 t-161 412.5t161 413t408.5 167t409.5 -167t162 -413t-162 -412.5t-409.5 -166.5zM625 231q131 0 213 96.5t82 238t-83 238.5t-212 97q-131 0 -213 -96t-82 -239.5t82 -239t213 -95.5z" glyph-name="glyph655" horiz-adv-x="1247"/><glyph d="M579.5 -20q-227.5 0 -376 153.5t-148.5 378.5q0 227 148.5 379.5t376 152.5t376 -153.5t148.5 -378.5t-148.5 -378.5t-376 -153.5zM580 207q119 0 193.5 88t74.5 217q0 131 -75 219t-193 88q-121 0 -196 -88t-75 -219t75 -218t196 -87zM580 -416q-63 0 -107.5 44 t-44.5 108q0 61 44 105t108 44q61 0 106 -44t45 -105q0 -63 -45 -107.5t-106 -44.5z" glyph-name="glyph656" horiz-adv-x="1153"/><glyph d="M246 1536h260l174 -334h-197zM624.5 -14q-247.5 0 -408.5 166.5t-161 412.5t161 413t408.5 167t409.5 -167t162 -413t-162 -412.5t-409.5 -166.5zM625 231q131 0 213 96.5t82 238t-83 238.5t-212 97q-131 0 -213 -96t-82 -239.5t82 -239t213 -95.5z" glyph-name="glyph657" horiz-adv-x="1247"/><glyph d="M580 1536h241l-352 -362h-180zM977 1536h244l-351 -362h-182zM579.5 -20q-227.5 0 -376 153.5t-148.5 378.5q0 227 148.5 379.5t376 152.5t376 -153.5t148.5 -378.5t-148.5 -378.5t-376 -153.5zM580 207q119 0 193.5 88t74.5 217q0 131 -75 219t-193 88q-121 0 -196 -88 t-75 -219t75 -218t196 -87z" glyph-name="glyph658" horiz-adv-x="1271"/><glyph d="M262 1372h635v-164h-635v164zM579.5 -20q-227.5 0 -376 153.5t-148.5 378.5q0 227 148.5 379.5t376 152.5t376 -153.5t148.5 -378.5t-148.5 -378.5t-376 -153.5zM580 207q119 0 193.5 88t74.5 217q0 131 -75 219t-193 88q-121 0 -196 -88t-75 -219t75 -218t196 -87z" glyph-name="glyph659" horiz-adv-x="1153"/><glyph d="M977 1028q203 -176 203 -459q0 -248 -160 -416.5t-404 -168.5q-152 0 -274 69l-78 -121h-125l117 179q-201 174 -201 458q0 248 159 417t402 169q150 0 275 -68l78 121h123zM328 569q0 -143 75 -231l347 532q-61 39 -134 39q-129 0 -208.5 -97.5t-79.5 -242.5zM616 233 q129 0 209 96.5t80 239.5q0 137 -76 234l-348 -535q57 -35 135 -35z" glyph-name="glyph660" horiz-adv-x="1228"/><glyph d="M680 1202h-197l174 334h261zM913 930q190 -158 191 -418q0 -225 -148.5 -378.5t-375.5 -153.5q-141 0 -256 63l-74 -111h-115l109 162q-188 156 -189 418q0 227 148.5 379.5t376.5 152.5q139 0 254 -63l73 111h115zM309 512q0 -127 70 -213l326 485q-57 35 -125 35 q-121 0 -196 -88t-75 -219zM580 207q119 0 193.5 88t74.5 217q0 123 -70 213l-325 -487q55 -31 127 -31z" glyph-name="glyph661" horiz-adv-x="1153"/><glyph d="M729 1176q-119 0 -201 116q-27 45 -67.5 45t-56 -41t3.5 -104h-154q-25 127 34.5 211t164.5 84q129 0 202 -117q27 -45 70 -45q41 0 55.5 40t-2.5 103h152q27 -125 -31.5 -208.5t-169.5 -83.5zM624.5 -14q-247.5 0 -408.5 166.5t-161 412.5t161 413t408.5 167t409.5 -167 t162 -413t-162 -412.5t-409.5 -166.5zM625 231q131 0 213 96.5t82 238t-83 238.5t-212 97q-131 0 -213 -96t-82 -239.5t82 -239t213 -95.5z" glyph-name="glyph662" horiz-adv-x="1247"/><glyph d="M1921 567q0 -39 -6 -88h-787q10 -127 89 -201.5t188 -74.5q199 0 268 151h225q-25 -152 -151.5 -258t-343.5 -106q-252 0 -406 176q-158 -184 -417 -184q-248 0 -410 167.5t-162 411.5q0 246 162 413t410 167q254 0 413 -176q150 172 410 172q240 0 379 -155t139 -415z M1135 674h520q-33 246 -254 246q-113 0 -180.5 -65.5t-85.5 -180.5zM580 229q109 0 186.5 68t99.5 178q-6 43 -6 88q0 31 4 88q-23 111 -99.5 178.5t-184.5 67.5q-131 0 -212 -96t-81 -239.5t81 -238t212 -94.5z" glyph-name="glyph663" horiz-adv-x="1941"/><glyph d="M690 1044q209 0 342 -152.5t133 -379.5q0 -225 -134 -378.5t-341 -153.5q-184 0 -303 133v-627l-254 2v1536h254v-113q117 133 303 133zM641 207q121 0 195.5 87t74.5 218t-74.5 219t-195.5 88q-90 0 -158.5 -56t-95.5 -147v-208q27 -90 95.5 -145.5t158.5 -55.5z" glyph-name="glyph664" horiz-adv-x="1232"/><glyph d="M735 1044q213 0 361.5 -154.5t148.5 -377.5t-148.5 -377.5t-361.5 -154.5q-215 0 -344 159v-651h-258v2048h258v-651q129 159 344 159zM696 207q129 0 218.5 89t89.5 216q0 129 -89.5 218t-218.5 89q-127 0 -216 -89t-89 -218q0 -127 89 -216t216 -89z" glyph-name="glyph665" horiz-adv-x="1312"/><glyph d="M1100 1024v-1536l-254 -2v627q-121 -133 -301 -133q-209 0 -342 153.5t-133 378.5q0 227 133 379.5t342 152.5q184 0 301 -133v113h254zM594 207q88 0 155.5 55t96.5 146v210q-29 90 -96.5 145.5t-155.5 55.5q-121 0 -195.5 -88t-74.5 -219t74.5 -218t195.5 -87z" glyph-name="glyph666" horiz-adv-x="1232"/><glyph d="M741 1044v-202q-381 6 -381 -324v-518h-258v1024h258v-168q29 78 124 134t257 54z" glyph-name="glyph667" horiz-adv-x="774"/><glyph d="M545 1202h-197l174 334h260zM799 1139v-244q-205 4 -310.5 -82t-105.5 -285v-528h-281v1126h260l19 -170q35 76 139.5 130.5t278.5 52.5z" glyph-name="glyph668" horiz-adv-x="831"/><glyph d="M317 1186l-213 350h191l158 -233l157 233h191l-215 -350h-269zM803 1139v-244q-205 4 -310.5 -82t-105.5 -285v-528h-281v1126h261l18 -170q35 76 139.5 130.5t278.5 52.5z" glyph-name="glyph669" horiz-adv-x="837"/><glyph d="M801 1139v-244q-205 4 -310.5 -82t-105.5 -285v-528h-281v1126h261l18 -170q35 76 139.5 130.5t278.5 52.5zM203 -387q-45 16 -72 56t-27 87q0 61 43 105.5t107 44.5q59 0 102 -44t43 -106q0 -55 -44 -139t-97 -149h-139z" glyph-name="glyph670" horiz-adv-x="833"/><glyph d="M512 -20q-201 0 -317.5 103t-131.5 236h220q14 -68 78.5 -112.5t142.5 -40.5q156 6 155 127q0 31 -16 53.5t-54 39.5t-69 26.5t-90 25.5q-74 18 -122 36t-104.5 49.5t-85 82.5t-28.5 119q0 145 113.5 232t294.5 87q156 0 271.5 -81.5t129.5 -235.5h-217q-25 113 -172 125 q-70 4 -114 -21.5t-44 -74.5q0 -76 197 -129q23 -6 35 -11q70 -18 119 -38.5t102 -55.5t81.5 -90t28.5 -127q0 -147 -110.5 -236t-292.5 -89z" glyph-name="glyph671" horiz-adv-x="978"/><glyph d="M582 1536h260l-236 -334h-198zM551 -16q-221 0 -347 112.5t-141 257.5h238q16 -76 86 -124t156 -44q170 8 170 138q0 63 -62.5 96t-187.5 63q-80 20 -133.5 39t-114.5 54.5t-92 91t-31 129.5q0 158 124 253t321 95q168 0 294.5 -89t143.5 -257h-238q-14 63 -66.5 97 t-121.5 38q-74 4 -123 -23.5t-49 -81.5q0 -31 15.5 -52t52 -38.5t67.5 -28t88 -24.5q20 -6 31 -8q76 -20 129 -43t111.5 -60.5t89 -98t30.5 -138.5q0 -160 -120.5 -257t-319.5 -97z" glyph-name="glyph672" horiz-adv-x="1054"/><glyph d="M156 1536h190l158 -233l158 233h190l-215 -350h-268zM551 -16q-221 0 -347 112.5t-141 257.5h238q16 -76 86 -124t156 -44q170 8 170 138q0 63 -62.5 96t-187.5 63q-80 20 -133.5 39t-114.5 54.5t-92 91t-31 129.5q0 158 124 253t321 95q168 0 294.5 -89t143.5 -257h-238 q-14 63 -66.5 97t-121.5 38q-74 4 -123 -23.5t-49 -81.5q0 -31 15.5 -52t52 -38.5t67.5 -28t88 -24.5q20 -6 31 -8q76 -20 129 -43t111.5 -60.5t89 -98t30.5 -138.5q0 -160 -120.5 -257t-319.5 -97z" glyph-name="glyph673" horiz-adv-x="1054"/><glyph d="M551 -16q-221 0 -347 112.5t-141 257.5h238q16 -76 86 -124t156 -44q170 8 170 138q0 63 -62.5 96t-187.5 63q-80 20 -133.5 39t-114.5 54.5t-92 91t-31 129.5q0 158 124 253t321 95q168 0 294.5 -89t143.5 -257h-238q-14 63 -66.5 97t-121.5 38q-74 4 -123 -23.5 t-49 -81.5q0 -31 15.5 -52t52 -38.5t67.5 -28t88 -24.5q20 -6 31 -8q76 -20 129 -43t111.5 -60.5t89 -98t30.5 -138.5q0 -160 -120.5 -257t-319.5 -97zM578 -18l-58 -111q102 20 174 -34t72 -150q0 -92 -63.5 -155.5t-155.5 -63.5q-74 0 -142.5 41.5t-95.5 101.5l113 43 q18 -29 54 -48.5t71 -19.5q41 0 69.5 30t28.5 71q0 61 -52 81.5t-130 -12.5l-94 58l88 170z" glyph-name="glyph674" horiz-adv-x="1054"/><glyph d="M551 -16q-221 0 -347 112.5t-141 257.5h238q16 -76 86 -124t156 -44q170 8 170 138q0 63 -62.5 96t-187.5 63q-80 20 -133.5 39t-114.5 54.5t-92 91t-31 129.5q0 158 124 253t321 95q168 0 294.5 -89t143.5 -257h-238q-14 63 -66.5 97t-121.5 38q-74 4 -123 -23.5 t-49 -81.5q0 -31 15.5 -52t52 -38.5t67.5 -28t88 -24.5q20 -6 31 -8q76 -20 129 -43t111.5 -60.5t89 -98t30.5 -138.5q0 -160 -120.5 -257t-319.5 -97zM475 -440q-45 16 -72.5 55t-27.5 86q0 63 44 106t105.5 43t103.5 -43t42 -106q0 -53 -43 -136t-97 -151h-139z" glyph-name="glyph675" horiz-adv-x="1054"/><glyph d="M551 -16q-221 0 -347 112.5t-141 257.5h238q16 -76 86 -124t156 -44q170 8 170 138q0 63 -62.5 96t-187.5 63q-80 20 -133.5 39t-114.5 54.5t-92 91t-31 129.5q0 158 124 253t321 95q168 0 294.5 -89t143.5 -257h-238q-14 63 -66.5 97t-121.5 38q-74 4 -123 -23.5 t-49 -81.5q0 -31 15.5 -52t52 -38.5t67.5 -28t88 -24.5q20 -6 31 -8q76 -20 129 -43t111.5 -60.5t89 -98t30.5 -138.5q0 -160 -120.5 -257t-319.5 -97zM528 -416q-63 0 -107 44t-44 108q0 61 44 105t107 44q61 0 106.5 -44t45.5 -105q0 -63 -45.5 -107.5t-106.5 -44.5z" glyph-name="glyph676" horiz-adv-x="1054"/><glyph d="M1047 797q102 -59 161.5 -160.5t59.5 -220.5q0 -182 -120 -309t-294 -127q-84 0 -185.5 30.5t-158.5 77.5l102 199q35 -29 90.5 -49.5t102.5 -18.5q82 4 143.5 63.5t61.5 147.5q0 96 -73 166t-175 70h-92v211h37q94 0 162.5 66.5t68.5 158.5q0 90 -70.5 149.5 t-177.5 59.5q-117 0 -194.5 -67.5t-77.5 -172.5v-1071h-256v1071q0 201 150.5 333t373.5 132q215 0 354.5 -123t139.5 -307q0 -182 -133 -309z" glyph-name="glyph677" horiz-adv-x="1386"/><glyph d="M684 4q-55 -25 -137 -23.5t-167 30t-144.5 113.5t-59.5 212v493h-127v195h127v348h258v-348h258v-195h-258v-495q0 -106 78 -137t172 -4v-189z" glyph-name="glyph678" horiz-adv-x="743"/><glyph d="M662 223h135v-225h-135q-100 0 -166 10t-130.5 45t-96 110t-31.5 193v80h-187v152h187v321h-185v221h185v406h260v-406h293v-221h-293v-321h219v-152h-219v-59q0 -84 39 -119t125 -35z" glyph-name="glyph679" horiz-adv-x="864"/><glyph d="M686 1305q-45 16 -72.5 56t-27.5 87q0 61 43 105t106 44q61 0 103.5 -44t42.5 -105q0 -55 -44 -139t-98 -150h-137zM659 -2q-100 0 -165.5 10t-130 45t-96 110t-31.5 193v553h-187v221h187v406h260v-406h290v-221h-292v-532q0 -82 39.5 -118t125.5 -36h136v-225h-136z " glyph-name="glyph680" horiz-adv-x="931"/><glyph d="M659 -2q-100 0 -165.5 10t-130 45t-96 110t-31.5 193v553h-187v221h187v406h260v-406h290v-221h-292v-532q0 -82 39.5 -118t125.5 -36h136v-225h-136zM485 -129q104 20 176 -34t72 -150q0 -92 -63.5 -155.5t-155.5 -63.5q-74 0 -143.5 41.5t-94.5 101.5l113 43 q18 -29 54 -48.5t71 -19.5q41 0 68.5 30t27.5 71q0 61 -51 81.5t-129 -12.5l-96 58l98 186l111 -14z" glyph-name="glyph681" horiz-adv-x="874"/><glyph d="M659 -2q-100 0 -165.5 10t-130 45t-96 110t-31.5 193v553h-187v221h187v406h260v-406h290v-221h-292v-532q0 -82 39.5 -118t125.5 -36h136v-225h-136zM397 -430q-45 16 -71.5 56t-26.5 87q0 61 43 105.5t107 44.5q59 0 102 -44t43 -106q0 -55 -44 -139t-97 -149h-140z " glyph-name="glyph682" horiz-adv-x="860"/><glyph d="M659 -2q-100 0 -165.5 10t-130 45t-96 110t-31.5 193v553h-187v221h187v406h260v-406h290v-221h-292v-532q0 -82 39.5 -118t125.5 -36h136v-225h-136zM438.5 -115q61.5 0 106.5 -44t45 -105q0 -63 -45 -107.5t-106.5 -44.5t-106.5 44t-45 108q0 61 45 105t106.5 44z" glyph-name="glyph683" horiz-adv-x="860"/><glyph d="M1083 1024v-1024h-231l-14 129q-57 -68 -148.5 -108.5t-187.5 -40.5q-168 0 -275.5 111.5t-107.5 283.5v649h258v-618q0 -92 52 -145.5t144 -53.5q100 0 177 55t77 144v618h256z" glyph-name="glyph684" horiz-adv-x="1183"/><glyph d="M721 1202h-199l176 334h258zM1171 1126v-1126h-249l-19 152q-61 -76 -160.5 -119t-203.5 -43q-186 0 -303 120.5t-117 309.5v706h280v-673q0 -98 58.5 -157.5t158.5 -59.5q109 0 192 61t83 156v673h280z" glyph-name="glyph685" horiz-adv-x="1271"/><glyph d="M483 1186l-211 350h191l155 -233l160 233h191l-217 -350h-269zM1171 1126v-1126h-249l-19 152q-61 -76 -160.5 -119t-203.5 -43q-186 0 -303 120.5t-117 309.5v706h280v-673q0 -98 58.5 -157.5t158.5 -59.5q109 0 192 61t83 156v673h280z" glyph-name="glyph686" horiz-adv-x="1271"/><glyph d="M469 1186h-197l211 350h269l217 -350h-201l-150 235zM1171 1126v-1126h-249l-19 152q-61 -76 -160.5 -119t-203.5 -43q-186 0 -303 120.5t-117 309.5v706h280v-673q0 -98 58.5 -157.5t158.5 -59.5q109 0 192 61t83 156v673h280z" glyph-name="glyph687" horiz-adv-x="1271"/><glyph d="M408 1190q-63 0 -107.5 44t-44.5 107q0 61 44 105.5t108 44.5q61 0 105 -44t44 -106q0 -63 -44 -107t-105 -44zM831.5 1190q-61.5 0 -106.5 44t-45 107q0 61 45 105.5t106.5 44.5t105.5 -44t44 -106q0 -63 -44 -107t-105.5 -44zM1171 1126v-1126h-249l-19 152 q-61 -76 -160.5 -119t-203.5 -43q-186 0 -303 120.5t-117 309.5v706h280v-673q0 -98 58.5 -157.5t158.5 -59.5q109 0 192 61t83 156v673h280z" glyph-name="glyph688" horiz-adv-x="1271"/><glyph d="M510 1202l-240 334h260l175 -334h-195zM1171 1126v-1126h-249l-19 152q-61 -76 -160.5 -119t-203.5 -43q-186 0 -303 120.5t-117 309.5v706h280v-673q0 -98 58.5 -157.5t158.5 -59.5q109 0 192 61t83 156v673h280z" glyph-name="glyph689" horiz-adv-x="1271"/><glyph d="M510 1174h-182l290 362h244zM727 1174l291 362h244l-353 -362h-182zM1171 1126v-1126h-249l-19 152q-61 -76 -160.5 -119t-203.5 -43q-186 0 -303 120.5t-117 309.5v706h280v-673q0 -98 58.5 -157.5t158.5 -59.5q109 0 192 61t83 156v673h280z" glyph-name="glyph690" horiz-adv-x="1361"/><glyph d="M936 1208h-635v164h635v-164zM1171 1126v-1126h-249l-19 152q-61 -76 -160.5 -119t-203.5 -43q-186 0 -303 120.5t-117 309.5v706h280v-673q0 -98 58.5 -157.5t158.5 -59.5q109 0 192 61t83 156v673h280z" glyph-name="glyph691" horiz-adv-x="1271"/><glyph d="M1122 -299l82 -115q-131 -131 -313 -116q-115 6 -184.5 63t-69.5 164q0 195 231 303h54l-19 152q-61 -76 -160.5 -119t-203.5 -43q-186 0 -303 120.5t-117 309.5v706h280v-673q0 -98 58.5 -157.5t158.5 -59.5q109 0 192 61t83 156v673h280v-1126h-71q-125 -8 -208 -96 t-83 -185q0 -55 34 -87.5t91 -32.5q55 0 106 28.5t82 73.5z" glyph-name="glyph692" horiz-adv-x="1304"/><glyph d="M618.5 1135q-94.5 0 -162 67.5t-67.5 163.5q0 92 67.5 159.5t162 67.5t161 -67.5t66.5 -159.5q0 -96 -66.5 -163.5t-161 -67.5zM618 1487q-49 0 -82.5 -36t-33.5 -85q0 -53 33.5 -87t82.5 -34q51 0 86 34t35 87q0 49 -35 85t-86 36zM1171 1126v-1126h-249l-19 152 q-61 -76 -160.5 -119t-203.5 -43q-186 0 -303 120.5t-117 309.5v706h280v-673q0 -98 58.5 -157.5t158.5 -59.5q109 0 192 61t83 156v673h280z" glyph-name="glyph693" horiz-adv-x="1271"/><glyph d="M1067 1024l-412 -1024h-245l-410 1024h276l256 -737l259 737h276z" glyph-name="glyph694" horiz-adv-x="1067"/><glyph d="M1559 1024l-326 -1024h-289l-151 543l-150 -543h-289l-325 1024h290l189 -729l184 729h223l181 -729l176 729h287z" glyph-name="glyph695" horiz-adv-x="1585"/><glyph d="M911 1202h-198l176 334h258zM1710 1124l-354 -1124h-318l-164 596l-161 -596h-316l-356 1124h317l205 -798l201 798h244l196 -800l193 800h313z" glyph-name="glyph696" horiz-adv-x="1730"/><glyph d="M719 1186h-199l213 350h268l216 -350h-199l-150 235zM1710 1124l-354 -1124h-318l-164 596l-161 -596h-316l-356 1124h317l205 -798l201 798h244l196 -800l193 800h313z" glyph-name="glyph697" horiz-adv-x="1730"/><glyph d="M657.5 1190q-61.5 0 -106.5 44t-45 107q0 61 45 105.5t106.5 44.5t106.5 -44t45 -106q0 -63 -45 -107t-106.5 -44zM1081 1190q-61 0 -105 44t-44 107q0 61 45 105.5t104 44.5q63 0 107.5 -44t44.5 -106q0 -63 -44.5 -107t-107.5 -44zM1710 1124l-354 -1124h-318l-164 596 l-161 -596h-316l-356 1124h317l205 -798l201 798h244l196 -800l193 800h313z" glyph-name="glyph698" horiz-adv-x="1730"/><glyph d="M680 1202l-238 334h258l177 -334h-197zM1710 1124l-354 -1124h-318l-164 596l-161 -596h-316l-356 1124h317l205 -798l201 798h244l196 -800l193 800h313z" glyph-name="glyph699" horiz-adv-x="1730"/><glyph d="M725 510l356 -510h-295l-215 328l-215 -328h-297l357 512l-357 512h293l219 -330l217 330h293z" glyph-name="glyph700" horiz-adv-x="1202"/><glyph d="M1139 1026l-617 -1542h-233l209 516l-430 1026h256l297 -698l274 698h244z" glyph-name="glyph701" horiz-adv-x="1185"/><glyph d="M711 1202h-199l176 334h258zM1227 1126l-674 -1679h-254l256 631h-61l-435 1048h277l323 -772l299 772h269z" glyph-name="glyph702" horiz-adv-x="1282"/><glyph d="M455 1186h-199l213 350h268l215 -350h-198l-150 235zM1227 1126l-674 -1679h-254l256 631h-61l-435 1048h277l323 -772l299 772h269z" glyph-name="glyph703" horiz-adv-x="1282"/><glyph d="M397 1190q-63 0 -107 44t-44 107q0 61 44 105.5t107 44.5q61 0 105.5 -44t44.5 -106q0 -63 -44.5 -107t-105.5 -44zM821.5 1190q-61.5 0 -106.5 44t-45 107q0 61 45 105.5t106.5 44.5t105.5 -44t44 -106q0 -63 -44 -107t-105.5 -44zM1227 1126l-674 -1679h-254l256 631 h-61l-435 1048h277l323 -772l299 772h269z" glyph-name="glyph704" horiz-adv-x="1282"/><glyph d="M500 1202l-240 334h260l174 -334h-194zM1227 1126l-674 -1679h-254l256 631h-61l-435 1048h277l323 -772l299 772h269z" glyph-name="glyph705" horiz-adv-x="1282"/><glyph d="M102 186l539 627h-532v211h862v-182l-541 -631h549v-211h-877v186z" glyph-name="glyph706" horiz-adv-x="1040"/><glyph d="M641 1536h260l-235 -334h-199zM102 186l555 627h-548v211h876v-182l-555 -631h563v-211h-891v186z" glyph-name="glyph707" horiz-adv-x="1054"/><glyph d="M215 1536h191l157 -233l158 233h190l-215 -350h-268zM102 186l555 627h-548v211h876v-182l-555 -631h563v-211h-891v186z" glyph-name="glyph708" horiz-adv-x="1054"/><glyph d="M563.5 1190q-61.5 0 -106.5 44t-45 107q0 61 45 105.5t106.5 44.5t106.5 -44t45 -106q0 -63 -45 -107t-106.5 -44zM102 186l555 627h-548v211h876v-182l-555 -631h563v-211h-891v186z" glyph-name="glyph709" horiz-adv-x="1054"/><glyph d="M102 186l555 627h-548v211h876v-182l-555 -631h563v-211h-891v186zM548.5 -416q-61.5 0 -106.5 44t-45 108q0 61 45 105t106.5 44t106.5 -44t45 -105q0 -63 -45 -107.5t-106.5 -44.5z" glyph-name="glyph710" horiz-adv-x="1054"/><glyph d="M1212 1139v-1104q0 -262 -152.5 -417t-412.5 -155q-143 0 -253.5 42t-170 109t-90.5 133.5t-35 127.5h221q12 -86 115 -147.5t228 -53.5q125 10 199.5 102.5t72.5 264.5v104q-133 -147 -328 -147q-229 0 -373.5 168t-144.5 416q0 246 144.5 412.5t373.5 166.5 q209 0 342 -160l13 138h251zM657 248q96 0 171 60.5t106 158.5v229q-31 96 -106.5 157.5t-170.5 61.5q-129 0 -210.5 -96t-81.5 -237q0 -143 81.5 -238.5t210.5 -95.5z" glyph-name="glyph711" horiz-adv-x="1343"/><glyph d="M262 0v907h-166v197h166v76q0 147 85 249.5t228 116.5q74 6 148 -10t106 -39v-201q-47 29 -108.5 39.5t-122.5 -14.5q-78 -47 -78 -164v-53h244v-197h-244v-907h-258zM1128 1241q-59 0 -103 43t-44 104.5t44 104.5t103 43q61 0 104.5 -43t43.5 -104.5t-43.5 -104.5 t-104.5 -43zM993 1126h277v-1126h-277v1126z" glyph-name="glyph712" horiz-adv-x="1404"/></font>
</defs>
</svg>
