<?xml version="1.0" standalone="no"?>
<!DOCTYPE svg PUBLIC "-//W3C//DTD SVG 1.1//EN" "http://www.w3.org/Graphics/SVG/1.1/DTD/svg11.dtd">
<svg xmlns="http://www.w3.org/2000/svg"><metadata>This SVG WebFont was generated by YouWorkForThem.
\(c\)2017 Oakes is a trademark of Samuel Oakes. All rights reserved.</metadata><defs><font horiz-adv-x="0" id="ywftsvg"><font-face ascent="1536" bbox="-1567 -721 2558 2105" cap-height="1536" descent="-512" font-family="" font-stretch="normal" font-weight="600" panose-1="0 0 4 0 0 0 0 0 0 0" underline-position="0" underline-thickness="0" unicode-range="U+000D-FB02" units-per-em="2048" x-height="1124"/><missing-glyph d="M285 1536h903l-215 -1536h-903zM805 197l162 1144h-514l-162 -1144h514z" horiz-adv-x="1226"/><glyph d="M170 0l125 907h-166l29 197h166l10 76q20 147 119.5 249.5t246.5 116.5q74 6 146 -10t100 -39l-26 -201q-43 29 -103.5 39.5t-124.5 -14.5q-84 -47 -102 -164l-6 -53h243l-28 -197h-244l-127 -907h-258zM1210 1241q-59 0 -97 43t-29.5 104.5t58.5 104.5t109 43 q61 0 98 -43t29 -104.5t-57.5 -104.5t-110.5 -43zM1059 1126h276l-157 -1126h-277z" glyph-name="uniFB01" horiz-adv-x="1404" unicode="fi"/><glyph d="M170 0l125 907h-166l29 197h166l10 76q20 147 119.5 249.5t246.5 116.5q74 6 146 -10t100 -39l-26 -201q-43 29 -103.5 39.5t-124.5 -14.5q-84 -47 -102 -164l-6 -53h243l-28 -197h-244l-127 -907h-258zM967 0l215 1536h258l-215 -1536h-258z" glyph-name="uniFB02" horiz-adv-x="1490" unicode="fl"/><glyph d="M285 1536h903l-215 -1536h-903zM805 197l162 1144h-514l-162 -1144h514z" glyph-name=".notdef" horiz-adv-x="1226"/><glyph glyph-name="glyph1"/><glyph glyph-name="glyph2" horiz-adv-x="681"/><glyph glyph-name="space" horiz-adv-x="509" unicode=" "/><glyph d="M311 1536h238l-162 -1067h-213zM215 -6q-61 0 -99 44t-30 107q10 61 59.5 105.5t110.5 44.5t99 -44t30 -105.5t-58.5 -106.5t-111.5 -45z" glyph-name="exclam" horiz-adv-x="618" unicode="!"/><glyph d="M508 1538q47 0 76.5 -30.5t21.5 -90.5q-6 -45 -33.5 -96t-52.5 -80l-24 -31h-74q-23 39 -39 95q-14 -25 -30.5 -48.5t-24.5 -35.5l-11 -11h-73l-16.5 33t-25 75t-7.5 99q8 59 47 90t86 31q57 0 84 -39q39 39 96 39z" glyph-name="quotedbl" horiz-adv-x="585" unicode="&quot;"/><glyph d="M362 344h-288l51 184h289l121 420h-293l57 182h285l98 349h182l-96 -349h358l97 349h184l-98 -349h290l-55 -182h-287l-118 -420h286l-49 -184h-286l-101 -344h-180l96 344h-362l-94 -344h-183zM954 528l121 420h-360l-119 -420h358z" glyph-name="numbersign" horiz-adv-x="1650" unicode="#"/><glyph d="M829 891q96 -41 151.5 -70.5t123 -85t93.5 -130.5t11 -173q-29 -188 -167 -303t-339 -141l-22 -162h-180l22 156q-215 18 -328.5 152t-103.5 341h236q16 -213 231 -244l68 484l-15 6q-96 39 -150 66.5t-121 77.5t-92.5 119t-13.5 157q25 172 168.5 282.5t339.5 128.5 l21 144h180l-20 -146q371 -49 387 -473h-246q2 84 -41 151.5t-133 92.5zM508 1151q-8 -59 32 -103t119 -83l52 360q-80 -16 -136.5 -61t-66.5 -113zM936 428q18 127 -141 211l-58 -401q176 40 199 190z" glyph-name="dollar" horiz-adv-x="1341" unicode="$"/><glyph d="M424 850q-131 0 -207 102.5t-55 249.5q23 147 126 250.5t234 103.5q129 0 205 -103t55 -251q-20 -145 -124.5 -248.5t-233.5 -103.5zM1313 1536h266l-1255 -1536h-265zM451 1044q45 0 87 47.5t50 110.5q10 66 -18.5 113t-73.5 47q-47 0 -87 -46t-51 -114q-8 -66 19 -112 t74 -46zM1116 -20q-129 0 -204.5 103t-55.5 251q20 145 125.5 249.5t235 104.5t205 -103.5t55.5 -250.5q-20 -145 -126 -249.5t-235 -104.5zM1145 176q47 0 87 45t48 112.5t-18.5 113t-73.5 45.5t-88 -45.5t-49.5 -113t19.5 -112.5t75 -45z" glyph-name="percent" horiz-adv-x="1607" unicode="%"/><glyph d="M530 -20q-197 0 -320.5 131t-96.5 311q35 256 278 409q-106 154 -84 293q25 180 142.5 287t295.5 105q150 -2 238 -110t66 -259q-29 -223 -283 -363l221 -256l207 306h268l-323 -476l284 -364h-329l-136 166q-197 -180 -428 -180zM633 948q172 78 188 201 q10 66 -21.5 110t-88.5 44q-147 0 -174 -179q-13 -74 96 -176zM567 215q135 0 258 117l-301 340q-162 -90 -180 -240q-14 -98 46 -157.5t177 -59.5z" glyph-name="ampersand" horiz-adv-x="1456" unicode="&amp;"/><glyph d="M346 1538q47 0 78 -30.5t20 -90.5q-6 -45 -32.5 -96t-51.5 -80l-24 -31h-74q-6 12 -16 33t-24.5 75t-8.5 99q8 59 47 90t86 31z" glyph-name="quotesingle" horiz-adv-x="368" unicode="'"/><glyph d="M381 -436q-139 139 -208 412.5t-23 588.5q49 352 204.5 625.5t360.5 427.5h159q-197 -174 -337 -468t-181 -585q-39 -270 21.5 -551.5t179.5 -451.5z" glyph-name="parenleft" horiz-adv-x="827" unicode="("/><glyph d="M479 1616q139 -141 208 -412.5t24 -587.5q-49 -352 -205 -625.5t-361 -428.5h-159q199 176 339 469t181 585q37 270 -22.5 552t-178.5 450z" glyph-name="parenright" horiz-adv-x="827" unicode=")"/><glyph d="M215 1073l139 156l-196 -21l18 131l191 -22l-95 158l123 67l54 -180l104 180l106 -67l-141 -158l201 22l-19 -131l-194 21l96 -156l-123 -67l-55 180l-105 -180z" glyph-name="asterisk" horiz-adv-x="700" unicode="*"/><glyph d="M682 526h-502l29 193h502l71 512h191l-72 -512h502l-29 -193h-502l-69 -512h-191z" glyph-name="plus" horiz-adv-x="1591" unicode="+"/><glyph d="M68 2q-43 14 -64.5 54t-15.5 87q10 61 59 105.5t113 44.5q59 0 96 -43t29 -107q-8 -55 -63.5 -139t-119.5 -149h-139z" glyph-name="comma" horiz-adv-x="460" unicode=","/><glyph d="M156 621h716l-24 -175h-717z" glyph-name="hyphen" horiz-adv-x="1038" unicode="-"/><glyph d="M119 -20q-59 0 -98 45t-31 106q10 61 60 106.5t111.5 45.5t100.5 -45t31 -106.5t-59.5 -106.5t-114.5 -45z" glyph-name="period" horiz-adv-x="432" unicode="."/><glyph d="M1042 1536h242l-1268 -2048h-243z" glyph-name="slash" horiz-adv-x="1165" unicode="/"/><glyph d="M590 -20q-297 0 -412 211.5t-63 576.5q51 356 232 572t464 216q207 0 328 -103t153.5 -274t-2.5 -411q-53 -369 -224 -578.5t-476 -209.5zM623 207q332 0 409 561q82 563 -250 563q-328 0 -409 -563q-78 -561 250 -561z" glyph-name="zero" horiz-adv-x="1370" unicode="0"/><glyph d="M457 1241l-353 -246l39 287l371 254h242l-215 -1536h-258z" glyph-name="one" horiz-adv-x="856" unicode="1"/><glyph d="M23 186q580 530 710.5 669.5t145.5 244.5q16 113 -42.5 171t-154.5 60q-100 2 -176 -65.5t-86 -178.5l-248 3q16 203 180 336t375 133q197 0 310.5 -120t90.5 -311q-23 -174 -150.5 -321.5t-608.5 -579.5h673l-32 -227h-1012z" glyph-name="two" horiz-adv-x="1181" unicode="2"/><glyph d="M489 -20q-211 0 -345 131t-107 315l254 4q-4 -94 62.5 -152.5t170.5 -58.5q106 0 190.5 70.5t100.5 185.5q14 106 -45 178t-164 72h-121l27 205h106q84 0 148.5 58.5t79.5 146.5q10 78 -47.5 131t-149.5 53q-84 0 -152.5 -47t-80.5 -117l-246 4q25 172 177.5 284.5 t332.5 112.5q190 0 307 -115.5t94 -281.5q-12 -90 -68.5 -165.5t-144.5 -123.5q109 -59 163 -163.5t36 -233.5q-31 -213 -197 -353t-381 -140z" glyph-name="three" horiz-adv-x="1214" unicode="3"/><glyph d="M1116 324h-143l-45 -324h-256l45 324h-733l22 163l815 1049h322l-137 -985h143zM750 551l102 729l-541 -729h439z" glyph-name="four" horiz-adv-x="1261" unicode="4"/><glyph d="M535 -20q-221 0 -347.5 117.5t-113.5 291.5h225q8 -80 82 -129t170 -45q127 4 220 86t112 207q16 127 -54.5 212t-193.5 85q-156 0 -281 -115l-194 96l182 746h846l-33 -225h-645l-96 -375q127 98 319 98q209 0 325 -145.5t83 -366.5q-33 -236 -204 -387t-402 -151z" glyph-name="five" horiz-adv-x="1261" unicode="5"/><glyph d="M567 -14q-201 0 -344 142t-137 357q6 147 23 246q49 360 212.5 572.5t430.5 240.5q49 4 65 4q207 0 334 -126t119 -302h-248q4 86 -54.5 142.5t-170.5 56.5q-340 0 -449 -428q45 63 128 103t141.5 50.5t101.5 10.5q240 0 366.5 -140.5t108.5 -369.5q-23 -229 -207 -394 t-420 -165zM594 199q133 0 237.5 92t122.5 223q18 137 -64.5 227t-219.5 90q-127 0 -226.5 -92t-117.5 -221q-18 -135 59.5 -227t208.5 -92z" glyph-name="six" horiz-adv-x="1314" unicode="6"/><glyph d="M924 1311h-760l31 225h1044l-27 -182l-925 -1354h-283z" glyph-name="seven" horiz-adv-x="1146" unicode="7"/><glyph d="M899 856q104 -61 155.5 -165.5t32.5 -233.5q-29 -203 -197.5 -340t-391.5 -137q-221 0 -351.5 137t-101.5 340q18 129 97 233.5t200 163.5q-150 123 -123 305q23 168 168 282.5t331.5 114.5t300.5 -114.5t91 -282.5q-27 -184 -211 -303zM692 1354q-92 0 -169 -62.5 t-91 -152.5q-14 -88 47.5 -151.5t153.5 -63.5q90 0 167 62.5t91 152.5t-46.5 152.5t-152.5 62.5zM528.5 207q110.5 0 197.5 79t103 191q16 111 -48 185.5t-177 74.5q-111 0 -198 -74.5t-101 -185.5q-16 -113 48.5 -191.5t175 -78.5z" glyph-name="eight" horiz-adv-x="1187" unicode="8"/><glyph d="M555 -10q-211 0 -336 114.5t-115 303.5l250 -5q-8 -78 54.5 -131t183.5 -53q31 0 45 2q131 14 223 122t137 280q-57 -57 -136 -91t-125 -41.5t-79 -7.5q-236 0 -367.5 144.5t-107.5 369.5q27 229 211.5 396.5t417.5 167.5q213 0 348 -145.5t129 -364.5q0 -117 -20 -250 q-53 -377 -231.5 -594t-481.5 -217zM694 694q133 0 234.5 91.5t120.5 226.5q20 133 -59 224t-212 91t-236.5 -94t-121.5 -225q-18 -135 60.5 -224.5t213.5 -89.5z" glyph-name="nine" horiz-adv-x="1314" unicode="9"/><glyph d="M323.5 743q-61.5 0 -99.5 44t-29 106q10 63 59 107t113 44q61 0 100 -44t31 -107q-8 -61 -60.5 -105.5t-114 -44.5zM217 -20q-63 0 -101 45t-28 106q8 61 58.5 106.5t113.5 45.5q61 0 99 -45t30 -106.5t-59.5 -106.5t-112.5 -45z" glyph-name="colon" horiz-adv-x="624" unicode=":"/><glyph d="M305.5 731q-61.5 0 -99.5 44t-30 106q10 59 60.5 104t109.5 45q63 0 101 -44t28 -105.5t-59 -105.5t-110.5 -44zM154 0q-41 16 -63.5 55t-16.5 86q8 63 59 106.5t113 43.5q59 0 95 -43t28 -107q-14 -109 -181 -288h-137z" glyph-name="semicolon" horiz-adv-x="634" unicode=";"/><glyph d="M1370 1210l-997 -471l864 -471l-31 -215l-1050 572l34 231l1211 567z" glyph-name="less" horiz-adv-x="1452" unicode="&lt;"/><glyph d="M123 825h1229l-23 -163h-1229zM68 426h1228l-24 -166h-1229z" glyph-name="equal" horiz-adv-x="1427" unicode="="/><glyph d="M1321 856l-35 -231l-1210 -572l30 215l998 471l-864 471l30 213z" glyph-name="greater" horiz-adv-x="1452" unicode=">"/><glyph d="M444 498q12 88 60.5 162.5t110 125t123 96.5t107.5 101t54 115q14 98 -50.5 163.5t-172.5 65.5q-119 0 -202 -76.5t-89 -191.5h-229q18 209 175.5 351t375.5 142q205 0 325.5 -131t91.5 -323q-10 -76 -58 -147.5t-109.5 -127t-122 -105.5t-105.5 -102.5t-51 -99.5 l-16 -123h-232zM494 -20q-61 0 -99.5 44t-30 107.5t59.5 107.5t112.5 44t100.5 -44t30.5 -107.5t-59.5 -107.5t-114 -44z" glyph-name="question" horiz-adv-x="1165" unicode="?"/><glyph d="M590 -41q-274 0 -428 175t-115 446q39 268 254 456.5t483 188.5q262 0 407.5 -158t111.5 -403q-25 -176 -123.5 -289t-227.5 -113q-123 0 -164 84q-98 -92 -213 -92q-121 0 -185 81t-46 212q23 154 132.5 263.5t242.5 109.5q88 0 141 -48l6 35h176l-100 -391 q-27 -98 31 -98q61 0 106 64.5t60 179.5q27 186 -74.5 295.5t-302.5 109.5q-205 0 -359.5 -138t-183.5 -347t79 -337t312 -128zM612 410q61 0 117.5 62.5t67.5 145.5q23 143 -95 144q-63 0 -115 -61.5t-67 -153.5q-19 -137 92 -137z" glyph-name="at" horiz-adv-x="1220" unicode="@"/><glyph d="M1079 334h-692l-172 -334h-289l832 1536h297l401 -1536h-287zM1034 565l-166 701l-368 -701h534z" glyph-name="A" horiz-adv-x="1568" unicode="A"/><glyph d="M995 797q129 -37 194.5 -136.5t45.5 -246.5q-25 -188 -167 -301t-331 -113h-719l215 1536h625q190 0 301 -114.5t86 -303.5q-18 -115 -86 -197.5t-164 -123.5zM975 1092q14 86 -39 149.5t-141 63.5h-328l-59 -408h329q90 0 158 54.5t80 140.5zM731 233q88 0 160 63.5 t84 149.5q12 90 -40 162t-140 72h-418l-62 -447h416z" glyph-name="B" horiz-adv-x="1312" unicode="B"/><glyph d="M723 -20q-215 0 -371.5 105t-224.5 285.5t-37 397.5q47 334 287.5 561t566.5 227q295 0 461 -168.5t149 -418.5h-256q-4 129 -98 231.5t-291 102.5q-225 0 -379.5 -152t-187.5 -383q-31 -231 81 -383t337 -152q186 0 315 100.5t164 219.5h256q-51 -221 -274.5 -396 t-497.5 -177z" glyph-name="C" horiz-adv-x="1642" unicode="C"/><glyph d="M252 1536h510q334 0 523.5 -200.5t135.5 -571.5q-49 -358 -295.5 -561t-578.5 -203h-510zM578 233q225 0 383.5 133.5t195.5 397.5q39 281 -80 411t-348 130h-246l-151 -1072h246z" glyph-name="D" horiz-adv-x="1490" unicode="D"/><glyph d="M475 1305l-59 -420h639l-35 -234h-637l-59 -418h725l-33 -233h-991l215 1536h991l-31 -231h-725z" glyph-name="E" horiz-adv-x="1222" unicode="E"/><glyph d="M475 1305l-57 -420h624l-34 -234h-625l-90 -651h-266l215 1536h977l-33 -231h-711z" glyph-name="F" horiz-adv-x="1153" unicode="F"/><glyph d="M1499 809l-37 -262l-76 -547h-178l-10 205q-98 -113 -220 -164t-292 -51q-328 0 -495.5 215t-118.5 557q49 350 275 566t544 216q274 0 442 -134t162 -390h-256q-8 131 -107.5 207t-248.5 76q-233 0 -382 -144.5t-184 -396.5q-33 -238 85 -384.5t315 -146.5 q193 0 326 95.5t155 257.5h-385l33 225h653z" glyph-name="G" horiz-adv-x="1581" unicode="G"/><glyph d="M1503 1536l-215 -1536h-266l90 651h-713l-92 -651h-266l215 1536h266l-90 -649h715l90 649h266z" glyph-name="H" horiz-adv-x="1513" unicode="H"/><glyph d="M256 1536h266l-215 -1536h-266z" glyph-name="I" horiz-adv-x="538" unicode="I"/><glyph d="M143 -20q-102 0 -159 20l39 270q63 -25 141 -24q53 0 98 39t53 94l164 1157h264l-165 -1180q-23 -166 -146 -271t-289 -105z" glyph-name="J" horiz-adv-x="759" unicode="J"/><glyph d="M940 0l-545 694l-98 -694h-266l215 1536h266l-98 -696l661 696h309l-704 -758l608 -778h-348z" glyph-name="K" horiz-adv-x="1390" unicode="K"/><glyph d="M242 1536h266l-184 -1303h534l-33 -233h-798z" glyph-name="L" horiz-adv-x="991" unicode="L"/><glyph d="M1874 1536l-215 -1536h-264l161 1159l-577 -1159h-262l-258 1159l-162 -1159h-266l215 1536h372l275 -1194l612 1194h369z" glyph-name="M" horiz-adv-x="1884" unicode="M"/><glyph d="M1602 1536l-216 -1536h-266l-676 1128l-157 -1128h-267l216 1536h268l676 -1126l157 1126h265z" glyph-name="N" horiz-adv-x="1607" unicode="N"/><glyph d="M723 -20q-328 0 -507 228t-132 560t289.5 560t570.5 228t507 -228t132 -560t-289.5 -560t-570.5 -228zM760 238q225 0 379.5 150.5t187.5 379.5q31 231 -80.5 381.5t-337 150.5t-382 -150.5t-189.5 -381.5q-31 -229 83 -379.5t339 -150.5z" glyph-name="O" horiz-adv-x="1646" unicode="O"/><glyph d="M918 1536q184 0 294.5 -146.5t83.5 -336.5q-29 -190 -179 -334t-335 -144h-409l-80 -575h-266l215 1536h676zM791 795q92 0 169.5 77.5t94.5 178.5q12 98 -44.5 176t-148.5 78h-387l-72 -510h388z" glyph-name="P" horiz-adv-x="1294" unicode="P"/><glyph d="M1552 205l-28 -205h-58q-158 0 -245 113l-19 20q-219 -154 -479 -153q-328 0 -507 228t-132 560t289.5 560t570.5 228t507 -228t132 -560q-37 -266 -209 -475l29 -37q45 -51 129 -51h20zM760 238q162 0 291 81l-193 240l170 154l191 -230q84 125 108 285 q31 231 -80.5 381.5t-337 150.5t-382 -150.5t-189.5 -381.5q-31 -229 83 -379.5t339 -150.5z" glyph-name="Q" horiz-adv-x="1648" unicode="Q"/><glyph d="M1212 0h-299l-282 592h-260l-84 -592h-267l216 1536h675q184 0 295 -147.5t84 -337.5q-23 -156 -134.5 -283t-256.5 -160zM799 801q90 0 162.5 72.5t87 179t-36.5 179.5t-142 73h-399l-72 -504h400z" glyph-name="R" horiz-adv-x="1374" unicode="R"/><glyph d="M561 -20q-244 0 -377 137t-123 358h238q8 -104 80 -176t225 -72q129 0 214 50.5t100 150.5q6 39 -1.5 71.5t-37 61.5t-49 46.5t-77 44t-76 33.5t-89.5 36q-78 31 -123 51.5t-107.5 59t-93.5 77.5t-50 99.5t-9 132.5q29 188 198.5 301.5t389.5 113.5q477 0 495 -473h-248 q4 100 -64.5 175t-205.5 75q-106 0 -191 -49t-98 -133q-6 -43 12.5 -78t68.5 -66.5t87 -48t115 -49.5q209 -88 283 -141q172 -127 143 -336q-31 -217 -209 -334.5t-420 -117.5z" glyph-name="S" horiz-adv-x="1290" unicode="S"/><glyph d="M1280 1305h-442l-185 -1305h-262l182 1305h-444l31 231h1153z" glyph-name="T" horiz-adv-x="1241" unicode="T"/><glyph d="M635 -20q-258 0 -415 150.5t-126 367.5l146 1038h266l-139 -991q-18 -139 69.5 -235.5t231.5 -96.5q145 0 262 97.5t137 234.5l139 991h267l-146 -1038q-31 -217 -233.5 -367.5t-458.5 -150.5z" glyph-name="U" horiz-adv-x="1482" unicode="U"/><glyph d="M1655 1536l-832 -1536h-299l-401 1536h299l295 -1227l639 1227h299z" glyph-name="V" horiz-adv-x="1548" unicode="V"/><glyph d="M2376 1536l-656 -1536h-293l-215 1083l-489 -1083h-293l-258 1536h289l164 -1241l520 1241h264l199 -1243l481 1243h287z" glyph-name="W" horiz-adv-x="2308" unicode="W"/><glyph d="M961 0l-289 567l-447 -567h-305l639 786l-399 750h303l270 -530l422 530h301l-610 -750l420 -786h-305z" glyph-name="X" horiz-adv-x="1372" unicode="X"/><glyph d="M827 727l-102 -727h-264l100 723l-424 813h297l291 -586l459 586h293z" glyph-name="Y" horiz-adv-x="1368" unicode="Y"/><glyph d="M1184 233l-33 -233h-1169l18 141l965 1164h-779l31 231h1137l-19 -141l-964 -1162h813z" glyph-name="Z" horiz-adv-x="1320" unicode="Z"/><glyph d="M295 1745h489l-22 -162h-264l-301 -2142h264l-23 -162h-489z" glyph-name="bracketleft" horiz-adv-x="608" unicode="["/><glyph d="M94 1536l301 -512l568 -1536l-299 512z" glyph-name="backslash" horiz-adv-x="1236" unicode="\"/><glyph d="M-29 -559h265l301 2142h-265l23 162h489l-346 -2466h-489z" glyph-name="bracketright" horiz-adv-x="608" unicode="]"/><glyph d="M1155 406l-338 929l-600 -929h-215l729 1130h230l409 -1130h-215z" glyph-name="asciicircum" horiz-adv-x="1445" unicode="^"/><glyph d="M70 0h1024l-25 -172h-1024z" glyph-name="underscore" horiz-adv-x="1345" unicode="_"/><glyph d="M162 1536h260l129 -334h-197z" glyph-name="grave" horiz-adv-x="63" unicode="`"/><glyph d="M336 -14q-164 0 -253 89t-69 244q20 152 160.5 246t351.5 111l242 20l4 25q27 201 -176 201q-96 0 -168 -47.5t-94 -143.5h-232q37 174 169 290t362 116q211 0 317.5 -106.5t75.5 -313.5q-23 -172 -51 -369q-20 -141 67 -141l-28 -207h-76q-61 2 -96 8t-74 36t-53 83 q-55 -63 -159.5 -102t-219.5 -39zM432 193q84 0 163 43t124 104l22 174l-190 -20q-246 -29 -264 -162q-8 -63 33.5 -101t111.5 -38z" glyph-name="a" horiz-adv-x="1159" unicode="a"/><glyph d="M776 1137q227 0 349 -164t87.5 -410t-202.5 -409.5t-396 -163.5q-215 0 -325 153l-37 -143l-242 2l215 1536h277l-74 -539q141 138 348 138zM596 229q129 0 224 96.5t116 237.5q20 143 -47.5 239.5t-198.5 96.5q-96 0 -181 -61.5t-128 -159.5l-31 -227q14 -100 81 -161 t165 -61z" glyph-name="b" horiz-adv-x="1263" unicode="b"/><glyph d="M489 -10q-244 0 -368.5 160.5t-89.5 414.5q37 254 207 413t413 159q113 0 200 -28t139 -72t86 -103.5t45.5 -116.5t8.5 -117h-247q0 86 -67.5 146.5t-174.5 60.5q-137 0 -224 -93t-109.5 -248.5t39 -250t198.5 -94.5q102 0 186 63.5t115 151.5h246q-20 -80 -61.5 -152.5 t-111 -142t-180.5 -110.5t-250 -41z" glyph-name="c" horiz-adv-x="1173" unicode="c"/><glyph d="M1303 1534l-216 -1532l-241 -2l-4 133q-145 -143 -363 -143q-227 0 -349 160.5t-87 404.5q35 248 204 415t396 167q199 0 305 -144l78 541h277zM565 223q94 0 178 60.5t129 156.5l33 232q-18 98 -83.5 158.5t-162.5 60.5q-131 0 -226 -96.5t-114 -239.5 q-20 -141 47.5 -236.5t198.5 -95.5z" glyph-name="d" horiz-adv-x="1265" unicode="d"/><glyph d="M1096 567q0 -2 -17 -88h-786q-8 -127 60.5 -201.5t176.5 -74.5q199 0 289 151h225q-47 -152 -188 -258t-358 -106q-244 0 -371 162.5t-92 410.5q37 254 204 414t420 160q240 0 357 -155t80 -415zM627 920q-225 0 -301 -246h520q2 117 -53 181.5t-166 64.5z" glyph-name="e" horiz-adv-x="1161" unicode="e"/><glyph d="M170 0l125 907h-166l29 197h166l10 76q20 147 119.5 249.5t246.5 116.5q74 6 146 -10t100 -39l-26 -201q-43 29 -103.5 39.5t-124.5 -14.5q-84 -47 -102 -164l-6 -53h243l-28 -197h-244l-127 -907h-258z" glyph-name="f" horiz-adv-x="870" unicode="f"/><glyph d="M414 -508q-225 -4 -348 78t-125 213q-2 78 44 166t132 131q-45 16 -74 65.5t-20 106.5q18 125 178 205q-45 49 -70 128t-12 167q25 160 171 274.5t347 114.5q72 0 153.5 -21.5t122.5 -56.5q33 76 125 117t160 26q-8 -43 -24 -174q-47 14 -95.5 -2t-72.5 -63 q72 -125 57 -230q-27 -182 -177.5 -297.5t-353.5 -120.5q-135 -6 -210 41q-35 -12 -54.5 -35.5t-13.5 -45.5q12 -63 149 -66l224 -2q180 -4 280.5 -77t98.5 -206q-8 -203 -170 -316.5t-422 -119.5zM803 739q12 84 -43 133.5t-154 49.5q-96 0 -163.5 -50.5t-80 -134.5 t42 -136t148.5 -52q98 0 168 52t82 138zM745 -119q6 68 -66.5 94.5t-197.5 26.5h-176q-47 -12 -78.5 -52t-38.5 -85q-10 -74 54.5 -115t181.5 -41q141 0 230 47t91 125z" glyph-name="g" horiz-adv-x="1177" unicode="g"/><glyph d="M825 1137q195 0 290 -108.5t69 -301.5l-103 -727h-280l98 692q12 96 -37 147.5t-151 51.5q-111 0 -202 -59.5t-103 -155.5l-95 -676h-280l215 1536h280l-77 -547q72 68 174 108t202 40z" glyph-name="h" horiz-adv-x="1245" unicode="h"/><glyph d="M340 1241q-59 0 -97 43t-30 104.5t58.5 104.5t109.5 43q61 0 98 -43t29 -104.5t-57.5 -104.5t-110.5 -43zM188 1126h277l-158 -1126h-276z" glyph-name="i" horiz-adv-x="534" unicode="i"/><glyph d="M407.5 1235q-61.5 0 -100.5 44t-31 107q10 61 60.5 105.5t114.5 44.5q61 0 99 -44t28 -106q-8 -61 -58.5 -106t-112 -45zM-182 -510l32 227h48q88 0 132 35t56 119l176 1255h258l-178 -1276q-12 -88 -49 -155.5t-84 -105.5t-110.5 -61.5t-118 -30.5t-113.5 -7h-49z" glyph-name="j" horiz-adv-x="577" unicode="j"/><glyph d="M18 0l215 1536h281l-117 -836l404 426h291l-508 -518l401 -608h-297l-321 492l-68 -492h-281z" glyph-name="k" horiz-adv-x="1093" unicode="k"/><glyph d="M57 0l215 1536h258l-215 -1536h-258z" glyph-name="l" horiz-adv-x="581" unicode="l"/><glyph d="M1520 1139q186 0 274 -106.5t59 -297.5l-102 -735h-281l99 702q12 92 -30 142.5t-134 50.5q-100 0 -182 -59.5t-97 -153.5l-96 -682h-282l98 702q14 92 -28 142.5t-134 50.5q-100 0 -183 -59.5t-98 -153.5l-96 -682h-280l157 1126h252l-6 -139q68 70 167 111t200 41 q213 0 303 -189q74 84 188.5 136.5t231.5 52.5z" glyph-name="m" horiz-adv-x="1937" unicode="m"/><glyph d="M809 1141q193 0 287 -108.5t67 -303.5l-102 -729h-279l97 696q14 96 -35 147.5t-152 51.5q-111 0 -201 -59.5t-102 -153.5l-94 -682h-281l158 1126h250l-2 -147q72 74 177.5 118t211.5 44z" glyph-name="n" horiz-adv-x="1247" unicode="n"/><glyph d="M530.5 -14q-247.5 0 -386 166.5t-103.5 412.5q35 248 219 414t432 166t386.5 -167t103.5 -413t-219.5 -412.5t-432 -166.5zM565 231q131 0 226.5 96.5t113.5 237.5q23 141 -45.5 238.5t-200 97.5t-226.5 -96t-118 -240q-18 -143 50.5 -238.5t199.5 -95.5z" glyph-name="o" horiz-adv-x="1247" unicode="o"/><glyph d="M776 1137q227 0 349 -162t87.5 -407.5t-204.5 -411.5t-396 -166q-201 0 -309 141l-94 -672h-277l234 1665h258l2 -120q135 133 350 133zM594 236q131 0 226 95t116 236q20 143 -48.5 239.5t-199.5 96.5q-96 0 -180 -61.5t-127 -159.5l-31 -227q14 -98 81 -158.5 t163 -60.5z" glyph-name="p" horiz-adv-x="1257" unicode="p"/><glyph d="M1235 1130l-234 -1665l-276 -2l94 672q-152 -145 -348 -145q-227 0 -349 168t-87 415q35 244 201.5 404t396.5 160q213 0 309 -129l35 122h258zM559 240q96 0 179 60t126 157l33 231q-16 98 -82.5 158.5t-163.5 60.5q-131 0 -225 -95t-115 -239q-18 -143 49.5 -238 t198.5 -95z" glyph-name="q" horiz-adv-x="1249" unicode="q"/><glyph d="M866 1139l-35 -244q-205 4 -321.5 -82t-144.5 -285l-74 -528h-281l158 1126h260l-6 -170q45 76 157.5 130.5t286.5 52.5z" glyph-name="r" horiz-adv-x="831" unicode="r"/><glyph d="M457 -16q-221 0 -332 112.5t-105 257.5h238q6 -74 68.5 -123t148.5 -45q174 8 191 138q8 63 -50.5 96t-179.5 63q-78 20 -128 39t-105.5 54.5t-78 91t-11.5 129.5q20 158 157.5 253t333.5 95q168 0 284 -89t107 -257h-237q-8 63 -55.5 97t-114.5 38q-74 4 -126 -23.5 t-61 -81.5q-10 -72 101 -112q29 -10 131 -39q57 -16 98 -31.5t89 -44.5t76 -62.5t43 -86t5 -115.5q-20 -160 -154 -257t-333 -97z" glyph-name="s" horiz-adv-x="1054" unicode="s"/><glyph d="M565 -2q-100 0 -164.5 10t-124 45t-80 110t-3.5 193l77 553h-186l31 221h186l57 406h260l-57 -406h291l-29 -221h-295l-75 -532q-10 -84 23.5 -119t119.5 -35h137l-33 -225h-135z" glyph-name="t" horiz-adv-x="860" unicode="t"/><glyph d="M1237 1126l-158 -1126h-250l2 152q-72 -76 -177 -119t-210 -43q-186 0 -286.5 120.5t-73.5 309.5l100 706h281l-94 -673q-16 -98 34 -157.5t150 -59.5q109 0 202 61t105 156l94 673h281z" glyph-name="u" horiz-adv-x="1271" unicode="u"/><glyph d="M1276 1124l-604 -1124h-266l-291 1124h301l168 -807l393 807h299z" glyph-name="v" horiz-adv-x="1234" unicode="v"/><glyph d="M1774 1124l-510 -1124h-318l-80 596l-245 -596h-316l-199 1124h316l94 -798l313 798h244l84 -800l303 800h314z" glyph-name="w" horiz-adv-x="1730" unicode="w"/><glyph d="M780 559l310 -559h-320l-186 360l-283 -360h-324l465 561l-307 565h320l186 -366l287 366h319z" glyph-name="x" horiz-adv-x="1241" unicode="x"/><glyph d="M1292 1126l-909 -1679h-254l342 631h-61l-285 1048h276l215 -772l408 772h268z" glyph-name="y" horiz-adv-x="1275" unicode="y"/><glyph d="M37 203l688 694h-584l33 229h940l-29 -196l-686 -701h598l-30 -229h-957z" glyph-name="z" horiz-adv-x="1120" unicode="z"/><glyph d="M285 -686q-102 0 -158.5 88t-40.5 217l70 494q23 156 3 215t-110 104l21 158q104 43 140 102.5t58 214.5l70 490q16 129 98 217t187 88h122l-24 -162q-104 0 -140 -22.5t-49 -116.5l-71 -524q-18 -129 -57 -216.5t-117 -150.5q61 -61 76.5 -154.5t-7.5 -212.5l-73 -534 q-10 -74 18.5 -100.5t130.5 -26.5l-24 -168h-123z" glyph-name="braceleft" horiz-adv-x="679" unicode="{"/><glyph d="M332 1536h162l-258 -1843h-162z" glyph-name="bar" horiz-adv-x="579" unicode="|"/><glyph d="M-84 -518q102 0 139 26.5t47 100.5l74 534q20 131 59 218.5t117 148.5q-109 111 -71 367l73 524q12 94 -15.5 116.5t-133.5 22.5l24 166h125q102 0 158.5 -88t40.5 -217l-70 -494q-23 -154 -3 -213t112 -104l-23 -158q-104 -45 -140 -103.5t-58 -215.5l-70 -494 q-16 -127 -99 -216t-186 -89h-125z" glyph-name="braceright" horiz-adv-x="679" unicode="}"/><glyph d="M735 350q-66 0 -121 31t-74.5 53.5t-56.5 71.5q-68 88 -135 88q-78 0 -131 -64.5t-57 -156.5h-133q6 154 103 254t237 100q143 0 237 -149q59 -94 139 -95q74 0 127.5 60.5t55.5 156.5h133q-2 -147 -97.5 -248.5t-226.5 -101.5z" glyph-name="asciitilde" horiz-adv-x="1122" unicode="~"/><glyph d="M321.5 723q-61.5 0 -100.5 43t-31 106q10 63 60.5 107.5t114.5 44.5q61 0 99 -44t29.5 -107.5t-59.5 -106.5t-112.5 -43zM197 532h194l-117 -1044h-256z" glyph-name="exclamdown" horiz-adv-x="624" unicode="¡"/><glyph d="M700 1024q-129 0 -230 -89t-120 -218q-18 -127 58.5 -216t205.5 -89q150 0 254 77l-37 -247q-102 -51 -227 -58l-26 -186h-152l31 201q-186 41 -287.5 184t-75 333.5t169 334t336.5 184.5l29 201h151l-26 -187q119 -6 213 -55l-35 -248q-80 78 -232 78z" glyph-name="cent" horiz-adv-x="1009" unicode="¢"/><glyph d="M84 825h115q-6 117 6 211q27 203 183.5 334t369.5 131q227 0 337.5 -135t69.5 -362h-245q10 143 -34 201.5t-163 58.5q-102 0 -173 -62.5t-87 -165.5q-14 -100 -2 -211h452l-30 -229h-400q4 -104 -8 -186q-6 -57 -26 -103q43 -12 145 -60t149 -48q74 0 107 45t43 153h242 q-14 -197 -130 -318.5t-286 -121.5q-86 0 -173 35t-154.5 69.5t-106.5 34.5q-92 0 -86 -125h-246q2 119 71.5 214.5t176.5 129.5q25 47 30 97q14 80 -2 184h-178z" glyph-name="sterling" horiz-adv-x="1255" unicode="£"/><glyph d="M84 377l123 106q-61 117 -41 260.5t115 262.5l-91 102l158 145l92 -110q129 80 272.5 81t250.5 -81l122 108l119 -139l-121 -104q63 -119 43 -263.5t-116 -263.5l88 -104l-154 -144l-94 111q-127 -80 -272.5 -80t-249.5 80l-125 -111zM414 543q72 -84 190.5 -85t216.5 85 q94 82 110.5 201.5t-54.5 201.5q-72 84 -192 83t-214 -85t-110.5 -201.5t53.5 -199.5z" glyph-name="currency" horiz-adv-x="1267" unicode="¤"/><glyph d="M834 760h368l-24 -166h-379l-25 -168h379l-20 -154h-381l-37 -272h-226l37 272h-376l20 154h379l24 168h-378l24 166h363l-9 24l-391 752h240l309 -614l481 614h238l-598 -748z" glyph-name="yen" horiz-adv-x="1386" unicode="¥"/><glyph d="M332 1536h162l-105 -737h-162zM176 430h162l-102 -737h-162z" glyph-name="brokenbar" horiz-adv-x="579" unicode="¦"/><glyph d="M1069 528q68 -78 53 -186q-20 -145 -187 -241.5t-380 -96.5q-176 0 -312.5 68.5t-185.5 175.5l172 96q33 -72 127.5 -117t233.5 -45q135 0 232.5 44t109.5 120q8 63 -68 104.5t-189.5 67t-225 59t-183 106.5t-57.5 183q14 106 106 189q-68 74 -53 178q23 152 170.5 237.5 t331.5 85.5q129 0 241.5 -41.5t172.5 -111.5l-146 -107q-92 96 -280 97q-115 0 -202 -40t-97 -110q-8 -55 46 -93t139 -58.5t184.5 -49t183.5 -61.5t133 -102.5t35 -165.5q-13 -99 -105 -185zM403 874q-10 -70 63 -109.5t229.5 -78.5t226.5 -68q55 45 61 97 q8 68 -65.5 106.5t-229.5 76.5t-225 67q-54 -38 -60 -91z" glyph-name="section" horiz-adv-x="1271" unicode="§"/><glyph d="M330 1190q-61 0 -99 44t-30 107q8 61 59 105.5t112.5 44.5t99.5 -44t30 -106q-8 -63 -58.5 -107t-113.5 -44zM755.5 1190q-61.5 0 -100.5 44t-30 107q8 61 59 105.5t113 44.5q63 0 101 -44t28 -106q-8 -63 -58.5 -107t-112 -44z" glyph-name="dieresis" horiz-adv-x="63" unicode="¨"/><glyph d="M778.5 -20q-325.5 0 -524.5 231t-154 557q47 326 310.5 557t589 231t524 -231t153.5 -557t-309 -557t-589.5 -231zM798.5 121q272.5 0 486.5 187.5t253 459.5t-123 460.5t-434 188.5t-487 -188.5t-254 -460.5t123.5 -459.5t435 -187.5zM823 360q-168 -2 -261 118t-68 292 q25 174 149.5 292t294.5 118q156 0 242 -91.5t75 -220.5h-141q0 70 -49 121t-145 51q-113 0 -192 -75.5t-95 -194.5q-14 -117 42 -192.5t169 -75.5q92 0 158.5 51t80.5 111h142q-20 -113 -138.5 -208.5t-263.5 -95.5z" glyph-name="copyright" horiz-adv-x="1746" unicode="©"/><glyph d="M846 1536l-86 -614h-127l14 110q-100 -123 -250 -123q-129 0 -205.5 93.5t-58 226.5t121.5 226t232 93q147 0 215 -123l17 111h127zM438 1020q86 0 156 61.5t82 147.5q10 86 -42 147.5t-138 61.5t-156 -61.5t-80 -147.5q-12 -86 40 -147.5t138 -61.5z" glyph-name="ordfeminine" horiz-adv-x="821" unicode="ª"/><glyph d="M190 571l365 377h209l-365 -377l258 -376h-208zM633 571l364 377h209l-364 -377l258 -376h-209z" glyph-name="guillemotleft" horiz-adv-x="1368" unicode="«"/><glyph d="M1286 741h-1112l23 164h1276l-97 -688h-164z" glyph-name="logicalnot" horiz-adv-x="1599" unicode="¬"/><glyph d="M156 621h716l-24 -175h-717z" glyph-name="uni00AD" horiz-adv-x="1208" unicode="­"/><glyph d="M999.5 1556q325.5 0 524 -231t153.5 -557t-309 -557t-589.5 -231t-524.5 231t-154 557q47 326 310.5 557t589 231zM798.5 121q272.5 0 486.5 187.5t253 459.5t-123 460.5t-434 188.5t-487 -188.5t-254 -460.5t123.5 -459.5t435 -187.5zM1143 399h-154l-135 285h-86 l-39 -285h-137l104 746h297q90 0 144.5 -72t40.5 -166q-10 -74 -63.5 -135t-123.5 -78zM938 793q41 0 75 32.5t40 81.5q8 51 -16.5 84t-65.5 33h-154l-33 -231h154z" glyph-name="registered" horiz-adv-x="1746" unicode="®"/><glyph d="M139 1372h635l-22 -164h-635z" glyph-name="macron" horiz-adv-x="75" unicode="¯"/><glyph d="M526 1008q-115 0 -183.5 79.5t-51.5 194.5q14 115 105 194.5t206 79.5t183.5 -79.5t54.5 -194.5q-16 -115 -108.5 -194.5t-205.5 -79.5zM545 1135q61 0 109 43t59 104q8 63 -29 106.5t-98 43.5q-63 0 -111.5 -43t-58.5 -107q-8 -61 29 -104t100 -43z" glyph-name="degree" horiz-adv-x="952" unicode="°"/><glyph d="M1538 913l-22 -165h-631l-51 -369h-164l51 369h-629l23 165h628l54 369h166l-54 -369h629zM8 150h1424l-21 -150h-1423z" glyph-name="plusminus" horiz-adv-x="1581" unicode="±"/><glyph d="M113 870q295 270 359.5 338t72.5 121q8 57 -21.5 87t-79.5 30q-53 0 -91 -33t-44 -90h-121q8 102 90 167.5t187 65.5q96 0 154.5 -58t46.5 -152q-10 -88 -75 -163t-306 -294h340l-17 -111h-508z" glyph-name="uni00B2" horiz-adv-x="669" unicode="²"/><glyph d="M463 815q-96 -2 -154.5 58.5t-46.5 144.5l113 2q-6 -41 23.5 -70.5t78.5 -29.5q51 0 89 32.5t46 85.5q8 51 -19.5 86t-76.5 35h-57l12 90h49q41 0 71 27t36 67q4 39 -19.5 64t-66.5 25q-37 0 -66 -21.5t-37 -56.5l-108 2q14 78 79.5 129t145.5 51q86 0 135 -52t39 -128 q-10 -88 -98 -137q51 -23 75.5 -72t16.5 -109q-12 -96 -87 -159.5t-173 -63.5z" glyph-name="uni00B3" horiz-adv-x="714" unicode="³"/><glyph d="M336 1536h260l-283 -334h-196z" glyph-name="acute" horiz-adv-x="63" unicode="´"/><glyph d="M1157 1024l-143 -1024h-258l16 127q-141 -147 -326 -147q-117 0 -202 65l-80 -557h-189l218 1536h256l-84 -600q-12 -90 42 -153.5t144 -63.5q98 0 175 63.5t89 153.5l84 600h258z" glyph-name="uni00B5" horiz-adv-x="1208" unicode="µ"/><glyph d="M600 727h-45q-170 0 -280.5 120t-88.5 286q25 166 169.5 284.5t314.5 118.5h178l-258 -1843h-133zM1040 1536h134l-259 -1843h-133z" glyph-name="paragraph" horiz-adv-x="1271" unicode="¶"/><glyph d="M270 625q-47 0 -75.5 32.5t-22.5 79.5q8 47 47 81t84 34t75 -35t21 -80q-6 -47 -45 -79.5t-84 -32.5z" glyph-name="periodcentered" horiz-adv-x="550" unicode="·"/><glyph d="M109 -532q-74 0 -137.5 41.5t-82.5 101.5l123 43q12 -29 45 -48.5t68 -19.5q41 0 73.5 30t37.5 71q10 61 -39.5 81.5t-130.5 -12.5l-86 58l124 186h121l-88 -129q106 20 171 -34t50 -150q-12 -92 -84.5 -155.5t-164.5 -63.5z" glyph-name="cedilla" horiz-adv-x="63" unicode="¸"/><glyph d="M274 1425h-110l16 111h238l-109 -768h-127z" glyph-name="uni00B9" horiz-adv-x="518" unicode="¹"/><glyph d="M422 909q-139 0 -223 93.5t-65.5 226.5t129 226t249.5 93t224 -93t66.5 -226t-130 -226.5t-250.5 -93.5zM438 1020q86 0 156 61.5t82 147.5q10 86 -42 147.5t-138 61.5t-156 -61.5t-80 -147.5q-12 -86 40 -147.5t138 -61.5z" glyph-name="ordmasculine" horiz-adv-x="774" unicode="º"/><glyph d="M502 571l-258 377h207l258 -377l-365 -376h-207zM942 571l-258 377h209l258 -377l-365 -376h-208z" glyph-name="guillemotright" horiz-adv-x="1368" unicode="»"/><glyph d="M649 1055q61 0 99 -45t30 -107q-10 -63 -60 -108t-111.5 -45t-100.5 45t-31 108q10 61 60.5 106.5t113.5 45.5zM698 537q-10 -76 -47 -141.5t-84 -109.5t-101 -88t-100.5 -80t-80 -83t-41.5 -98q-14 -98 50 -164t173 -66q119 0 202 76t89 190h229q-16 -209 -175 -350 t-376 -141q-205 0 -325.5 131t-92.5 324q10 76 58.5 147.5t109 125.5t121 104.5t105.5 103.5t53 100l16 121h232z" glyph-name="questiondown" horiz-adv-x="1161" unicode="¿"/><glyph d="M821 1714l-192 334h260l127 -334h-195zM1079 334h-692l-172 -334h-289l832 1536h297l401 -1536h-287zM1034 565l-166 701l-368 -701h534z" glyph-name="Agrave" horiz-adv-x="1568" unicode="À"/><glyph d="M1032 1714h-198l221 334h260zM1079 334h-692l-172 -334h-289l832 1536h297l401 -1536h-287zM1034 565l-166 701l-368 -701h534z" glyph-name="Aacute" horiz-adv-x="1568" unicode="Á"/><glyph d="M776 1698h-198l262 350h268l166 -350h-199l-117 235zM1079 334h-692l-172 -334h-289l832 1536h297l401 -1536h-287zM1034 565l-166 701l-368 -701h534z" glyph-name="Acircumflex" horiz-adv-x="1568" unicode="Â"/><glyph d="M590 1704q-8 127 62.5 211t176.5 84q127 0 187 -117q20 -45 61 -45t61.5 40t12.5 103h154q8 -125 -63 -208.5t-181 -83.5q-121 0 -182 116q-25 45 -64 45q-41 0 -61.5 -42t-10.5 -103h-153zM1079 334h-692l-172 -334h-289l832 1536h297l401 -1536h-287zM1034 565 l-166 701l-368 -701h534z" glyph-name="Atilde" horiz-adv-x="1568" unicode="Ã"/><glyph d="M715 1702q-63 0 -101.5 44t-29.5 107q10 61 60 105.5t114 44.5q61 0 99 -44t30 -106q-8 -63 -59.5 -107t-112.5 -44zM1138.5 1702q-61.5 0 -100.5 44t-30 107q10 61 61 105.5t112.5 44.5t99.5 -44t30 -106q-8 -63 -59.5 -107t-113 -44zM1079 334h-692l-172 -334h-289 l832 1536h297l401 -1536h-287zM1034 565l-166 701l-368 -701h534z" glyph-name="Adieresis" horiz-adv-x="1568" unicode="Ä"/><glyph d="M1063 1507l393 -1507h-287l-90 334h-692l-172 -334h-289l815 1505h-6q-57 63 -45 156q14 94 92 160.5t172.5 66.5t151.5 -66.5t43 -160.5q-12 -95 -86 -154zM803 1661q-8 -53 21.5 -87t80.5 -34t90 34t45 87q8 49 -21.5 86t-78.5 37t-89 -37t-48 -86zM500 565h534 l-166 701z" glyph-name="Aring" horiz-adv-x="1568" unicode="Å"/><glyph d="M758 1536h1173l-33 -225h-628l-62 -441h543l-29 -202h-542l-62 -441h629l-31 -227h-887l45 326h-489l-160 -326h-299zM905 528l109 783h-105l-409 -783h405z" glyph-name="AE" horiz-adv-x="1855" unicode="Æ"/><glyph d="M909 1303q-225 0 -379.5 -152t-187.5 -383q-31 -231 81 -383t337 -152q186 0 315 100.5t164 219.5h256q-47 -207 -247.5 -376t-456.5 -193v-2l-74 -111q106 20 170.5 -34t50.5 -150q-12 -92 -85 -155.5t-165 -63.5q-74 0 -137.5 41.5t-79.5 101.5l121 43q12 -29 45 -48.5 t68 -19.5q41 0 73.5 30t36.5 71q10 61 -39 81.5t-131 -12.5l-86 58l109 168q-301 20 -462 244.5t-116 541.5q47 334 287.5 561t566.5 227q295 0 461 -168.5t149 -418.5h-256q-4 129 -98 231.5t-291 102.5z" glyph-name="Ccedilla" horiz-adv-x="1642" unicode="Ç"/><glyph d="M618 1714l-192 334h260l129 -334h-197zM475 1305l-59 -420h639l-35 -234h-637l-59 -418h725l-33 -233h-991l215 1536h991l-31 -231h-725z" glyph-name="Egrave" horiz-adv-x="1222" unicode="È"/><glyph d="M829 1714h-198l221 334h260zM475 1305l-59 -420h639l-35 -234h-637l-59 -418h725l-33 -233h-991l215 1536h991l-31 -231h-725z" glyph-name="Eacute" horiz-adv-x="1222" unicode="É"/><glyph d="M573 1698h-198l262 350h268l166 -350h-199l-116 235zM475 1305l-59 -420h639l-35 -234h-637l-59 -418h725l-33 -233h-991l215 1536h991l-31 -231h-725z" glyph-name="Ecircumflex" horiz-adv-x="1222" unicode="Ê"/><glyph d="M512 1702q-61 0 -100 44t-31 107q10 61 60.5 105.5t113.5 44.5q61 0 99 -44t30 -106q-8 -63 -59.5 -107t-112.5 -44zM936 1702q-61 0 -99 45t-30 106.5t59.5 105.5t112.5 44t99 -44t30 -106q-10 -63 -59.5 -107t-112.5 -44zM475 1305l-59 -420h639l-35 -234h-637 l-59 -418h725l-33 -233h-991l215 1536h991l-31 -231h-725z" glyph-name="Edieresis" horiz-adv-x="1222" unicode="Ë"/><glyph d="M328 2048h262l129 -334h-197zM473 1536h268l-215 -1536h-268z" glyph-name="Igrave" horiz-adv-x="755" unicode="Ì"/><glyph d="M539 2048h260l-283 -334h-199zM256 1536h266l-215 -1536h-266z" glyph-name="Iacute" horiz-adv-x="741" unicode="Í"/><glyph d="M543 2048h268l166 -350h-199l-116 235l-183 -235h-200zM475 1536h266l-215 -1536h-266z" glyph-name="Icircumflex" horiz-adv-x="970" unicode="Î"/><glyph d="M432 1702q-61 0 -100 44t-31 107q8 61 60.5 105.5t114 44.5t99 -44t29.5 -106q-8 -63 -58.5 -107t-113.5 -44zM858.5 1702q-61.5 0 -100.5 44t-31 107q8 61 60.5 105.5t111.5 44.5q63 0 101 -44t28 -106q-8 -63 -58 -107t-111.5 -44zM492 1536h266l-215 -1536h-267z" glyph-name="Idieresis" horiz-adv-x="999" unicode="Ï"/><glyph d="M874 1536q324 0 515.5 -217t144.5 -551t-300 -551t-575 -217h-471l97 692h-152l21 152h151l98 692h471zM688 233q215 0 381 149.5t199 385.5q35 236 -89 386.5t-339 150.5h-203l-66 -461h250l-20 -152h-250l-66 -459h203z" glyph-name="Eth" horiz-adv-x="1603" unicode="Ð"/><glyph d="M629 1704q-8 127 62.5 211t176.5 84q123 0 187 -117q18 -45 61 -45q41 0 61.5 41t12.5 102h151q8 -125 -61.5 -208.5t-179.5 -83.5q-121 0 -185 116q-25 45 -61 45q-41 0 -61.5 -41t-12.5 -104h-151zM1602 1536l-216 -1536h-266l-676 1128l-157 -1128h-267l216 1536h268 l676 -1126l157 1126h265z" glyph-name="Ntilde" horiz-adv-x="1607" unicode="Ñ"/><glyph d="M668 2048h258l129 -334h-197zM723 -20q-328 0 -507 228t-132 560t289.5 560t570.5 228t507 -228t132 -560t-289.5 -560t-570.5 -228zM760 238q225 0 379.5 150.5t187.5 379.5q31 231 -80.5 381.5t-337 150.5t-382 -150.5t-189.5 -381.5q-31 -229 83 -379.5t339 -150.5z " glyph-name="Ograve" horiz-adv-x="1646" unicode="Ò"/><glyph d="M1094 2048h260l-283 -334h-199zM723 -20q-328 0 -507 228t-132 560t289.5 560t570.5 228t507 -228t132 -560t-289.5 -560t-570.5 -228zM760 238q225 0 379.5 150.5t187.5 379.5q31 231 -80.5 381.5t-337 150.5t-382 -150.5t-189.5 -381.5q-31 -229 83 -379.5t339 -150.5z " glyph-name="Oacute" horiz-adv-x="1646" unicode="Ó"/><glyph d="M881 2048h268l166 -350h-199l-117 235l-184 -235h-197zM723 -20q-328 0 -507 228t-132 560t289.5 560t570.5 228t507 -228t132 -560t-289.5 -560t-570.5 -228zM760 238q225 0 379.5 150.5t187.5 379.5q31 231 -80.5 381.5t-337 150.5t-382 -150.5t-189.5 -381.5 q-31 -229 83 -379.5t339 -150.5z" glyph-name="Ocircumflex" horiz-adv-x="1646" unicode="Ô"/><glyph d="M1100 1688q-121 0 -182 116q-25 45 -64 45q-41 0 -61.5 -42t-10.5 -103h-153q-8 127 62.5 211t176.5 84q127 0 187 -117q20 -45 61 -45t61.5 41t12.5 102h153q8 -125 -62 -208.5t-181 -83.5zM723 -20q-328 0 -507 228t-132 560t289.5 560t570.5 228t507 -228t132 -560 t-289.5 -560t-570.5 -228zM760 238q225 0 379.5 150.5t187.5 379.5q31 231 -80.5 381.5t-337 150.5t-382 -150.5t-189.5 -381.5q-31 -229 83 -379.5t339 -150.5z" glyph-name="Otilde" horiz-adv-x="1646" unicode="Õ"/><glyph d="M754 1702q-61 0 -99.5 44t-29.5 107q8 61 59 105.5t112.5 44.5t99.5 -44t30 -106q-8 -63 -58.5 -107t-113.5 -44zM1179.5 1702q-61.5 0 -100.5 44t-30 107q8 61 60 105.5t112 44.5q63 0 101 -44t28 -106q-8 -63 -58.5 -107t-112 -44zM723 -20q-328 0 -507 228t-132 560 t289.5 560t570.5 228t507 -228t132 -560t-289.5 -560t-570.5 -228zM760 238q225 0 379.5 150.5t187.5 379.5q31 231 -80.5 381.5t-337 150.5t-382 -150.5t-189.5 -381.5q-31 -229 83 -379.5t339 -150.5z" glyph-name="Odieresis" horiz-adv-x="1646" unicode="Ö"/><glyph d="M911 635l328 -379l-156 -139l-329 381l-432 -381l-119 139l432 379l-324 381l156 137l326 -381l434 381l119 -137z" glyph-name="multiply" horiz-adv-x="1499" unicode="×"/><glyph d="M1409 1378q109 -111 155 -269.5t19 -340.5q-47 -332 -289.5 -560t-570.5 -228q-211 0 -363 100l-106 -135h-164l172 213q-109 109 -156 267.5t-22 342.5q47 332 289.5 560t570.5 228q209 0 365 -100l106 133h164zM338 768q-35 -242 96 -395l705 870q-98 57 -230 57 q-225 0 -381.5 -150.5t-189.5 -381.5zM760 238q225 0 379.5 150.5t187.5 379.5q35 244 -90 395l-702 -870q88 -55 225 -55z" glyph-name="Oslash" horiz-adv-x="1646" unicode="Ø"/><glyph d="M598 2048h260l129 -334h-196zM635 -20q-258 0 -415 150.5t-126 367.5l146 1038h266l-139 -991q-18 -139 69.5 -235.5t231.5 -96.5q145 0 262 97.5t137 234.5l139 991h267l-146 -1038q-31 -217 -233.5 -367.5t-458.5 -150.5z" glyph-name="Ugrave" horiz-adv-x="1482" unicode="Ù"/><glyph d="M1024 2048h260l-283 -334h-196zM635 -20q-258 0 -415 150.5t-126 367.5l146 1038h266l-139 -991q-18 -139 69.5 -235.5t231.5 -96.5q145 0 262 97.5t137 234.5l139 991h267l-146 -1038q-31 -217 -233.5 -367.5t-458.5 -150.5z" glyph-name="Uacute" horiz-adv-x="1482" unicode="Ú"/><glyph d="M811 2048h268l166 -350h-198l-117 235l-182 -235h-199zM635 -20q-258 0 -415 150.5t-126 367.5l146 1038h266l-139 -991q-18 -139 69.5 -235.5t231.5 -96.5q145 0 262 97.5t137 234.5l139 991h267l-146 -1038q-31 -217 -233.5 -367.5t-458.5 -150.5z" glyph-name="Ucircumflex" horiz-adv-x="1482" unicode="Û"/><glyph d="M686 1702q-63 0 -101 44t-30 107q10 61 60.5 105.5t113.5 44.5q61 0 99 -44t30 -106q-8 -63 -59.5 -107t-112.5 -44zM1110 1702q-61 0 -100 44t-31 107q10 61 61.5 105.5t112.5 44.5t99 -44t30 -106q-8 -63 -59.5 -107t-112.5 -44zM635 -20q-258 0 -415 150.5t-126 367.5 l146 1038h266l-139 -991q-18 -139 69.5 -235.5t231.5 -96.5q145 0 262 97.5t137 234.5l139 991h267l-146 -1038q-31 -217 -233.5 -367.5t-458.5 -150.5z" glyph-name="Udieresis" horiz-adv-x="1482" unicode="Ü"/><glyph d="M938 1714h-199l222 334h260zM827 727l-102 -727h-264l100 723l-424 813h297l291 -586l459 586h293z" glyph-name="Yacute" horiz-adv-x="1368" unicode="Ý"/><glyph d="M831 1317q186 0 296 -131t83 -320q-25 -182 -171 -309t-332 -127h-349l-59 -430h-258l184 1317l31 217h258l-31 -217h348zM731 657q90 0 163 63.5t85 154t-42 153t-146 62.5h-338l-62 -433h340z" glyph-name="Thorn" horiz-adv-x="1224" unicode="Þ"/><glyph d="M1065 797q94 -59 140 -160.5t30 -220.5q-27 -182 -165 -309t-312 -127q-84 0 -180.5 30.5t-147.5 77.5l129 199q33 -29 84 -49.5t100 -18.5q82 4 153 63.5t83 147.5q14 96 -50.5 166t-166.5 70h-92l30 211h37q94 0 171 66.5t91 158.5q12 90 -49 149.5t-170 59.5 q-117 0 -204 -67.5t-101 -172.5l-149 -1071h-256l149 1071q29 201 198 333t392 132q215 0 338 -123t96 -307q-28 -184 -178 -309z" glyph-name="germandbls" horiz-adv-x="1386" unicode="ß"/><glyph d="M772 1202h-197l-190 334h258zM975 348q-20 -141 67 -141l-28 -207h-76q-61 2 -96 8t-74 36t-53 83q-55 -63 -159.5 -102t-219.5 -39q-164 0 -253 89t-69 244q20 152 160.5 246t351.5 111l242 20l4 25q27 201 -176 201q-96 0 -168 -47.5t-94 -143.5h-232q37 174 169 290 t362 116q211 0 317.5 -106.5t75.5 -313.5q-22 -172 -51 -369zM719 340l22 174l-190 -20q-246 -29 -264 -162q-8 -63 33.5 -101t111.5 -38q84 0 163 43t124 104z" glyph-name="agrave" horiz-adv-x="1159" unicode="à"/><glyph d="M1059 1536l-283 -334h-196l221 334h258zM975 348q-20 -141 67 -141l-28 -207h-76q-61 2 -96 8t-74 36t-53 83q-55 -63 -159.5 -102t-219.5 -39q-164 0 -253 89t-69 244q20 152 160.5 246t351.5 111l242 20l4 25q27 201 -176 201q-96 0 -168 -47.5t-94 -143.5h-232 q37 174 169 290t362 116q211 0 317.5 -106.5t75.5 -313.5q-22 -172 -51 -369zM719 340l22 174l-190 -20q-246 -29 -264 -162q-8 -63 33.5 -101t111.5 -38q84 0 163 43t124 104z" glyph-name="aacute" horiz-adv-x="1159" unicode="á"/><glyph d="M627 1421l-183 -235h-198l262 350h268l166 -350h-199zM975 348q-20 -141 67 -141l-28 -207h-76q-61 2 -96 8t-74 36t-53 83q-55 -63 -159.5 -102t-219.5 -39q-164 0 -253 89t-69 244q20 152 160.5 246t351.5 111l242 20l4 25q27 201 -176 201q-96 0 -168 -47.5 t-94 -143.5h-232q37 174 169 290t362 116q211 0 317.5 -106.5t75.5 -313.5q-22 -172 -51 -369zM719 340l22 174l-190 -20q-246 -29 -264 -162q-8 -63 33.5 -101t111.5 -38q84 0 163 43t124 104z" glyph-name="acircumflex" horiz-adv-x="1159" unicode="â"/><glyph d="M268 1192q-6 127 64.5 211t177.5 84q127 0 186 -117q20 -45 61.5 -45t62 40t11.5 103h154q8 -125 -62.5 -208.5t-181.5 -83.5q-121 0 -184 116q-20 45 -61 45t-61.5 -41t-12.5 -104h-154zM336 -14q-164 0 -253 89t-69 244q20 152 160.5 246t351.5 111l242 20l4 25 q27 201 -176 201q-96 0 -168 -47.5t-94 -143.5h-232q37 174 169 290t362 116q211 0 317.5 -106.5t75.5 -313.5q-23 -172 -51 -369q-20 -141 67 -141l-28 -207h-76q-61 2 -96 8t-74 36t-53 83q-55 -63 -159.5 -102t-219.5 -39zM432 193q84 0 163 43t124 104l22 174l-190 -20 q-246 -29 -264 -162q-8 -63 33.5 -101t111.5 -38z" glyph-name="atilde" horiz-adv-x="1159" unicode="ã"/><glyph d="M383 1190q-61 0 -99 44t-30 107q8 61 59.5 105.5t112.5 44.5t99 -44t30 -106q-8 -63 -58.5 -107t-113.5 -44zM809 1190q-61 0 -100 44t-31 107q8 61 59 105.5t113 44.5q63 0 101 -44t28 -106q-8 -63 -58.5 -107t-111.5 -44zM336 -14q-164 0 -253 89t-69 244 q20 152 160.5 246t351.5 111l242 20l4 25q27 201 -176 201q-96 0 -168 -47.5t-94 -143.5h-232q37 174 169 290t362 116q211 0 317.5 -106.5t75.5 -313.5q-23 -172 -51 -369q-20 -141 67 -141l-28 -207h-76q-61 2 -96 8t-74 36t-53 83q-55 -63 -159.5 -102t-219.5 -39z M432 193q84 0 163 43t124 104l22 174l-190 -20q-246 -29 -264 -162q-8 -63 33.5 -101t111.5 -38z" glyph-name="adieresis" horiz-adv-x="1159" unicode="ä"/><glyph d="M590 1145q-94 0 -152.5 67.5t-46.5 163.5q14 92 91 160t171.5 68t151.5 -68t45 -160q-14 -96 -90 -163.5t-170 -67.5zM639 1497q-49 0 -88 -36t-47 -85q-8 -53 21.5 -87t80.5 -34q49 0 88 34t47 87q8 49 -21.5 85t-80.5 36zM336 -14q-164 0 -253 89t-69 244 q20 152 160.5 246t351.5 111l242 20l4 25q27 201 -176 201q-96 0 -168 -47.5t-94 -143.5h-232q37 174 169 290t362 116q211 0 317.5 -106.5t75.5 -313.5q-23 -172 -51 -369q-20 -141 67 -141l-28 -207h-76q-61 2 -96 8t-74 36t-53 83q-55 -63 -159.5 -102t-219.5 -39z M432 193q84 0 163 43t124 104l22 174l-190 -20q-246 -29 -264 -162q-8 -63 33.5 -101t111.5 -38z" glyph-name="aring" horiz-adv-x="1159" unicode="å"/><glyph d="M1974 567q-2 -35 -16 -86h-791q-6 -133 61.5 -206.5t186.5 -73.5q82 0 165 37.5t128 115.5h223q-51 -160 -199.5 -265t-359.5 -105q-289 0 -418 225l-26 -207h-226v127q-125 -158 -399 -141q-154 10 -234.5 97t-58.5 237q20 147 159.5 239t350.5 101l240 10l8 51 q27 203 -178 203q-96 0 -168 -47.5t-94 -145.5h-228q37 174 168 290t361 116q164 0 267 -63.5t128 -190.5q188 260 514 260q238 0 355.5 -158t80.5 -420zM1198 674h528q0 119 -56 184.5t-167 65.5q-113 0 -190.5 -66.5t-114.5 -183.5zM715 342l20 152l-188 -11 q-246 -12 -266 -151q-8 -63 31.5 -100t109.5 -39q86 -2 166 40.5t127 108.5z" glyph-name="ae" horiz-adv-x="2021" unicode="æ"/><glyph d="M641 907q-137 0 -224 -93t-109.5 -248.5t39 -250t198.5 -94.5q102 0 186 63.5t115 151.5h246q-20 -80 -61.5 -151.5t-109 -140t-177 -110.5t-246.5 -44l-72 -109q106 20 171 -34t50 -150q-12 -92 -85 -155.5t-165 -63.5q-74 0 -137 42t-82 101l121 43q14 -29 47 -48 t68 -19q41 0 73.5 29.5t36.5 70.5q10 61 -39 81.5t-131 -11.5l-88 57l117 172l2 2q-195 35 -290 189.5t-64 377.5q37 254 207 413t413 159q113 0 200 -28t139 -72t86 -103.5t45.5 -116.5t8.5 -117h-247q0 86 -68 146.5t-174 60.5z" glyph-name="ccedilla" horiz-adv-x="1173" unicode="ç"/><glyph d="M549 1208l-193 332h260l129 -332h-196zM1096 567q0 -2 -17 -88h-786q-8 -127 60.5 -201.5t176.5 -74.5q199 0 289 151h225q-47 -152 -188 -258t-358 -106q-244 0 -371 162.5t-92 410.5q37 254 204 414t420 160q240 0 357 -155t80 -415zM627 920q-225 0 -301 -246h520 q2 117 -53 181.5t-166 64.5z" glyph-name="egrave" horiz-adv-x="1177" unicode="è"/><glyph d="M1042 1540l-282 -332h-197l219 332h260zM659 1137q240 0 357 -155t80 -415q0 -2 -17 -88h-786q-8 -127 60.5 -201.5t176.5 -74.5q199 0 289 151h225q-47 -152 -188 -258t-358 -106q-244 0 -371 162.5t-92 410.5q37 254 203.5 414t420.5 160zM846 674q2 117 -53.5 181.5 t-165.5 64.5q-225 0 -301 -246h520z" glyph-name="eacute" horiz-adv-x="1177" unicode="é"/><glyph d="M504 1190h-197l260 350h269l168 -350h-201l-117 237zM1096 567q0 -2 -17 -88h-786q-8 -127 60.5 -201.5t176.5 -74.5q199 0 289 151h225q-47 -152 -188 -258t-358 -106q-244 0 -371 162.5t-92 410.5q37 254 204 414t420 160q240 0 357 -155t80 -415zM627 920 q-225 0 -301 -246h520q2 117 -53 181.5t-166 64.5z" glyph-name="ecircumflex" horiz-adv-x="1177" unicode="ê"/><glyph d="M442.5 1194q-61.5 0 -100.5 44t-31 108q10 61 61.5 106t113 45t99.5 -45t29 -106q-8 -63 -59 -107.5t-112.5 -44.5zM866 1194q-61 0 -99 45t-30 107q10 61 60.5 106t112 45t99.5 -45t29 -106q-10 -63 -59.5 -107.5t-112.5 -44.5zM1096 567q0 -2 -17 -88h-786 q-8 -127 60.5 -201.5t176.5 -74.5q199 0 289 151h225q-47 -152 -188 -258t-358 -106q-244 0 -371 162.5t-92 410.5q37 254 204 414t420 160q240 0 357 -155t80 -415zM627 920q-225 0 -301 -246h520q2 117 -53 181.5t-166 64.5z" glyph-name="edieresis" horiz-adv-x="1177" unicode="ë"/><glyph d="M172 1536h262l127 -334h-194zM322 1024h258l-144 -1024h-258z" glyph-name="igrave" horiz-adv-x="641" unicode="ì"/><glyph d="M430 1536h260l-282 -334h-199zM150 1024h258l-144 -1024h-258z" glyph-name="iacute" horiz-adv-x="630" unicode="í"/><glyph d="M434 1536h268l168 -350h-200l-117 235l-182 -235h-199zM369 1024h258l-144 -1024h-258z" glyph-name="icircumflex" horiz-adv-x="909" unicode="î"/><glyph d="M326 1190q-63 0 -102.5 44t-30.5 107q8 61 60 105.5t116 44.5q61 0 99 -44t30 -106q-8 -63 -59.5 -107t-112.5 -44zM749.5 1190q-61.5 0 -100.5 44t-31 107q8 61 60.5 105.5t114 44.5t99.5 -44t30 -106q-8 -63 -59.5 -107t-113 -44zM385 1024h258l-143 -1024h-258z" glyph-name="idieresis" horiz-adv-x="937" unicode="ï"/><glyph d="M907 1409q162 -141 234.5 -376.5t34.5 -520.5q-33 -223 -218.5 -377.5t-421 -154.5t-378 154.5t-109.5 377.5q31 223 215.5 377.5t421.5 154.5q123 0 215 -51q-45 162 -149 248l-115 -123l-72 62l107 112q-111 59 -258 64l80 205q186 0 337 -97l103 113l74 -61zM567 207 q127 0 229.5 89t121.5 216q16 129 -61 218t-204 89t-229 -89t-119 -218q-18 -127 58.5 -216t203.5 -89z" glyph-name="eth" horiz-adv-x="1253" unicode="ð"/><glyph d="M352 1192q-8 127 63.5 211t178.5 84q123 0 186 -117q18 -45 62 -45q41 0 61.5 40t11.5 103h152q8 -125 -61.5 -208.5t-180.5 -83.5q-121 0 -184 116q-25 45 -61 45q-41 0 -61.5 -41t-12.5 -104h-154zM809 1141q193 0 287 -108.5t67 -303.5l-102 -729h-279l97 696 q14 96 -35 147.5t-152 51.5q-111 0 -201 -59.5t-102 -153.5l-94 -682h-281l158 1126h250l-2 -147q72 74 177.5 118t211.5 44z" glyph-name="ntilde" horiz-adv-x="1247" unicode="ñ"/><glyph d="M369 1536h260l127 -334h-195zM530.5 -14q-247.5 0 -386 166.5t-103.5 412.5q35 248 219 414t432 166t386.5 -167t103.5 -413t-219.5 -412.5t-432 -166.5zM565 231q131 0 226.5 96.5t113.5 237.5q23 141 -45.5 238.5t-200 97.5t-226.5 -96t-118 -240q-18 -143 50.5 -238.5 t199.5 -95.5z" glyph-name="ograve" horiz-adv-x="1247" unicode="ò"/><glyph d="M795 1536h260l-283 -334h-199zM530.5 -14q-247.5 0 -386 166.5t-103.5 412.5q35 248 219 414t432 166t386.5 -167t103.5 -413t-219.5 -412.5t-432 -166.5zM565 231q131 0 226.5 96.5t113.5 237.5q23 141 -45.5 238.5t-200 97.5t-226.5 -96t-118 -240 q-18 -143 50.5 -238.5t199.5 -95.5z" glyph-name="oacute" horiz-adv-x="1247" unicode="ó"/><glyph d="M582 1536h268l166 -350h-199l-117 235l-182 -235h-199zM530.5 -14q-247.5 0 -386 166.5t-103.5 412.5q35 248 219 414t432 166t386.5 -167t103.5 -413t-219.5 -412.5t-432 -166.5zM565 231q131 0 226.5 96.5t113.5 237.5q23 141 -45.5 238.5t-200 97.5t-226.5 -96 t-118 -240q-18 -143 50.5 -238.5t199.5 -95.5z" glyph-name="ocircumflex" horiz-adv-x="1247" unicode="ô"/><glyph d="M801 1176q-121 0 -185 116q-20 45 -61 45t-61.5 -41t-12.5 -104h-153q-6 127 64.5 211t176.5 84q127 0 187 -117q20 -45 61 -45t61.5 40t12.5 103h153q8 -125 -62 -208.5t-181 -83.5zM530.5 -14q-247.5 0 -386 166.5t-103.5 412.5q35 248 219 414t432 166t386.5 -167 t103.5 -413t-219.5 -412.5t-432 -166.5zM565 231q131 0 226.5 96.5t113.5 237.5q23 141 -45.5 238.5t-200 97.5t-226.5 -96t-118 -240q-18 -143 50.5 -238.5t199.5 -95.5z" glyph-name="otilde" horiz-adv-x="1247" unicode="õ"/><glyph d="M487 1190q-63 0 -101 44t-30 107q8 61 59.5 105.5t112.5 44.5q63 0 101.5 -44t27.5 -106q-8 -63 -58.5 -107t-111.5 -44zM911.5 1190q-61.5 0 -100.5 44t-31 107q8 61 60.5 105.5t114 44.5t99.5 -44t27 -106q-8 -63 -58 -107t-111.5 -44zM530.5 -14q-247.5 0 -386 166.5 t-103.5 412.5q35 248 219 414t432 166t386.5 -167t103.5 -413t-219.5 -412.5t-432 -166.5zM565 231q131 0 226.5 96.5t113.5 237.5q23 141 -45.5 238.5t-200 97.5t-226.5 -96t-118 -240q-18 -143 50.5 -238.5t199.5 -95.5z" glyph-name="odieresis" horiz-adv-x="1247" unicode="ö"/><glyph d="M731 776q-55 0 -90 40t-26.5 95.5t54.5 95.5t99 40q55 0 90 -40t27 -95.5t-53.5 -95.5t-100.5 -40zM158 659h1124l-29 -202h-1124zM633 80q-55 0 -90 40t-27 95t55 95t101 40q55 0 89 -40t25 -95q-6 -55 -52 -95t-101 -40z" glyph-name="divide" horiz-adv-x="1427" unicode="÷"/><glyph d="M1026 1028q178 -174 137 -459q-35 -248 -218 -416.5t-427 -168.5q-147 0 -262 69l-96 -121h-123l141 179q-176 172 -135 458q35 248 216 417t425 169q147 0 264 -68l96 121h123zM313 569q-23 -137 43 -231l422 532q-55 39 -129 39q-129 0 -222.5 -97.5t-113.5 -242.5z M555 233q127 0 221 97.5t115 238.5q18 139 -43 234l-424 -535q51 -35 131 -35z" glyph-name="oslash" horiz-adv-x="1226" unicode="ø"/><glyph d="M586 1202l-193 334h260l129 -334h-196zM1237 1126l-158 -1126h-250l2 152q-72 -76 -177 -119t-210 -43q-186 0 -286.5 120.5t-73.5 309.5l100 706h281l-94 -673q-16 -98 34 -157.5t150 -59.5q109 0 202 61t105 156l94 673h281z" glyph-name="ugrave" horiz-adv-x="1271" unicode="ù"/><glyph d="M797 1202h-197l221 334h258zM1237 1126l-158 -1126h-250l2 152q-72 -76 -177 -119t-210 -43q-186 0 -286.5 120.5t-73.5 309.5l100 706h281l-94 -673q-16 -98 34 -157.5t150 -59.5q109 0 202 61t105 156l94 673h281z" glyph-name="uacute" horiz-adv-x="1271" unicode="ú"/><glyph d="M543 1186h-197l260 350h268l168 -350h-200l-117 235zM1237 1126l-158 -1126h-250l2 152q-72 -76 -177 -119t-210 -43q-186 0 -286.5 120.5t-73.5 309.5l100 706h281l-94 -673q-16 -98 34 -157.5t150 -59.5q109 0 202 61t105 156l94 673h281z" glyph-name="ucircumflex" horiz-adv-x="1271" unicode="û"/><glyph d="M481.5 1190q-61.5 0 -100.5 44t-31 107q10 61 60.5 105.5t113.5 44.5q61 0 99.5 -44t29.5 -106q-8 -63 -59 -107t-112.5 -44zM905 1190q-61 0 -99 45t-30 106.5t59.5 105.5t113 44t99 -44t29.5 -106q-10 -63 -59.5 -107t-112.5 -44zM1237 1126l-158 -1126h-250l2 152 q-72 -76 -177 -119t-210 -43q-186 0 -286.5 120.5t-73.5 309.5l100 706h281l-94 -673q-16 -98 34 -157.5t150 -59.5q109 0 202 61t105 156l94 673h281z" glyph-name="udieresis" horiz-adv-x="1271" unicode="ü"/><glyph d="M786 1202h-196l221 334h258zM1292 1126l-909 -1679h-254l342 631h-61l-285 1048h276l215 -772l408 772h268z" glyph-name="yacute" horiz-adv-x="1282" unicode="ý"/><glyph d="M788 1044q213 0 340 -154.5t97 -377.5q-33 -223 -203 -377.5t-383 -154.5q-211 0 -322 159l-92 -651h-258l289 2048h258l-92 -651q155 159 366 159zM633 207q127 0 228.5 89t121.5 216q16 129 -60.5 218t-203.5 89t-229.5 -89t-118.5 -218q-18 -127 58.5 -216t203.5 -89z " glyph-name="thorn" horiz-adv-x="1312" unicode="þ"/><glyph d="M475.5 1190q-61.5 0 -100.5 44t-31 107q10 61 60.5 105.5t113.5 44.5q61 0 99 -44t30 -106q-8 -63 -59 -107t-112.5 -44zM899 1190q-61 0 -99 45t-30 106.5t59.5 105.5t113 44t99 -44t29.5 -106q-10 -63 -59.5 -107t-112.5 -44zM1292 1126l-909 -1679h-254l342 631h-61 l-285 1048h276l215 -772l408 772h268z" glyph-name="ydieresis" horiz-adv-x="1282" unicode="ÿ"/><glyph d="M1247 1720h-635l25 164h635zM1079 334h-692l-172 -334h-289l832 1536h297l401 -1536h-287zM1034 565l-166 701l-368 -701h534z" glyph-name="Amacron" horiz-adv-x="1568" unicode="Ā"/><glyph d="M893 1208h-635l23 164h634zM336 -14q-164 0 -253 89t-69 244q20 152 160.5 246t351.5 111l242 20l4 25q27 201 -176 201q-96 0 -168 -47.5t-94 -143.5h-232q37 174 169 290t362 116q211 0 317.5 -106.5t75.5 -313.5q-23 -172 -51 -369q-20 -141 67 -141l-28 -207h-76 q-61 2 -96 8t-74 36t-53 83q-55 -63 -159.5 -102t-219.5 -39zM432 193q84 0 163 43t124 104l22 174l-190 -20q-246 -29 -264 -162q-8 -63 33.5 -101t111.5 -38z" glyph-name="amacron" horiz-adv-x="1159" unicode="ā"/><glyph d="M920 1659q-162 0 -247 89t-61 251h150q-10 -76 40 -133.5t140 -57.5q92 0 158.5 56.5t77.5 134.5h149q-23 -162 -133 -251t-274 -89zM1079 334h-692l-172 -334h-289l832 1536h297l401 -1536h-287zM1034 565l-166 701l-368 -701h534z" glyph-name="Abreve" horiz-adv-x="1568" unicode="Ă"/><glyph d="M578 1147q-160 0 -245 89t-63 251h150q-10 -76 40 -133.5t140 -57.5q92 0 158.5 57.5t77.5 133.5h149q-23 -162 -133 -251t-274 -89zM336 -14q-164 0 -253 89t-69 244q20 152 160.5 246t351.5 111l242 20l4 25q27 201 -176 201q-96 0 -168 -47.5t-94 -143.5h-232 q37 174 169 290t362 116q211 0 317.5 -106.5t75.5 -313.5q-23 -172 -51 -369q-20 -141 67 -141l-28 -207h-76q-61 2 -96 8t-74 36t-53 83q-55 -63 -159.5 -102t-219.5 -39zM432 193q84 0 163 43t124 104l22 174l-190 -20q-246 -29 -264 -162q-8 -63 33.5 -101t111.5 -38z " glyph-name="abreve" horiz-adv-x="1159" unicode="ă"/><glyph d="M1432 -299l65 -115q-147 -129 -330 -116q-113 6 -174 63t-49 164q29 190 279 303h-54l-90 334h-692l-172 -334h-289l832 1536h297l401 -1536h-4q-143 -14 -230 -99t-102 -182q-8 -55 20.5 -87.5t88.5 -32.5q55 0 110.5 28.5t92.5 73.5zM500 565h534l-166 701z" glyph-name="Aogonek" horiz-adv-x="1667" unicode="Ą"/><glyph d="M1018 -299l67 -115q-147 -129 -331 -118q-113 8 -174.5 65t-47.5 164q12 84 93.5 172t195.5 145q-82 27 -106 113q-55 -63 -159.5 -102t-219.5 -39q-164 0 -253 89t-69 244q20 152 160.5 246t351.5 111l242 20l4 25q27 201 -176 201q-96 0 -168 -47.5t-94 -143.5h-232 q37 174 169 290t362 116q211 0 317.5 -106.5t75.5 -313.5q-23 -172 -51 -369q-20 -141 67 -141l-28 -203l16 -4q-133 -29 -221 -108.5t-100 -172.5q-8 -55 20.5 -88.5t85.5 -33.5q117 0 203 104zM719 340l22 174l-190 -20q-246 -29 -264 -162q-8 -63 33.5 -101t111.5 -38 q84 0 163 43t124 104z" glyph-name="aogonek" horiz-adv-x="1144" unicode="ą"/><glyph d="M1108 2048h260l-283 -334h-196zM723 -20q-215 0 -371.5 105t-224.5 285.5t-37 397.5q47 334 287.5 561t566.5 227q295 0 461 -168.5t149 -418.5h-256q-4 129 -98 231.5t-291 102.5q-225 0 -379.5 -152t-187.5 -383q-31 -231 81 -383t337 -152q186 0 315 100.5t164 219.5 h256q-51 -221 -274.5 -396t-497.5 -177z" glyph-name="Cacute" horiz-adv-x="1642" unicode="Ć"/><glyph d="M752 1536h260l-283 -334h-199zM489 -10q-244 0 -368.5 160.5t-89.5 414.5q37 254 207 413t413 159q113 0 200 -28t139 -72t86 -103.5t45.5 -116.5t8.5 -117h-247q0 86 -67.5 146.5t-174.5 60.5q-137 0 -224 -93t-109.5 -248.5t39 -250t198.5 -94.5q102 0 186 63.5 t115 151.5h246q-20 -80 -61.5 -152.5t-111 -142t-180.5 -110.5t-250 -41z" glyph-name="cacute" horiz-adv-x="1173" unicode="ć"/><glyph d="M966.5 1702q-61.5 0 -100.5 44t-30 107q10 61 60 105.5t114 44.5q61 0 99 -44t30 -106q-8 -63 -59.5 -107t-113 -44zM723 -20q-215 0 -371.5 105t-224.5 285.5t-37 397.5q47 334 287.5 561t566.5 227q295 0 461 -168.5t149 -418.5h-256q-4 129 -98 231.5t-291 102.5 q-225 0 -379.5 -152t-187.5 -383q-31 -231 81 -383t337 -152q186 0 315 100.5t164 219.5h256q-51 -221 -274.5 -396t-497.5 -177z" glyph-name="Cdotaccent" horiz-adv-x="1642" unicode="Ċ"/><glyph d="M670 1190q-63 0 -101.5 44t-29.5 107q10 61 60 105.5t114 44.5q61 0 99 -44t30 -106q-8 -63 -59.5 -107t-112.5 -44zM489 -10q-244 0 -368.5 160.5t-89.5 414.5q37 254 207 413t413 159q113 0 200 -28t139 -72t86 -103.5t45.5 -116.5t8.5 -117h-247q0 86 -67.5 146.5 t-174.5 60.5q-137 0 -224 -93t-109.5 -248.5t39 -250t198.5 -94.5q102 0 186 63.5t115 151.5h246q-20 -80 -61.5 -152.5t-111 -142t-180.5 -110.5t-250 -41z" glyph-name="cdotaccent" horiz-adv-x="1173" unicode="ċ"/><glyph d="M668 2048h190l125 -233l191 233h190l-264 -350h-269zM723 -20q-215 0 -371.5 105t-224.5 285.5t-37 397.5q47 334 287.5 561t566.5 227q295 0 461 -168.5t149 -418.5h-256q-4 129 -98 231.5t-291 102.5q-225 0 -379.5 -152t-187.5 -383q-31 -231 81 -383t337 -152 q186 0 315 100.5t164 219.5h256q-51 -221 -274.5 -396t-497.5 -177z" glyph-name="Ccaron" horiz-adv-x="1642" unicode="Č"/><glyph d="M354 1536h191l125 -233l190 233h191l-265 -350h-268zM489 -10q-244 0 -368.5 160.5t-89.5 414.5q37 254 207 413t413 159q113 0 200 -28t139 -72t86 -103.5t45.5 -116.5t8.5 -117h-247q0 86 -67.5 146.5t-174.5 60.5q-137 0 -224 -93t-109.5 -248.5t39 -250t198.5 -94.5 q102 0 186 63.5t115 151.5h246q-20 -80 -61.5 -152.5t-111 -142t-180.5 -110.5t-250 -41z" glyph-name="ccaron" horiz-adv-x="1173" unicode="č"/><glyph d="M449 2048h190l125 -233l190 233h191l-264 -350h-269zM252 1536h510q334 0 523.5 -200.5t135.5 -571.5q-49 -358 -295.5 -561t-578.5 -203h-510zM578 233q225 0 383.5 133.5t195.5 397.5q39 281 -80 411t-348 130h-246l-151 -1072h246z" glyph-name="Dcaron" horiz-adv-x="1490" unicode="Ď"/><glyph d="M1473 1249q-43 16 -65 55t-15 87q8 63 58 106t111.5 43t97.5 -43t28 -106q-6 -53 -61.5 -136.5t-119.5 -150.5h-139zM1303 1534l-216 -1532l-241 -2l-4 133q-145 -143 -363 -143q-227 0 -349 160.5t-87 404.5q35 248 204 415t396 167q199 0 305 -144l78 541h277zM565 223 q94 0 178 60.5t129 156.5l33 232q-18 98 -83.5 158.5t-162.5 60.5q-131 0 -226 -96.5t-114 -239.5q-20 -141 47.5 -236.5t198.5 -95.5z" glyph-name="dcaron" horiz-adv-x="1673" unicode="ď"/><glyph d="M909 1536q334 0 523.5 -200.5t136.5 -571.5q-51 -358 -297 -561t-578 -203h-512l97 692h-146l21 152h147l96 692h512zM1303 764q39 281 -79 411t-347 130h-246l-66 -461h221l-20 -152h-221l-66 -459h246q225 0 383 132.5t195 398.5z" glyph-name="Dcroat" horiz-adv-x="1638" unicode="Đ"/><glyph d="M1305 1188h-144l-166 -1188l-229 -2l4 127q-145 -145 -334 -145q-209 0 -320.5 153.5t-78.5 378.5q31 227 185.5 379.5t363.5 152.5q182 0 282 -133l39 277h-268l23 151h266l28 197h254l-28 -197h145zM516 207q88 0 165 55t116 146l30 210q-16 90 -76.5 145.5 t-148.5 55.5q-121 0 -208 -88t-103 -219q-18 -131 43 -218t182 -87z" glyph-name="dcroat" horiz-adv-x="1318" unicode="đ"/><glyph d="M1047 1720h-635l22 164h635zM475 1305l-59 -420h639l-35 -234h-637l-59 -418h725l-33 -233h-991l215 1536h991l-31 -231h-725z" glyph-name="Emacron" horiz-adv-x="1222" unicode="Ē"/><glyph d="M977 1212h-635l23 166h634zM1096 567q0 -2 -17 -88h-786q-8 -127 60.5 -201.5t176.5 -74.5q199 0 289 151h225q-47 -152 -188 -258t-358 -106q-244 0 -371 162.5t-92 410.5q37 254 204 414t420 160q240 0 357 -155t80 -415zM627 920q-225 0 -301 -246h520 q2 117 -53 181.5t-166 64.5z" glyph-name="emacron" horiz-adv-x="1177" unicode="ē"/><glyph d="M725 1702q-61 0 -99 44t-30 107q8 61 59.5 105.5t112.5 44.5t99 -44t30 -106q-8 -63 -58.5 -107t-113.5 -44zM475 1305l-59 -420h639l-35 -234h-637l-59 -418h725l-33 -233h-991l215 1536h991l-31 -231h-725z" glyph-name="Edotaccent" horiz-adv-x="1222" unicode="Ė"/><glyph d="M657 1194q-63 0 -101 44t-30 108q10 61 60.5 106t111.5 45q63 0 101.5 -45t27.5 -106q-8 -63 -58.5 -107.5t-111.5 -44.5zM1096 567q0 -2 -17 -88h-786q-8 -127 60.5 -201.5t176.5 -74.5q199 0 289 151h225q-47 -152 -188 -258t-358 -106q-244 0 -371 162.5t-92 410.5 q37 254 204 414t420 160q240 0 357 -155t80 -415zM627 920q-225 0 -301 -246h520q2 117 -53 181.5t-166 64.5z" glyph-name="edotaccent" horiz-adv-x="1177" unicode="ė"/><glyph d="M1200 1305h-725l-59 -420h639l-35 -234h-637l-59 -418h725l-33 -233h-84q-127 -8 -223.5 -96t-108.5 -185q-8 -55 20.5 -87.5t86.5 -32.5q55 0 110 28.5t92 73.5l68 -115q-152 -129 -332 -116q-113 6 -174 63t-47 164q29 193 276 303h-675l215 1536h991z" glyph-name="Eogonek" horiz-adv-x="1247" unicode="Ę"/><glyph d="M659 1137q240 0 357 -155t80 -415q0 -2 -17 -88h-786q-8 -127 60.5 -201.5t176.5 -74.5q199 0 289 151h225q-41 -133 -157.5 -234.5t-294.5 -123.5l-8 -8q-59 -70 -74 -150q-8 -55 20.5 -88t87.5 -33q53 0 108.5 29t92.5 74l66 -115q-141 -127 -330 -117 q-113 6 -174.5 64.5t-46.5 165.5q12 92 82 168q0 6 2 10q-207 27 -311.5 184.5t-71.5 382.5q37 254 203.5 414t420.5 160zM846 674q2 117 -53.5 181.5t-165.5 64.5q-225 0 -301 -246h520z" glyph-name="eogonek" horiz-adv-x="1136" unicode="ę"/><glyph d="M588 1698l-164 350h190l125 -233l191 233h190l-264 -350h-268zM475 1305l-59 -420h639l-35 -234h-637l-59 -418h725l-33 -233h-991l215 1536h991l-31 -231h-725z" glyph-name="Ecaron" horiz-adv-x="1222" unicode="Ě"/><glyph d="M518 1190l-162 350h191l123 -233l192 233h191l-267 -350h-268zM1096 567q0 -2 -17 -88h-786q-8 -127 60.5 -201.5t176.5 -74.5q199 0 289 151h225q-47 -152 -188 -258t-358 -106q-244 0 -371 162.5t-92 410.5q37 254 204 414t420 160q240 0 357 -155t80 -415zM627 920 q-225 0 -301 -246h520q2 117 -53 181.5t-166 64.5z" glyph-name="ecaron" horiz-adv-x="1177" unicode="ě"/><glyph d="M961 1659q-162 0 -247 89t-61 251h150q-10 -76 40 -133.5t140 -57.5q92 0 158.5 56.5t77.5 134.5h149q-23 -162 -133 -251t-274 -89zM1499 809l-37 -262l-76 -547h-178l-10 205q-98 -113 -220 -164t-292 -51q-328 0 -495.5 215t-118.5 557q49 350 275 566t544 216 q274 0 442 -134t162 -390h-256q-8 131 -107.5 207t-248.5 76q-233 0 -382 -144.5t-184 -396.5q-33 -238 85 -384.5t315 -146.5q193 0 326 95.5t155 257.5h-385l33 225h653z" glyph-name="Gbreve" horiz-adv-x="1581" unicode="Ğ"/><glyph d="M686 1147q-160 0 -245 89t-62 251h149q-10 -76 40 -133.5t141 -57.5q92 0 158.5 57.5t76.5 133.5h150q-23 -162 -133.5 -251t-274.5 -89zM414 -508q-225 -4 -348 78t-125 213q-2 78 44 166t132 131q-45 16 -74 65.5t-20 106.5q18 125 178 205q-45 49 -70 128t-12 167 q25 160 171 274.5t347 114.5q72 0 153.5 -21.5t122.5 -56.5q33 76 125 117t160 26q-8 -43 -24 -174q-47 14 -95.5 -2t-72.5 -63q72 -125 57 -230q-27 -182 -177.5 -297.5t-353.5 -120.5q-135 -6 -210 41q-35 -12 -54.5 -35.5t-13.5 -45.5q12 -63 149 -66l224 -2 q180 -4 280.5 -77t98.5 -206q-8 -203 -170 -316.5t-422 -119.5zM803 739q12 84 -43 133.5t-154 49.5q-96 0 -163.5 -50.5t-80 -134.5t42 -136t148.5 -52q98 0 168 52t82 138zM745 -119q6 68 -66.5 94.5t-197.5 26.5h-176q-47 -12 -78.5 -52t-38.5 -85q-10 -74 54.5 -115 t181.5 -41q141 0 230 47t91 125z" glyph-name="gbreve" horiz-adv-x="1177" unicode="ğ"/><glyph d="M1030.5 1702q-61.5 0 -100.5 44t-31 107q10 61 60.5 105.5t113.5 44.5q61 0 99 -44t30 -106q-8 -63 -59 -107t-112.5 -44zM1499 809l-37 -262l-76 -547h-178l-10 205q-98 -113 -220 -164t-292 -51q-328 0 -495.5 215t-118.5 557q49 350 275 566t544 216q274 0 442 -134 t162 -390h-256q-8 131 -107.5 207t-248.5 76q-233 0 -382 -144.5t-184 -396.5q-33 -238 85 -384.5t315 -146.5q193 0 326 95.5t155 257.5h-385l33 225h653z" glyph-name="Gdotaccent" horiz-adv-x="1581" unicode="Ġ"/><glyph d="M664 1190q-61 0 -99.5 44t-29.5 107q8 61 59 105.5t112.5 44.5t99.5 -44t30 -106q-8 -63 -58.5 -107t-113.5 -44zM414 -508q-225 -4 -348 78t-125 213q-2 78 44 166t132 131q-45 16 -74 65.5t-20 106.5q18 125 178 205q-45 49 -70 128t-12 167q25 160 171 274.5 t347 114.5q72 0 153.5 -21.5t122.5 -56.5q33 76 125 117t160 26q-8 -43 -24 -174q-47 14 -95.5 -2t-72.5 -63q72 -125 57 -230q-27 -182 -177.5 -297.5t-353.5 -120.5q-135 -6 -210 41q-35 -12 -54.5 -35.5t-13.5 -45.5q12 -63 149 -66l224 -2q180 -4 280.5 -77t98.5 -206 q-8 -203 -170 -316.5t-422 -119.5zM803 739q12 84 -43 133.5t-154 49.5q-96 0 -163.5 -50.5t-80 -134.5t42 -136t148.5 -52q98 0 168 52t82 138zM745 -119q6 68 -66.5 94.5t-197.5 26.5h-176q-47 -12 -78.5 -52t-38.5 -85q-10 -74 54.5 -115t181.5 -41q141 0 230 47t91 125z " glyph-name="gdotaccent" horiz-adv-x="1177" unicode="ġ"/><glyph d="M1499 809l-37 -262l-76 -547h-178l-10 205q-98 -113 -220 -164t-292 -51q-328 0 -495.5 215t-118.5 557q49 350 275 566t544 216q274 0 442 -134t162 -390h-256q-8 131 -107.5 207t-248.5 76q-233 0 -382 -144.5t-184 -396.5q-33 -238 85 -384.5t315 -146.5 q193 0 326 95.5t155 257.5h-385l33 225h653zM666 -387q-43 16 -65.5 55t-14.5 86q10 61 59 105.5t113 44.5q59 0 95 -43t28 -107q-14 -109 -181 -289h-139z" glyph-name="Gcommaaccent" horiz-adv-x="1581" unicode="Ģ"/><glyph d="M762 1452q41 -16 63.5 -55t16.5 -86q-8 -63 -58.5 -106.5t-112 -43.5t-97 43t-27.5 107q6 53 61.5 136t118.5 150h139zM414 -508q-225 -4 -348 78t-125 213q-2 78 44 166t132 131q-45 16 -74 65.5t-20 106.5q18 125 178 205q-45 49 -70 128t-12 167q25 160 171 274.5 t347 114.5q72 0 153.5 -21.5t122.5 -56.5q33 76 125 117t160 26q-8 -43 -24 -174q-47 14 -95.5 -2t-72.5 -63q72 -125 57 -230q-27 -182 -177.5 -297.5t-353.5 -120.5q-135 -6 -210 41q-35 -12 -54.5 -35.5t-13.5 -45.5q12 -63 149 -66l224 -2q180 -4 280.5 -77t98.5 -206 q-8 -203 -170 -316.5t-422 -119.5zM803 739q12 84 -43 133.5t-154 49.5q-96 0 -163.5 -50.5t-80 -134.5t42 -136t148.5 -52q98 0 168 52t82 138zM745 -119q6 68 -66.5 94.5t-197.5 26.5h-176q-47 -12 -78.5 -52t-38.5 -85q-10 -74 54.5 -115t181.5 -41q141 0 230 47t91 125z " glyph-name="gcommaaccent" horiz-adv-x="1177" unicode="ģ"/><glyph d="M1704 1155h-127l-162 -1155h-266l92 651h-715l-90 -651h-268l162 1155h-127l14 102h127l39 279h268l-41 -279h715l39 279h266l-39 -279h127zM1311 1155h-713l-39 -268h715z" glyph-name="Hbar" horiz-adv-x="1767" unicode="Ħ"/><glyph d="M932 1137q195 0 290 -108.5t68 -301.5l-102 -727h-281l99 692q12 96 -37 147.5t-152 51.5q-111 0 -202 -59.5t-103 -155.5l-94 -676h-281l168 1198h-108l22 152h107l26 186h281l-27 -186h279l-23 -152h-276l-31 -209q72 68 174.5 108t202.5 40z" glyph-name="hbar" horiz-adv-x="1351" unicode="ħ"/><glyph d="M545 1688q-121 0 -183 116q-25 45 -63 45q-41 0 -61.5 -42t-10.5 -103h-155q-6 127 64.5 211t176.5 84q127 0 187 -117q20 -45 61 -45t61.5 40t12.5 103h153q8 -125 -62 -208.5t-181 -83.5zM256 1536h266l-215 -1536h-266z" glyph-name="Itilde" horiz-adv-x="532" unicode="Ĩ"/><glyph d="M471 1176q-121 0 -184 116q-25 45 -62 45q-41 0 -62.5 -41t-12.5 -104h-154q-6 127 65.5 211t178.5 84q123 0 186 -117q18 -45 61 -45q41 0 61.5 40t12.5 103h152q8 -125 -61.5 -208.5t-180.5 -83.5zM184 1024h258l-143 -1024h-258z" glyph-name="itilde" horiz-adv-x="524" unicode="ĩ"/><glyph d="M119 1884h637l-23 -164h-637zM256 1536h266l-215 -1536h-266z" glyph-name="Imacron" horiz-adv-x="532" unicode="Ī"/><glyph d="M43 1372h637l-23 -164h-637zM184 1024h258l-143 -1024h-258z" glyph-name="imacron" horiz-adv-x="524" unicode="ī"/><glyph d="M324 -414q-150 -131 -332 -116q-113 6 -175.5 63t-47.5 164q29 190 280 303h-8l215 1536h266l-215 -1536h-28q-127 -8 -223.5 -96t-108.5 -185q-8 -55 20.5 -87.5t87.5 -32.5q115 0 203 102z" glyph-name="Iogonek" horiz-adv-x="532" unicode="Į"/><glyph d="M338 1190q-63 0 -101 44t-30 107q8 61 59 105.5t113 44.5q63 0 101 -44t28 -106q-8 -63 -58.5 -107t-111.5 -44zM319 -414q-147 -129 -331 -116q-113 6 -175.5 63t-48.5 164q29 190 281 303h-4l143 1024h258l-143 -1024h-25q-127 -8 -222 -96t-109 -185 q-8 -55 20.5 -87.5t87.5 -32.5q55 0 110.5 28.5t92.5 73.5z" glyph-name="iogonek" horiz-adv-x="524" unicode="į"/><glyph d="M412 1702q-61 0 -99.5 44t-29.5 107q8 61 59 105.5t112.5 44.5t99.5 -44t30 -106q-8 -63 -58.5 -107t-113.5 -44zM256 1536h266l-215 -1536h-266z" glyph-name="Idotaccent" horiz-adv-x="532" unicode="İ"/><glyph d="M184 1024h258l-143 -1024h-258z" glyph-name="dotlessi" horiz-adv-x="524" unicode="ı"/><glyph d="M305 1536h268l-215 -1536h-268zM844 -20q-102 0 -158 20l37 270q68 -25 143 -24q53 0 98.5 39t53.5 94l162 1157h264l-166 -1180q-23 -166 -145.5 -271t-288.5 -105z" glyph-name="IJ" horiz-adv-x="1554" unicode="Ĳ"/><glyph d="M1079 1235q-63 0 -102 44t-31 107q8 61 60.5 105.5t114 44.5t99 -44t29.5 -105.5t-58.5 -106.5t-111.5 -45zM401.5 1204q-61.5 0 -100.5 45t-30.5 106.5t59.5 106.5t112 45q63 0 101.5 -44t29.5 -107q-8 -61 -59 -106.5t-112.5 -45.5zM489 -510l33 227h47q86 0 130 35 t59 119l174 1255h260l-180 -1276q-12 -88 -49 -155.5t-84.5 -105.5t-110.5 -61.5t-117.5 -30.5t-113.5 -7h-48zM246 1024h258l-144 -1024h-258z" glyph-name="ij" horiz-adv-x="1312" unicode="ĳ"/><glyph d="M940 0l-545 694l-98 -694h-266l215 1536h266l-98 -696l661 696h309l-704 -758l608 -778h-348zM492 -365q-43 16 -66 55.5t-14 86.5q8 61 57 105t113 44q59 0 96 -43t29 -106q-16 -109 -183 -289h-139z" glyph-name="Kcommaaccent" horiz-adv-x="1380" unicode="Ķ"/><glyph d="M18 0l215 1536h281l-117 -836l404 426h291l-508 -518l401 -608h-297l-321 492l-68 -492h-281zM397 -365q-43 16 -65.5 56.5t-14.5 87.5q8 61 58.5 105t113.5 44q59 0 95.5 -44t27.5 -105q-6 -55 -62 -139t-120 -150h-137z" glyph-name="kcommaaccent" horiz-adv-x="1114" unicode="ķ"/><glyph d="M541 2048h260l-283 -334h-199zM256 1536h266l-182 -1303h532l-30 -233h-801z" glyph-name="Lacute" horiz-adv-x="995" unicode="Ĺ"/><glyph d="M524 2048h260l-282 -334h-199zM57 0l215 1536h258l-215 -1536h-258z" glyph-name="lacute" horiz-adv-x="714" unicode="ĺ"/><glyph d="M256 1536h266l-182 -1303h532l-30 -233h-801zM336 -403q-45 16 -66.5 55t-15.5 86q8 63 58 106t114 43q59 0 95 -43t28 -106q-6 -53 -61.5 -136t-118.5 -151h-140z" glyph-name="Lcommaaccent" horiz-adv-x="995" unicode="Ļ"/><glyph d="M57 0l215 1536h258l-215 -1536h-258zM84 -383q-45 16 -66.5 55t-15.5 86q10 63 59.5 106.5t112.5 43.5q61 0 97 -43t26 -107q-6 -53 -61.5 -136t-118.5 -150h-137z" glyph-name="lcommaaccent" horiz-adv-x="714" unicode="ļ"/><glyph d="M883 1245q-43 16 -64.5 56t-15.5 88q10 61 59 105t110.5 44t98.5 -44t27 -105q-6 -55 -62.5 -138.5t-120.5 -150.5h-137zM256 1536h266l-182 -1303h532l-30 -233h-801z" glyph-name="Lcaron" horiz-adv-x="1019" unicode="Ľ"/><glyph d="M764 1257q-41 16 -63.5 56.5t-14.5 87.5q8 61 57.5 105t110.5 44t98 -44t29 -105q-8 -55 -63.5 -139t-118.5 -150h-140zM57 0l215 1536h258l-215 -1536h-258z" glyph-name="lcaron" horiz-adv-x="927" unicode="ľ"/><glyph d="M57 0l215 1536h258l-215 -1536h-258zM623 625q-45 0 -75 32.5t-22 79.5q6 45 45 80t84 35t75 -34t24 -81q-8 -47 -46 -79.5t-85 -32.5z" glyph-name="ldot" horiz-adv-x="780" unicode="ŀ"/><glyph d="M872 233l-30 -233h-801l76 547l-99 -90h-161l284 262l115 817h266l-76 -539l93 84h166l-281 -256l-84 -592h532z" glyph-name="Lslash" horiz-adv-x="995" unicode="Ł"/><glyph d="M717 1083l-283 -258l-4 -4l-115 -821h-258l78 555l-106 -96h-162l293 266l112 811h258l-75 -543l4 4l92 86h166z" glyph-name="lslash" horiz-adv-x="714" unicode="ł"/><glyph d="M1069 1714h-197l222 334h258zM1622 1536l-215 -1536h-266l-676 1128l-158 -1128h-266l215 1536h268l676 -1126l158 1126h264z" glyph-name="Nacute" horiz-adv-x="1632" unicode="Ń"/><glyph d="M795 1202h-197l221 334h258zM809 1141q193 0 287 -108.5t67 -303.5l-102 -729h-279l97 696q14 96 -35 147.5t-152 51.5q-111 0 -201 -59.5t-102 -153.5l-94 -682h-281l158 1126h250l-2 -147q72 74 177.5 118t211.5 44z" glyph-name="nacute" horiz-adv-x="1226" unicode="ń"/><glyph d="M1622 1536l-215 -1536h-266l-676 1128l-158 -1128h-266l215 1536h268l676 -1126l158 1126h264zM649 -360q-43 16 -64.5 55t-15.5 88q10 61 59.5 105t111 44t98 -44t26.5 -105q-8 -55 -63.5 -139t-118.5 -150h-137z" glyph-name="Ncommaaccent" horiz-adv-x="1632" unicode="Ņ"/><glyph d="M809 1141q193 0 287 -108.5t67 -303.5l-102 -729h-279l97 696q14 96 -35 147.5t-152 51.5q-111 0 -201 -59.5t-102 -153.5l-94 -682h-281l158 1126h250l-2 -147q72 74 177.5 118t211.5 44zM406 -395q-41 16 -62.5 55t-15.5 86q8 63 58 106.5t111.5 43.5t97.5 -43t28 -107 q-8 -55 -63.5 -138t-117.5 -149h-139z" glyph-name="ncommaaccent" horiz-adv-x="1226" unicode="ņ"/><glyph d="M829 1698l-163 350h190l125 -233l190 233h191l-264 -350h-269zM1622 1536l-215 -1536h-266l-676 1128l-158 -1128h-266l215 1536h268l676 -1126l158 1126h264z" glyph-name="Ncaron" horiz-adv-x="1632" unicode="Ň"/><glyph d="M555 1186l-162 350h191l123 -233l192 233h191l-267 -350h-268zM809 1141q193 0 287 -108.5t67 -303.5l-102 -729h-279l97 696q14 96 -35 147.5t-152 51.5q-111 0 -201 -59.5t-102 -153.5l-94 -682h-281l158 1126h250l-2 -147q72 74 177.5 118t211.5 44z" glyph-name="ncaron" horiz-adv-x="1226" unicode="ň"/><glyph d="M1640 1536l-233 -1657q-23 -172 -148.5 -253t-312.5 -81l23 172q74 -2 116.5 30t57.5 132l18 133l-680 1102l-155 -1114h-256l215 1536h258l686 -1112l155 1112h256z" glyph-name="Eng" horiz-adv-x="1679" unicode="Ŋ"/><glyph d="M809 1141q193 0 287 -108.5t67 -303.5l-102 -729h-55l-21 -139q-23 -170 -149.5 -252t-313.5 -80l23 172q76 -2 123 29.5t59 130.5l23 153l34 4l95 678q14 96 -35 147.5t-152 51.5q-111 0 -201 -59.5t-102 -153.5l-94 -682h-281l158 1126h250l-2 -147q72 74 177.5 118 t211.5 44z" glyph-name="eng" horiz-adv-x="1265" unicode="ŋ"/><glyph d="M690 1884h635l-22 -164h-635zM739.5 -20q-327.5 0 -507 228t-132.5 560t290 560t570.5 228t507 -228t132 -560t-290 -560t-570 -228zM776 238q223 0 379 150.5t186 379.5q33 231 -79.5 381.5t-335.5 150.5q-225 0 -383 -150.5t-189 -381.5q-33 -229 82 -379.5t340 -150.5 z" glyph-name="Omacron" horiz-adv-x="1669" unicode="Ō"/><glyph d="M377 1372h635l-23 -164h-635zM497.5 -20q-227.5 0 -354.5 153.5t-94 378.5q31 227 201 379.5t397 152.5t354 -153.5t97 -378.5q-33 -225 -203 -378.5t-397.5 -153.5zM528 207q119 0 207 88t107 217q18 131 -45.5 219t-182.5 88q-121 0 -208 -88t-103 -219 q-18 -131 43 -218t182 -87z" glyph-name="omacron" horiz-adv-x="1185" unicode="ō"/><glyph d="M1030 2048h244l-404 -362h-182zM1430 2048h243l-403 -362h-183zM739.5 -20q-327.5 0 -507 228t-132.5 560t290 560t570.5 228t507 -228t132 -560t-290 -560t-570 -228zM776 238q223 0 379 150.5t186 379.5q33 231 -79.5 381.5t-335.5 150.5q-225 0 -383 -150.5 t-189 -381.5q-33 -229 82 -379.5t340 -150.5z" glyph-name="Ohungarumlaut" horiz-adv-x="1669" unicode="Ő"/><glyph d="M717 1536h241l-401 -362h-182zM1114 1536h244l-402 -362h-182zM497.5 -20q-227.5 0 -354.5 153.5t-94 378.5q31 227 201 379.5t397 152.5t354 -153.5t97 -378.5q-33 -225 -203 -378.5t-397.5 -153.5zM528 207q119 0 207 88t107 217q18 131 -45.5 219t-182.5 88 q-121 0 -208 -88t-103 -219q-18 -131 43 -218t182 -87z" glyph-name="ohungarumlaut" horiz-adv-x="1185" unicode="ő"/><glyph d="M2525 1305h-725l-57 -420h637l-33 -234h-639l-59 -418h725l-31 -233h-991l28 201q-256 -219 -571 -219q-328 0 -525.5 230t-152.5 558q31 215 162 396.5t327.5 287t411.5 105.5q313 0 508 -218l27 195h991zM846 238q223 0 400 154.5t206 377.5q33 223 -100 378 t-356.5 155t-399.5 -155t-209 -378q-29 -223 103.5 -377.5t355.5 -154.5z" glyph-name="OE" horiz-adv-x="2654" unicode="Œ"/><glyph d="M1470 1137q240 0 357 -155t80 -415q0 -2 -17 -88h-786q-8 -127 60.5 -201.5t176.5 -74.5q199 0 289 151h225q-47 -152 -188 -258t-358 -106q-250 0 -377 170q-184 -180 -432 -180q-244 0 -379 168.5t-100.5 416.5t218 417t427.5 169q246 0 378 -180q170 166 426 166z M1657 674q2 117 -53.5 181.5t-165.5 64.5q-225 0 -301 -246h520zM535 229q100 0 181 60.5t122 161.5q0 61 8 112q10 61 24 117q-12 100 -75.5 161.5t-163.5 61.5q-129 0 -223.5 -97t-115 -240.5t46.5 -240t196 -96.5z" glyph-name="oe" horiz-adv-x="1941" unicode="œ"/><glyph d="M891 1714h-197l221 334h259zM1212 0h-299l-282 592h-260l-84 -592h-267l216 1536h675q184 0 295 -147.5t84 -337.5q-23 -156 -134.5 -283t-256.5 -160zM799 801q90 0 162.5 72.5t87 179t-36.5 179.5t-142 73h-399l-72 -504h400z" glyph-name="Racute" horiz-adv-x="1239" unicode="Ŕ"/><glyph d="M623 1202h-199l221 334h260zM866 1139l-35 -244q-205 4 -321.5 -82t-144.5 -285l-74 -528h-281l158 1126h260l-6 -170q45 76 157.5 130.5t286.5 52.5z" glyph-name="racute" horiz-adv-x="874" unicode="ŕ"/><glyph d="M1212 0h-299l-282 592h-260l-84 -592h-267l216 1536h675q184 0 295 -147.5t84 -337.5q-23 -156 -134.5 -283t-256.5 -160zM799 801q90 0 162.5 72.5t87 179t-36.5 179.5t-142 73h-399l-72 -504h400zM463 -365q-43 16 -65.5 56.5t-14.5 87.5q8 61 57 105t113 44 q61 0 97 -44t28 -105q-6 -55 -62.5 -138t-119.5 -151h-138z" glyph-name="Rcommaaccent" horiz-adv-x="1239" unicode="Ŗ"/><glyph d="M866 1139l-35 -244q-205 4 -321.5 -82t-144.5 -285l-74 -528h-281l158 1126h260l-6 -170q45 76 157.5 130.5t286.5 52.5zM53 -387q-43 16 -64.5 56t-15.5 87q10 61 59.5 105.5t111 44.5t98.5 -44t26 -106q-6 -55 -61 -138t-119 -150h-139z" glyph-name="rcommaaccent" horiz-adv-x="874" unicode="ŗ"/><glyph d="M651 1698l-162 350h191l123 -233l192 233h191l-266 -350h-269zM1212 0h-299l-282 592h-260l-84 -592h-267l216 1536h675q184 0 295 -147.5t84 -337.5q-23 -156 -134.5 -283t-256.5 -160zM799 801q90 0 162.5 72.5t87 179t-36.5 179.5t-142 73h-399l-72 -504h400z" glyph-name="Rcaron" horiz-adv-x="1239" unicode="Ř"/><glyph d="M387 1186l-164 350h191l125 -233l190 233h191l-265 -350h-268zM866 1139l-35 -244q-205 4 -321.5 -82t-144.5 -285l-74 -528h-281l158 1126h260l-6 -170q45 76 157.5 130.5t286.5 52.5z" glyph-name="rcaron" horiz-adv-x="874" unicode="ř"/><glyph d="M971 2048h258l-283 -334h-196zM561 -20q-244 0 -377 137t-123 358h238q8 -104 80 -176t225 -72q129 0 214 50.5t100 150.5q6 39 -1.5 71.5t-37 61.5t-49 46.5t-77 44t-76 33.5t-89.5 36q-78 31 -123 51.5t-107.5 59t-93.5 77.5t-50 99.5t-9 132.5q29 188 198.5 301.5 t389.5 113.5q477 0 495 -473h-248q4 100 -64.5 175t-205.5 75q-106 0 -191 -49t-98 -133q-6 -43 12.5 -78t68.5 -66.5t87 -48t115 -49.5q209 -88 283 -141q172 -127 143 -336q-31 -217 -209 -334.5t-420 -117.5z" glyph-name="Sacute" horiz-adv-x="1312" unicode="Ś"/><glyph d="M705 1536h260l-283 -334h-197zM457 -16q-221 0 -332 112.5t-105 257.5h238q6 -74 68.5 -123t148.5 -45q174 8 191 138q8 63 -50.5 96t-179.5 63q-78 20 -128 39t-105.5 54.5t-78 91t-11.5 129.5q20 158 157.5 253t333.5 95q168 0 284 -89t107 -257h-237q-8 63 -55.5 97 t-114.5 38q-74 4 -126 -23.5t-61 -81.5q-10 -72 101 -112q29 -10 131 -39q57 -16 98 -31.5t89 -44.5t76 -62.5t43 -86t5 -115.5q-20 -160 -154 -257t-333 -97z" glyph-name="sacute" horiz-adv-x="1005" unicode="ś"/><glyph d="M764 909q209 -88 283 -141q172 -127 143 -336q-29 -207 -190.5 -322.5t-387.5 -127.5l-73 -109q106 18 170.5 -36t50.5 -150q-12 -92 -85 -155.5t-165 -63.5q-74 0 -137.5 41.5t-81.5 101.5l121 43q14 -29 48 -48.5t66 -19.5q41 0 74 30t37 71q10 61 -39 82.5t-131 -11.5 l-86 58l111 168q-211 20 -326 154t-105 337h238q8 -104 80 -176t225 -72q129 0 214 50.5t100 150.5q6 39 -1.5 71.5t-37 61.5t-49 46.5t-77 44t-76 33.5t-89.5 36q-78 31 -123 51.5t-107.5 59t-93.5 77.5t-50 99.5t-9 132.5q29 188 198.5 301.5t389.5 113.5q477 0 495 -473 h-248q4 100 -64.5 175t-205.5 75q-106 0 -191 -49t-98 -133q-6 -43 12.5 -78t68.5 -66.5t87 -48t115 -49.5z" glyph-name="Scedilla" horiz-adv-x="1312" unicode="Ş"/><glyph d="M457 -16q-221 0 -332 112.5t-105 257.5h238q6 -74 68.5 -123t148.5 -45q174 8 191 138q8 63 -50.5 96t-179.5 63q-78 20 -128 39t-105.5 54.5t-78 91t-11.5 129.5q20 158 157.5 253t333.5 95q168 0 284 -89t107 -257h-237q-8 63 -55.5 97t-114.5 38q-74 4 -126 -23.5 t-61 -81.5q-10 -72 101 -112q29 -10 131 -39q57 -16 98 -31.5t89 -44.5t76 -62.5t43 -86t5 -115.5q-20 -160 -154 -257t-333 -97zM481 -18l-73 -111q106 20 170.5 -34t50.5 -150q-12 -92 -85 -155.5t-165 -63.5q-74 0 -137.5 41.5t-79.5 101.5l121 43q12 -29 44.5 -48.5 t67.5 -19.5q41 0 74 30t37 71q10 61 -39 81.5t-131 -12.5l-86 58l110 170z" glyph-name="scedilla" horiz-adv-x="1005" unicode="ş"/><glyph d="M543 2048h190l125 -233l191 233h190l-264 -350h-268zM561 -20q-244 0 -377 137t-123 358h238q8 -104 80 -176t225 -72q129 0 214 50.5t100 150.5q6 39 -1.5 71.5t-37 61.5t-49 46.5t-77 44t-76 33.5t-89.5 36q-78 31 -123 51.5t-107.5 59t-93.5 77.5t-50 99.5t-9 132.5 q29 188 198.5 301.5t389.5 113.5q477 0 495 -473h-248q4 100 -64.5 175t-205.5 75q-106 0 -191 -49t-98 -133q-6 -43 12.5 -78t68.5 -66.5t87 -48t115 -49.5q209 -88 283 -141q172 -127 143 -336q-31 -217 -209 -334.5t-420 -117.5z" glyph-name="Scaron" horiz-adv-x="1312" unicode="Š"/><glyph d="M279 1536h190l125 -233l190 233h191l-264 -350h-269zM457 -16q-221 0 -332 112.5t-105 257.5h238q6 -74 68.5 -123t148.5 -45q174 8 191 138q8 63 -50.5 96t-179.5 63q-78 20 -128 39t-105.5 54.5t-78 91t-11.5 129.5q20 158 157.5 253t333.5 95q168 0 284 -89t107 -257 h-237q-8 63 -55.5 97t-114.5 38q-74 4 -126 -23.5t-61 -81.5q-10 -72 101 -112q29 -10 131 -39q57 -16 98 -31.5t89 -44.5t76 -62.5t43 -86t5 -115.5q-20 -160 -154 -257t-333 -97z" glyph-name="scaron" horiz-adv-x="1005" unicode="š"/><glyph d="M160 1536h1153l-33 -231h-442l-185 -1305h-51l-86 -129q106 20 170 -34t49 -150q-12 -92 -84.5 -155.5t-163.5 -63.5q-76 0 -138 41.5t-81 101.5l121 43q14 -29 47 -48.5t68 -19.5q41 0 72.5 30t37.5 71q10 61 -40 81.5t-132 -12.5l-86 58l125 186h-90l182 1305h-444z " glyph-name="Tcommaaccent" horiz-adv-x="1230" unicode="Ţ"/><glyph d="M565 -2q-100 0 -164.5 10t-124 45t-80 110t-3.5 193l77 553h-186l31 221h186l57 406h260l-57 -406h291l-29 -221h-295l-75 -532q-10 -84 23.5 -119t119.5 -35h137l-33 -225h-135zM375 -129q106 20 170.5 -34t50.5 -150q-12 -92 -85 -155.5t-165 -63.5q-74 0 -137.5 41.5 t-81.5 101.5l121 43q14 -29 47 -48.5t67 -19.5q41 0 74 30t37 71q10 61 -39 81.5t-131 -12.5l-86 58l123 186l109 -14z" glyph-name="tcommaaccent" horiz-adv-x="761" unicode="ţ"/><glyph d="M657 1698l-163 350h190l125 -233l190 233h191l-264 -350h-269zM1280 1305h-442l-185 -1305h-262l182 1305h-444l31 231h1153z" glyph-name="Tcaron" horiz-adv-x="1210" unicode="Ť"/><glyph d="M776 1305q-92 37 -82 143q10 61 60.5 105t112 44t97 -44t25.5 -105q-6 -55 -61.5 -138t-118.5 -151h-137zM565 -2q-100 0 -164.5 10t-124 45t-80 110t-3.5 193l77 553h-186l31 221h186l57 406h260l-57 -406h291l-29 -221h-295l-75 -532q-10 -84 23.5 -119t119.5 -35h137 l-33 -225h-135z" glyph-name="tcaron" horiz-adv-x="847" unicode="ť"/><glyph d="M1280 1305h-442l-66 -461h74l141 -25l-106 -127h-129l-99 -692h-262l98 707l-180 12l72 125h129l63 461h-444l31 231h1153z" glyph-name="Tbar" horiz-adv-x="1155" unicode="Ŧ"/><glyph d="M823 909h-295l-45 -321h219l-20 -152h-221l-8 -59q-10 -84 23.5 -119t119.5 -35h137l-33 -225h-135q-100 0 -164.5 10t-124 45t-80 110t-3.5 193l10 80h-187l21 152h188l45 321h-186l31 221h186l57 406h260l-57 -406h291z" glyph-name="tbar" horiz-adv-x="761" unicode="ŧ"/><glyph d="M1032 1688q-121 0 -184 116q-25 45 -64 45t-59 -42t-12 -103h-154q-8 127 63.5 211t176.5 84q125 0 188 -117q18 -45 62 -45q41 0 61 40t12 103h152q8 -125 -61.5 -208.5t-180.5 -83.5zM635 -20q-258 0 -415 150.5t-126 367.5l146 1038h266l-139 -991 q-18 -139 69.5 -235.5t231.5 -96.5q145 0 262 97.5t137 234.5l139 991h267l-146 -1038q-31 -217 -233.5 -367.5t-458.5 -150.5z" glyph-name="Utilde" horiz-adv-x="1503" unicode="Ũ"/><glyph d="M606 1884h635l-22 -164h-635zM635 -20q-258 0 -415 150.5t-126 367.5l146 1038h266l-139 -991q-18 -139 69.5 -235.5t231.5 -96.5q145 0 262 97.5t137 234.5l139 991h267l-146 -1038q-31 -217 -233.5 -367.5t-458.5 -150.5z" glyph-name="Umacron" horiz-adv-x="1503" unicode="Ū"/><glyph d="M1014 1208h-635l22 164h635zM1237 1126l-158 -1126h-250l2 152q-72 -76 -177 -119t-210 -43q-186 0 -286.5 120.5t-73.5 309.5l100 706h281l-94 -673q-16 -98 34 -157.5t150 -59.5q109 0 202 61t105 156l94 673h281z" glyph-name="umacron" horiz-adv-x="1232" unicode="ū"/><glyph d="M891 1647q-96 0 -154.5 67.5t-44.5 163.5q14 92 91 159.5t171.5 67.5t151.5 -67.5t43 -159.5q-12 -94 -88 -162.5t-170 -68.5zM905 1757q51 0 90 34t47 87q6 49 -23.5 85t-78.5 36q-51 0 -90 -36t-45 -85q-8 -53 21.5 -87t78.5 -34zM635 -20q-258 0 -415 150.5 t-126 367.5l146 1038h266l-139 -991q-18 -139 69.5 -235.5t231.5 -96.5q145 0 262 97.5t137 234.5l139 991h267l-146 -1038q-31 -217 -233.5 -367.5t-458.5 -150.5z" glyph-name="Uring" horiz-adv-x="1503" unicode="Ů"/><glyph d="M686 1135q-96 0 -153.5 67.5t-45.5 163.5q14 92 91 159.5t171.5 67.5t151.5 -67.5t45 -159.5q-14 -96 -90 -163.5t-170 -67.5zM735 1487q-51 0 -90 -36t-45 -85q-8 -53 21.5 -87t80.5 -34q49 0 88 34t48 87q6 49 -24 85t-79 36zM1237 1126l-158 -1126h-250l2 152 q-72 -76 -177 -119t-210 -43q-186 0 -286.5 120.5t-73.5 309.5l100 706h281l-94 -673q-16 -98 34 -157.5t150 -59.5q109 0 202 61t105 156l94 673h281z" glyph-name="uring" horiz-adv-x="1232" unicode="ů"/><glyph d="M946 2048h244l-404 -362h-182zM1346 2048h243l-403 -362h-182zM635 -20q-258 0 -415 150.5t-126 367.5l146 1038h266l-139 -991q-18 -139 69.5 -235.5t231.5 -96.5q145 0 262 97.5t137 234.5l139 991h267l-146 -1038q-31 -217 -233.5 -367.5t-458.5 -150.5z" glyph-name="Uhungarumlaut" horiz-adv-x="1503" unicode="Ű"/><glyph d="M582 1174h-183l342 362h244zM799 1174l342 362h243l-403 -362h-182zM1237 1126l-158 -1126h-250l2 152q-72 -76 -177 -119t-210 -43q-186 0 -286.5 120.5t-73.5 309.5l100 706h281l-94 -673q-16 -98 34 -157.5t150 -59.5q109 0 202 61t105 156l94 673h281z" glyph-name="uhungarumlaut" horiz-adv-x="1232" unicode="ű"/><glyph d="M1206 1536h267l-146 -1038q-27 -195 -196.5 -339.5t-397.5 -172.5h2q-88 -37 -152.5 -112t-74.5 -148q-6 -55 21.5 -88t86.5 -33q53 0 109.5 28.5t93.5 73.5l66 -115q-145 -127 -332 -116q-113 6 -174.5 64.5t-44.5 164.5q23 172 227 279q-229 23 -362 168t-105 346 l146 1038h266l-139 -991q-18 -139 69.5 -235.5t231.5 -96.5q145 0 262 97.5t137 234.5z" glyph-name="Uogonek" horiz-adv-x="1503" unicode="Ų"/><glyph d="M1008 0q-127 -8 -222.5 -96t-107.5 -185q-8 -55 20.5 -87.5t85.5 -32.5q55 0 110.5 28.5t92.5 73.5l66 -115q-147 -129 -330 -116q-113 6 -174.5 63t-48.5 164q33 197 276 303h53l2 152q-72 -76 -177 -119t-210 -43q-186 0 -286.5 120.5t-73.5 309.5l100 706h281 l-94 -673q-16 -98 34 -157.5t150 -59.5q109 0 202 61t105 156l94 673h281l-158 -1126h-71z" glyph-name="uogonek" horiz-adv-x="1232" unicode="ų"/><glyph d="M1163 1698h-198l262 350h268l166 -350h-199l-116 235zM2376 1536l-656 -1536h-293l-215 1083l-489 -1083h-293l-258 1536h289l164 -1241l520 1241h264l199 -1243l481 1243h287z" glyph-name="Wcircumflex" horiz-adv-x="2332" unicode="Ŵ"/><glyph d="M717 1186h-199l262 350h269l165 -350h-198l-117 235zM1774 1124l-510 -1124h-318l-80 596l-245 -596h-316l-199 1124h316l94 -798l313 798h244l84 -800l303 800h314z" glyph-name="wcircumflex" horiz-adv-x="1568" unicode="ŵ"/><glyph d="M682 1698h-199l262 350h269l166 -350h-199l-117 235zM827 727l-102 -727h-264l100 723l-424 813h297l291 -586l459 586h293z" glyph-name="Ycircumflex" horiz-adv-x="1368" unicode="Ŷ"/><glyph d="M528 1186h-198l262 350h268l166 -350h-199l-116 235zM1292 1126l-909 -1679h-254l342 631h-61l-285 1048h276l215 -772l408 772h268z" glyph-name="ycircumflex" horiz-adv-x="1234" unicode="ŷ"/><glyph d="M621 1702q-63 0 -101.5 44t-30.5 107q10 61 60.5 105.5t114.5 44.5q61 0 99 -44t30 -106q-8 -63 -59.5 -107t-112.5 -44zM1044.5 1702q-61.5 0 -100.5 44t-31 107q10 61 61.5 105.5t113 44.5t99.5 -44t30 -106q-8 -63 -59.5 -107t-113 -44zM827 727l-102 -727h-264 l100 723l-424 813h297l291 -586l459 586h293z" glyph-name="Ydieresis" horiz-adv-x="1368" unicode="Ÿ"/><glyph d="M932 1714h-199l221 334h260zM1184 233l-33 -233h-1169l18 141l965 1164h-779l31 231h1137l-19 -141l-964 -1162h813z" glyph-name="Zacute" horiz-adv-x="1320" unicode="Ź"/><glyph d="M750 1536h260l-283 -334h-197zM23 186l641 627h-549l30 211h877l-25 -182l-647 -631h565l-28 -211h-891z" glyph-name="zacute" horiz-adv-x="1067" unicode="ź"/><glyph d="M827 1702q-61 0 -99 44t-30 107q8 61 59.5 105.5t113 44.5t99.5 -44t29 -106q-8 -63 -58.5 -107t-113.5 -44zM1184 233l-33 -233h-1169l18 141l965 1164h-779l31 231h1137l-19 -141l-964 -1162h813z" glyph-name="Zdotaccent" horiz-adv-x="1320" unicode="Ż"/><glyph d="M625 1190q-63 0 -101.5 44t-29.5 107q8 61 59 105.5t113 44.5q63 0 101 -44t28 -106q-8 -63 -58.5 -107t-111.5 -44zM23 186l641 627h-549l30 211h877l-25 -182l-647 -631h565l-28 -211h-891z" glyph-name="zdotaccent" horiz-adv-x="1067" unicode="ż"/><glyph d="M690 1698l-164 350h191l125 -233l190 233h191l-265 -350h-268zM1184 233l-33 -233h-1169l18 141l965 1164h-779l31 231h1137l-19 -141l-964 -1162h813z" glyph-name="Zcaron" horiz-adv-x="1320" unicode="Ž"/><glyph d="M324 1536h190l125 -233l190 233h191l-264 -350h-269zM23 186l641 627h-549l30 211h877l-25 -182l-647 -631h565l-28 -211h-891z" glyph-name="zcaron" horiz-adv-x="1067" unicode="ž"/><glyph d="M885 1372q-78 0 -138.5 -50t-84.5 -136l-50 -162h279l-55 -195h-281l-403 -1341h-232l402 1341h-170l57 195h172l57 197q43 143 173 239t276 96q102 0 143 -36l-47 -181q-32 33 -98 33z" glyph-name="florin" horiz-adv-x="950" unicode="ƒ"/><glyph d="M791 1698l-164 350h190l125 -233l191 233h190l-264 -350h-268zM1079 334h-692l-172 -334h-289l832 1536h297l401 -1536h-287zM1034 565l-166 701l-368 -701h534z" glyph-name="uni01CD" horiz-adv-x="1558" unicode="Ǎ"/><glyph d="M471 1186l-164 350h191l125 -233l190 233h191l-265 -350h-268zM336 -14q-164 0 -253 89t-69 244q20 152 160.5 246t351.5 111l242 20l4 25q27 201 -176 201q-96 0 -168 -47.5t-94 -143.5h-232q37 174 169 290t362 116q211 0 317.5 -106.5t75.5 -313.5q-23 -172 -51 -369 q-20 -141 67 -141l-28 -207h-76q-61 2 -96 8t-74 36t-53 83q-55 -63 -159.5 -102t-219.5 -39zM432 193q84 0 163 43t124 104l22 174l-190 -20q-246 -29 -264 -162q-8 -63 33.5 -101t111.5 -38z" glyph-name="uni01CE" horiz-adv-x="1132" unicode="ǎ"/><glyph d="M109 2048h192l125 -233l190 233h191l-264 -350h-269zM256 1536h266l-215 -1536h-266z" glyph-name="uni01CF" horiz-adv-x="532" unicode="Ǐ"/><glyph d="M35 1536h192l125 -233l191 233h190l-264 -350h-268zM184 1024h258l-143 -1024h-258z" glyph-name="uni01D0" horiz-adv-x="524" unicode="ǐ"/><glyph d="M682 2048h190l125 -233l191 233h190l-264 -350h-268zM739.5 -20q-327.5 0 -507 228t-132.5 560t290 560t570.5 228t507 -228t132 -560t-290 -560t-570 -228zM776 238q223 0 379 150.5t186 379.5q33 231 -79.5 381.5t-335.5 150.5q-225 0 -383 -150.5t-189 -381.5 q-33 -229 82 -379.5t340 -150.5z" glyph-name="uni01D1" horiz-adv-x="1669" unicode="Ǒ"/><glyph d="M369 1536h190l125 -233l190 233h191l-264 -350h-269zM497.5 -20q-227.5 0 -354.5 153.5t-94 378.5q31 227 201 379.5t397 152.5t354 -153.5t97 -378.5q-33 -225 -203 -378.5t-397.5 -153.5zM528 207q119 0 207 88t107 217q18 131 -45.5 219t-182.5 88q-121 0 -208 -88 t-103 -219q-18 -131 43 -218t182 -87z" glyph-name="uni01D2" horiz-adv-x="1185" unicode="ǒ"/><glyph d="M598 2048h190l125 -233l191 233h190l-264 -350h-268zM655 -20q-258 0 -414.5 150.5t-125.5 367.5l145 1038h268l-141 -991q-18 -139 70 -235.5t231 -96.5q145 0 260 96.5t133 235.5l140 991h266l-146 -1038q-31 -217 -230.5 -367.5t-455.5 -150.5z" glyph-name="uni01D3" horiz-adv-x="1503" unicode="Ǔ"/><glyph d="M557 1186l-162 350h191l123 -233l192 233h191l-267 -350h-268zM1237 1126l-158 -1126h-250l2 152q-72 -76 -177 -119t-210 -43q-186 0 -286.5 120.5t-73.5 309.5l100 706h281l-94 -673q-16 -98 34 -157.5t150 -59.5q109 0 202 61t105 156l94 673h281z" glyph-name="uni01D4" horiz-adv-x="1232" unicode="ǔ"/><glyph d="M864 1698l-164 350h191l125 -233l190 233h191l-264 -350h-269zM1499 809l-37 -262l-76 -547h-178l-10 205q-98 -113 -220 -164t-292 -51q-328 0 -495.5 215t-118.5 557q49 350 275 566t544 216q274 0 442 -134t162 -390h-256q-8 131 -107.5 207t-248.5 76 q-233 0 -382 -144.5t-184 -396.5q-33 -238 85 -384.5t315 -146.5q193 0 326 95.5t155 257.5h-385l33 225h653z" glyph-name="Gcaron" horiz-adv-x="1509" unicode="Ǧ"/><glyph d="M528 1186l-163 350h190l125 -233l190 233h191l-264 -350h-269zM414 -508q-225 -4 -348 78t-125 213q-2 78 44 166t132 131q-45 16 -74 65.5t-20 106.5q18 125 178 205q-45 49 -70 128t-12 167q25 160 171 274.5t347 114.5q72 0 153.5 -21.5t122.5 -56.5q33 76 125 117 t160 26q-8 -43 -24 -174q-47 14 -95.5 -2t-72.5 -63q72 -125 57 -230q-27 -182 -177.5 -297.5t-353.5 -120.5q-135 -6 -210 41q-35 -12 -54.5 -35.5t-13.5 -45.5q12 -63 149 -66l224 -2q180 -4 280.5 -77t98.5 -206q-8 -203 -170 -316.5t-422 -119.5zM803 739 q12 84 -43 133.5t-154 49.5q-96 0 -163.5 -50.5t-80 -134.5t42 -136t148.5 -52q98 0 168 52t82 138zM745 -119q6 68 -66.5 94.5t-197.5 26.5h-176q-47 -12 -78.5 -52t-38.5 -85q-10 -74 54.5 -115t181.5 -41q141 0 230 47t91 125z" glyph-name="gcaron" horiz-adv-x="1234" unicode="ǧ"/><glyph d="M1085 1714h-196l219 334h260zM1423 1378q109 -111 156 -269.5t20 -340.5q-47 -332 -289.5 -560t-570.5 -228q-215 0 -362 100l-109 -135h-164l172 213q-109 109 -154.5 267.5t-21.5 342.5q47 332 290 560t571 228q207 0 364 -100l107 133h161zM354 768q-35 -246 97 -395 l702 870q-96 57 -227 57q-225 0 -383 -150.5t-189 -381.5zM776 238q223 0 379 150.5t186 379.5q35 248 -90 395l-702 -870q92 -55 227 -55z" glyph-name="Oslashacute" horiz-adv-x="1669" unicode="Ǿ"/><glyph d="M772 1202h-199l222 334h260zM965 930q168 -156 133 -418q-33 -225 -203 -378.5t-397 -153.5q-139 0 -248 63l-88 -111h-115l131 162q-166 158 -129 418q31 227 201 379.5t397 152.5q141 0 246 -63l90 111h115zM303 512q-18 -127 39 -213l395 485q-53 35 -123 35 q-121 0 -208 -88t-103 -219zM528 207q119 0 207 88t107 217q18 125 -41 213l-393 -487q52 -31 120 -31z" glyph-name="oslashacute" horiz-adv-x="1185" unicode="ǿ"/><glyph d="M561 -20q-244 0 -377 137t-123 358h238q8 -104 80 -176t225 -72q129 0 214 50.5t100 150.5q6 39 -1.5 71.5t-37 61.5t-49 46.5t-77 44t-76 33.5t-89.5 36q-78 31 -123 51.5t-107.5 59t-93.5 77.5t-50 99.5t-9 132.5q29 188 198.5 301.5t389.5 113.5q477 0 495 -473h-248 q4 100 -64.5 175t-205.5 75q-106 0 -191 -49t-98 -133q-6 -43 12.5 -78t68.5 -66.5t87 -48t115 -49.5q209 -88 283 -141q172 -127 143 -336q-31 -217 -209 -334.5t-420 -117.5zM467 -442q-41 16 -63.5 55t-16.5 86q8 63 58.5 106t111.5 43t97 -43t28 -106q-6 -53 -61.5 -136 t-118.5 -151h-140z" glyph-name="Scommaaccent" horiz-adv-x="1312" unicode="Ș"/><glyph d="M457 -16q-221 0 -332 112.5t-105 257.5h238q6 -74 68.5 -123t148.5 -45q174 8 191 138q8 63 -50.5 96t-179.5 63q-78 20 -128 39t-105.5 54.5t-78 91t-11.5 129.5q20 158 157.5 253t333.5 95q168 0 284 -89t107 -257h-237q-8 63 -55.5 97t-114.5 38q-74 4 -126 -23.5 t-61 -81.5q-10 -72 101 -112q29 -10 131 -39q57 -16 98 -31.5t89 -44.5t76 -62.5t43 -86t5 -115.5q-20 -160 -154 -257t-333 -97zM319 -440q-43 16 -64.5 55t-12.5 86q8 63 57 106t113 43q59 0 96 -43t29 -106q-8 -53 -63.5 -137t-119.5 -150h-139z" glyph-name="scommaaccent" horiz-adv-x="1005" unicode="ș"/><glyph d="M1280 1305h-442l-185 -1305h-262l182 1305h-444l31 231h1153zM432 -428q-41 16 -63.5 56t-14.5 87q8 61 57.5 105.5t112.5 44.5q59 0 96 -44t29 -106q-8 -55 -63.5 -139t-118.5 -149h-139z" glyph-name="uni021A" horiz-adv-x="1155" unicode="Ț"/><glyph d="M565 -2q-100 0 -164.5 10t-124 45t-80 110t-3.5 193l77 553h-186l31 221h186l57 406h260l-57 -406h291l-29 -221h-295l-75 -532q-10 -84 23.5 -119t119.5 -35h137l-33 -225h-135zM244 -430q-41 16 -63.5 56t-14.5 87q8 61 57 105.5t113 44.5q59 0 96 -44t29 -106 q-8 -55 -63.5 -139t-118.5 -149h-140z" glyph-name="uni021B" horiz-adv-x="761" unicode="ț"/><glyph d="M1200 1305h-725l-59 -420h639l-35 -234h-637l-59 -418h725l-33 -233h-469l-88 -129q106 20 170.5 -34t50.5 -150q-12 -92 -85 -155.5t-165 -63.5q-74 0 -137.5 41.5t-79.5 101.5l121 43q12 -29 45 -48.5t67 -19.5q41 0 74 30t37 71q10 61 -39 81.5t-131 -12.5l-86 58 l125 186h-401l215 1536h991z" glyph-name="uni0228" horiz-adv-x="1105" unicode="Ȩ"/><glyph d="M659 1137q240 0 357 -155t80 -415q0 -2 -17 -88h-786q-8 -127 60.5 -201.5t176.5 -74.5q199 0 289 151h225q-43 -141 -171 -245.5t-324 -116.5q0 -2 -1 -5t-1 -5l-76 -111q106 18 170 -36t49 -150q-12 -92 -83.5 -156t-164.5 -64q-74 0 -137 42t-82 102l119 43 q16 -29 50 -48.5t67 -19.5q41 0 72.5 30t37.5 71q8 61 -41 82.5t-131 -11.5l-86 58l113 170v10q-209 27 -315.5 184.5t-73.5 384.5q37 254 203.5 414t420.5 160zM846 674q2 117 -53.5 181.5t-165.5 64.5q-225 0 -301 -246h520z" glyph-name="uni0229" horiz-adv-x="1122" unicode="ȩ"/><glyph d="M-90 -532q-98 0 -141 32l30 217q45 -39 111 -39q57 0 102 44.5t54 107.5l167 1194h259l-170 -1210q-20 -145 -140 -245.5t-272 -100.5z" glyph-name="uni0237" horiz-adv-x="606" unicode="ȷ"/><glyph d="M375 1536h268l166 -350h-199l-116 235l-183 -235h-198z" glyph-name="circumflex" horiz-adv-x="63" unicode="ˆ"/><glyph d="M162 1536h190l125 -233l191 233h190l-264 -350h-268z" glyph-name="caron" horiz-adv-x="63" unicode="ˇ"/><glyph d="M655 1147q-160 0 -244.5 89t-62.5 251h150q-10 -76 40 -133.5t140 -57.5q92 0 158.5 57.5t76.5 133.5h150q-23 -162 -133.5 -251t-274.5 -89z" glyph-name="breve" horiz-adv-x="63" unicode="˘"/><glyph d="M387 1190q-61 0 -99 44t-30 107q8 61 59.5 105.5t113 44.5t99 -44t29.5 -106q-8 -63 -58.5 -107t-113.5 -44z" glyph-name="dotaccent" horiz-adv-x="63" unicode="˙"/><glyph d="M250 1135q-94 0 -152.5 67.5t-46.5 163.5q14 92 91 159.5t173 67.5q92 0 149.5 -67.5t45.5 -159.5q-14 -96 -90 -163.5t-170 -67.5zM266 1245q49 0 88 34t47 87q8 49 -21.5 85t-80.5 36q-49 0 -88 -36t-47 -85q-8 -53 21.5 -87t80.5 -34z" glyph-name="ring" horiz-adv-x="63" unicode="˚"/><glyph d="M88 -530q-113 6 -175.5 63t-49.5 164q16 113 117.5 202t275.5 140l117 -39q-127 -8 -222.5 -96t-109.5 -185q-8 -55 20.5 -87.5t88.5 -32.5q55 0 110 28.5t92 73.5l66 -115q-148 -128 -330 -116z" glyph-name="ogonek" horiz-adv-x="63" unicode="˛"/><glyph d="M600 1237q-121 0 -184 117q-25 45 -64 45t-59.5 -42t-11.5 -104h-152q-8 127 62.5 211t175.5 84q125 0 188 -116q18 -45 61 -46q41 0 61.5 40t12.5 104h152q8 -125 -61.5 -209t-180.5 -84z" glyph-name="tilde" horiz-adv-x="65" unicode="˜"/><glyph d="M453 1536h243l-403 -362h-182zM852 1536h244l-404 -362h-182z" glyph-name="hungarumlaut" horiz-adv-x="63" unicode="˝"/><glyph d="M-350 1536h260l129 -334h-197z" glyph-name="gravecomb" unicode="̀"/><glyph d="M-176 1536h260l-283 -334h-198z" glyph-name="acutecomb" unicode="́"/><glyph d="M-399 1536h268l168 -350h-201l-117 235l-182 -235h-196z" glyph-name="uni0302" unicode="̂"/><glyph d="M-166 1237q-121 0 -184 117q-25 45 -64 45t-59.5 -42t-11.5 -104h-152q-8 127 62.5 211t175.5 84q125 0 188 -116q18 -45 61 -46q41 0 61.5 40t12.5 104h152q8 -125 -61.5 -209t-180.5 -84z" glyph-name="tildecomb" unicode="̃"/><glyph d="M-571 1372h634l-22 -164h-635z" glyph-name="uni0304" unicode="̄"/><glyph d="M-620.5 1147q-161.5 0 -246.5 89t-63 251h150q-10 -76 40 -133.5t140 -57.5q94 0 160.5 56.5t77.5 134.5h149q-25 -162 -135.5 -251t-272 -89z" glyph-name="uni0306" unicode="̆"/><glyph d="M-238 1190q-63 0 -101 44t-30 107q10 61 60.5 105.5t113.5 44.5q61 0 99.5 -44t29.5 -106q-8 -63 -59.5 -107t-112.5 -44z" glyph-name="uni0307" unicode="̇"/><glyph d="M-604 1190q-61 0 -99 44t-30 107q8 61 59 105.5t112.5 44.5t99.5 -44t30 -106q-8 -63 -58.5 -107t-113.5 -44zM-178.5 1190q-61.5 0 -100 44t-30.5 107q8 61 59 105.5t113 44.5q63 0 101 -44t28 -106q-8 -63 -58.5 -107t-112 -44z" glyph-name="uni0308" unicode="̈"/><glyph d="M-113 1135q-96 0 -154.5 67.5t-43.5 163.5q12 92 90 159.5t172 67.5t151.5 -67.5t44.5 -159.5q-14 -96 -90 -163.5t-170 -67.5zM-96 1245q49 0 88 34t47 87q8 49 -21.5 85t-81 36t-90.5 -36t-45 -85q-8 -53 22 -87t81 -34z" glyph-name="uni030A" unicode="̊"/><glyph d="M-559 1536h244l-404 -362h-182zM-160 1536h244l-403 -362h-183z" glyph-name="uni030B" unicode="̋"/><glyph d="M-610 1536h190l123 -233l193 233h190l-266 -350h-269z" glyph-name="uni030C" unicode="̌"/><glyph d="M-170 1356q43 -16 65.5 -56t14.5 -88q-8 -61 -57.5 -105t-112.5 -44q-61 0 -97 44t-28 105q6 55 62.5 138.5t119.5 150.5h137z" glyph-name="uni0312" unicode="̒"/><glyph d="M-356 -512q-61 0 -99.5 44t-29.5 108q10 61 60 105t114 44q61 0 99 -44t30 -105q-8 -63 -59.5 -107.5t-114.5 -44.5z" glyph-name="dotbelowcomb" unicode="̣"/><glyph d="M-373 2q-45 14 -66.5 54t-13.5 87q8 61 57.5 105.5t112.5 44.5q61 0 97 -43t28 -107q-8 -55 -63 -139t-119 -149h-137z" glyph-name="uni0326" unicode="̦"/><glyph d="M-424 -532q-74 0 -137.5 41.5t-81.5 101.5l121 43q14 -29 47 -48.5t67 -19.5q41 0 74 30t37 71q10 61 -39 81.5t-131 -12.5l-86 58l123 186h123l-88 -129q106 20 170.5 -34t50.5 -150q-12 -92 -85 -155.5t-165 -63.5z" glyph-name="uni0327" unicode="̧"/><glyph d="M-518 -530q-113 6 -175.5 63t-47.5 164q16 115 116.5 204t276.5 138l117 -39q-127 -8 -223.5 -96t-108.5 -185q-8 -55 20.5 -87.5t85.5 -32.5q55 0 110.5 28.5t92.5 73.5l66 -115q-148 -128 -330 -116z" glyph-name="uni0328" unicode="̨"/><glyph d="M-999 598h665l-22 -152h-666z" glyph-name="uni0335" unicode="̵"/><glyph d="M-1552 584h1503l-17 -103h-1501z" glyph-name="uni0336" unicode="̶"/><glyph d="M-342 834h168l-686 -625h-160z" glyph-name="uni0337" unicode="̷"/><glyph d="M-47 1591h162l-1325 -1644h-166z" glyph-name="uni0338" unicode="̸"/><glyph d="M-12 141l792 1411h291l383 -1409l-18 -143h-1467zM1188 211l-203 721q-6 27 -45 186.5t-47 212.5h-19q-12 -29 -44.5 -92t-75.5 -145t-66 -125l-430 -758h930z" glyph-name="Delta" horiz-adv-x="1589" unicode="Δ"/><glyph d="M1163 0l-303 1239l-651 -1239h-289l834 1536h297l401 -1536h-289z" glyph-name="Lambda" horiz-adv-x="1558" unicode="Λ"/><glyph d="M262 1536h905l-30 -231h-906zM289 885h672l-33 -234h-672zM80 233h905l-33 -233h-905z" glyph-name="Xi" horiz-adv-x="1208" unicode="Ξ"/><glyph d="M35 186h301l2 11q-96 96 -152.5 262t-29.5 358q45 311 285.5 518t570.5 207q225 0 382.5 -102.5t222 -266t38.5 -354.5q-27 -188 -129.5 -356t-229.5 -266l-2 -11h305l-24 -186h-629l19 139q160 80 283.5 247t156.5 390q33 240 -76.5 409t-339.5 169q-227 0 -392 -164 t-200 -414q-33 -219 47 -391t215 -246l-20 -139h-629z" glyph-name="Omega" horiz-adv-x="1769" unicode="Ω"/><glyph d="M956 1126h281l-158 -1126h-250l2 152q-72 -76 -177 -119t-210 -43q-113 0 -200 49l-80 -551h-189l111 780q-14 78 -2 152l100 706h281l-94 -673q-16 -98 34 -157.5t150 -59.5q109 0 202 61t105 156z" glyph-name="mu" horiz-adv-x="1286" unicode="μ"/><glyph d="M47 0q86 174 172 450.5t121 487.5q-172 0 -268 -27q8 29 21 73t16.5 56.5t15.5 38t16 27.5t20.5 14.5t28 10t40 1t53 0t71.5 -4.5t92 -1h1010l-47 -188h-188l-84 -598q-31 -225 -15 -340h-233q-31 61 6 319l86 619h-403q-39 -217 -127.5 -507t-167.5 -431h-236z" glyph-name="pi" horiz-adv-x="1425" unicode="π"/><glyph d="M995 797q129 -37 194.5 -136.5t45.5 -246.5q-25 -188 -167 -301t-331 -113h-719l215 1536h625q190 0 301 -114.5t86 -303.5q-18 -115 -86 -197.5t-164 -123.5zM975 1092q14 86 -39 149.5t-141 63.5h-328l-59 -408h329q90 0 158 54.5t80 140.5zM731 233q88 0 160 63.5 t84 149.5q12 90 -40 162t-140 72h-418l-62 -447h416zM547 -115q61 0 99 -44t30 -105q-8 -63 -59.5 -107.5t-112.5 -44.5q-63 0 -101 44t-30 108q10 61 60.5 105t113.5 44z" glyph-name="uni1E04" horiz-adv-x="1333" unicode="Ḅ"/><glyph d="M776 1137q227 0 349 -164t87.5 -410t-202.5 -409.5t-396 -163.5q-215 0 -325 153l-37 -143l-242 2l215 1536h277l-74 -539q141 138 348 138zM596 229q129 0 224 96.5t116 237.5q20 143 -47.5 239.5t-198.5 96.5q-96 0 -181 -61.5t-128 -159.5l-31 -227q14 -100 81 -161 t165 -61zM514 -115q61 0 99 -44t30 -105q-8 -63 -59.5 -107.5t-112.5 -44.5q-63 0 -101 44t-30 108q10 61 60.5 105t113.5 44z" glyph-name="uni1E05" horiz-adv-x="1232" unicode="ḅ"/><glyph d="M1503 1536l-215 -1536h-266l90 651h-713l-92 -651h-266l215 1536h266l-90 -649h715l90 649h266zM651 -115q63 0 101.5 -44t27.5 -105q-8 -63 -58 -107.5t-112 -44.5q-63 0 -101 44t-30 108q8 61 59.5 105t112.5 44z" glyph-name="uni1E24" horiz-adv-x="1513" unicode="Ḥ"/><glyph d="M825 1137q195 0 290 -108.5t69 -301.5l-103 -727h-280l98 692q12 96 -37 147.5t-151 51.5q-111 0 -202 -59.5t-103 -155.5l-95 -676h-280l215 1536h280l-77 -547q72 68 174 108t202 40zM498 -115q61 0 99 -44t30 -105q-8 -63 -59.5 -107.5t-113 -44.5t-100.5 44t-30 108 q10 61 60.5 105t113.5 44z" glyph-name="uni1E25" horiz-adv-x="1226" unicode="ḥ"/><glyph d="M256 1536h266l-182 -1303h532l-30 -233h-801zM385 -416q-63 0 -101 44t-30 108q8 61 59.5 105t112.5 44q63 0 101 -44t28 -105q-8 -63 -58.5 -107.5t-111.5 -44.5z" glyph-name="uni1E36" horiz-adv-x="995" unicode="Ḷ"/><glyph d="M57 0l215 1536h258l-215 -1536h-258zM131 -416q-63 0 -101 44t-30 108q10 61 60.5 105t113.5 44q61 0 99 -44t30 -105q-8 -63 -59.5 -107.5t-112.5 -44.5z" glyph-name="uni1E37" horiz-adv-x="714" unicode="ḷ"/><glyph d="M967 1702q-63 0 -101.5 44t-29.5 107q10 61 60 105.5t114 44.5q61 0 99 -44t30 -106q-8 -63 -59.5 -107t-112.5 -44zM1622 1536l-215 -1536h-266l-676 1128l-158 -1128h-266l215 1536h268l676 -1126l158 1126h264z" glyph-name="uni1E44" horiz-adv-x="1632" unicode="Ṅ"/><glyph d="M692 1190q-63 0 -101 44t-30 107q10 61 60.5 105.5t113.5 44.5q61 0 99 -44t30 -106q-8 -63 -59.5 -107t-112.5 -44zM809 1141q193 0 287 -108.5t67 -303.5l-102 -729h-279l97 696q14 96 -35 147.5t-152 51.5q-111 0 -201 -59.5t-102 -153.5l-94 -682h-281l158 1126h250 l-2 -147q72 74 177.5 118t211.5 44z" glyph-name="uni1E45" horiz-adv-x="1226" unicode="ṅ"/><glyph d="M1622 1536l-215 -1536h-266l-676 1128l-158 -1128h-266l215 1536h268l676 -1126l158 1126h264zM708.5 -115q61.5 0 99.5 -44t30 -105q-8 -63 -58.5 -107.5t-113.5 -44.5q-61 0 -99.5 44t-29.5 108q8 61 59 105t112.5 44z" glyph-name="uni1E46" horiz-adv-x="1632" unicode="Ṇ"/><glyph d="M809 1141q193 0 287 -108.5t67 -303.5l-102 -729h-279l97 696q14 96 -35 147.5t-152 51.5q-111 0 -201 -59.5t-102 -153.5l-94 -682h-281l158 1126h250l-2 -147q72 74 177.5 118t211.5 44zM508 -115q63 0 101 -44t28 -105q-8 -63 -58.5 -107.5t-111.5 -44.5 q-63 0 -101 44t-30 108q8 61 59.5 105t112.5 44z" glyph-name="uni1E47" horiz-adv-x="1226" unicode="ṇ"/><glyph d="M561 -20q-244 0 -377 137t-123 358h238q8 -104 80 -176t225 -72q129 0 214 50.5t100 150.5q6 39 -1.5 71.5t-37 61.5t-49 46.5t-77 44t-76 33.5t-89.5 36q-78 31 -123 51.5t-107.5 59t-93.5 77.5t-50 99.5t-9 132.5q29 188 198.5 301.5t389.5 113.5q477 0 495 -473h-248 q4 100 -64.5 175t-205.5 75q-106 0 -191 -49t-98 -133q-6 -43 12.5 -78t68.5 -66.5t87 -48t115 -49.5q209 -88 283 -141q172 -127 143 -336q-31 -217 -209 -334.5t-420 -117.5zM526.5 -416q-61.5 0 -100.5 44t-31 108q10 61 61.5 106t113 45t99.5 -45t29.5 -106.5 t-59.5 -106.5t-112.5 -45z" glyph-name="uni1E62" horiz-adv-x="1312" unicode="Ṣ"/><glyph d="M457 -16q-221 0 -332 112.5t-105 257.5h238q6 -74 68.5 -123t148.5 -45q174 8 191 138q8 63 -50.5 96t-179.5 63q-78 20 -128 39t-105.5 54.5t-78 91t-11.5 129.5q20 158 157.5 253t333.5 95q168 0 284 -89t107 -257h-237q-8 63 -55.5 97t-114.5 38q-74 4 -126 -23.5 t-61 -81.5q-10 -72 101 -112q29 -10 131 -39q57 -16 98 -31.5t89 -44.5t76 -62.5t43 -86t5 -115.5q-20 -160 -154 -257t-333 -97zM376.5 -416q-61.5 0 -100 44t-30.5 108q10 61 60 105t114 44q61 0 99 -44t30 -105q-8 -63 -59.5 -107.5t-113 -44.5z" glyph-name="uni1E63" horiz-adv-x="1005" unicode="ṣ"/><glyph d="M1280 1305h-442l-185 -1305h-262l182 1305h-444l31 231h1153zM520 -115q61 0 99 -44t30 -105q-8 -63 -59 -107.5t-112.5 -44.5t-100.5 44t-31 108q10 61 60.5 105t113.5 44z" glyph-name="uni1E6C" horiz-adv-x="1155" unicode="Ṭ"/><glyph d="M565 -2q-100 0 -164.5 10t-124 45t-80 110t-3.5 193l77 553h-186l31 221h186l57 406h260l-57 -406h291l-29 -221h-295l-75 -532q-10 -84 23.5 -119t119.5 -35h137l-33 -225h-135zM329.5 -115q61.5 0 99.5 -44t30 -105q-8 -63 -58.5 -107.5t-113.5 -44.5q-61 0 -99 44 t-30 108q8 61 59 105t112.5 44z" glyph-name="uni1E6D" horiz-adv-x="761" unicode="ṭ"/><glyph d="M1206 1714l-190 334h258l129 -334h-197zM2376 1536l-656 -1536h-293l-215 1083l-489 -1083h-293l-258 1536h289l164 -1241l520 1241h264l199 -1243l481 1243h287z" glyph-name="Wgrave" horiz-adv-x="2332" unicode="Ẁ"/><glyph d="M756 1202l-191 334h258l129 -334h-196zM1774 1124l-510 -1124h-318l-80 596l-245 -596h-316l-199 1124h316l94 -798l313 798h244l84 -800l303 800h314z" glyph-name="wgrave" horiz-adv-x="1568" unicode="ẁ"/><glyph d="M1419 1714h-198l221 334h260zM2376 1536l-656 -1536h-293l-215 1083l-489 -1083h-293l-258 1536h289l164 -1241l520 1241h264l199 -1243l481 1243h287z" glyph-name="Wacute" horiz-adv-x="2332" unicode="Ẃ"/><glyph d="M987 1202h-196l221 334h258zM1774 1124l-510 -1124h-318l-80 596l-245 -596h-316l-199 1124h316l94 -798l313 798h244l84 -800l303 800h314z" glyph-name="wacute" horiz-adv-x="1568" unicode="ẃ"/><glyph d="M1102 1702q-63 0 -101 44t-30 107q8 61 59 105.5t113 44.5q63 0 101 -44t28 -106q-8 -63 -58.5 -107t-111.5 -44zM1525.5 1702q-61.5 0 -100.5 44t-30 107q8 61 60 105.5t113.5 44.5t99.5 -44t28 -106q-8 -63 -58.5 -107t-112 -44zM2376 1536l-656 -1536h-293l-215 1083 l-489 -1083h-293l-258 1536h289l164 -1241l520 1241h264l199 -1243l481 1243h287z" glyph-name="Wdieresis" horiz-adv-x="2332" unicode="Ẅ"/><glyph d="M672 1190q-63 0 -101.5 44t-29.5 107q8 61 59 105.5t113 44.5q63 0 101 -44t28 -106q-8 -63 -58.5 -107t-111.5 -44zM1095.5 1190q-61.5 0 -100.5 44t-30 107q8 61 60 105.5t113.5 44.5t99.5 -44t28 -106q-8 -63 -58.5 -107t-112 -44zM1774 1124l-510 -1124h-318l-80 596 l-245 -596h-316l-199 1124h316l94 -798l313 798h244l84 -800l303 800h314z" glyph-name="wdieresis" horiz-adv-x="1568" unicode="ẅ"/><glyph d="M1184 233l-33 -233h-1169l18 141l965 1164h-779l31 231h1137l-19 -141l-964 -1162h813zM547 -115q63 0 101 -44t28 -105q-8 -63 -58.5 -107.5t-111.5 -44.5q-63 0 -101 44t-30 108q8 61 59.5 105t112.5 44z" glyph-name="uni1E92" horiz-adv-x="1320" unicode="Ẓ"/><glyph d="M23 186l641 627h-549l30 211h877l-25 -182l-647 -631h565l-28 -211h-891zM383 -416q-61 0 -99 44t-30 108q8 61 59.5 105t112.5 44t99 -44t30 -105q-8 -63 -58.5 -107.5t-113.5 -44.5z" glyph-name="uni1E93" horiz-adv-x="1067" unicode="ẓ"/><glyph d="M1079 334h-692l-172 -334h-289l832 1536h297l401 -1536h-287zM1034 565l-166 701l-368 -701h534zM674 -115q61 0 99 -44t30 -105q-8 -63 -59.5 -107.5t-112.5 -44.5q-63 0 -101 44t-30 108q10 61 60.5 105t113.5 44z" glyph-name="uni1EA0" horiz-adv-x="1558" unicode="Ạ"/><glyph d="M336 -14q-164 0 -253 89t-69 244q20 152 160.5 246t351.5 111l242 20l4 25q27 201 -176 201q-96 0 -168 -47.5t-94 -143.5h-232q37 174 169 290t362 116q211 0 317.5 -106.5t75.5 -313.5q-23 -172 -51 -369q-20 -141 67 -141l-28 -207h-76q-61 2 -96 8t-74 36t-53 83 q-55 -63 -159.5 -102t-219.5 -39zM432 193q84 0 163 43t124 104l22 174l-190 -20q-246 -29 -264 -162q-8 -63 33.5 -101t111.5 -38zM442 -115q61 0 99.5 -44t29.5 -105q-8 -63 -59 -107.5t-113 -44.5q-63 0 -101 44t-30 108q10 61 60.5 105t113.5 44z" glyph-name="uni1EA1" horiz-adv-x="1132" unicode="ạ"/><glyph d="M475 1305l-59 -420h639l-35 -234h-637l-59 -418h725l-33 -233h-991l215 1536h991l-31 -231h-725zM471 -115q61 0 99 -44t30 -105q-8 -63 -59.5 -107.5t-112.5 -44.5t-100 44t-31 108q10 61 60.5 105t113.5 44z" glyph-name="uni1EB8" horiz-adv-x="1105" unicode="Ẹ"/><glyph d="M1096 567q0 -2 -17 -88h-786q-8 -127 60.5 -201.5t176.5 -74.5q199 0 289 151h225q-47 -152 -188 -258t-358 -106q-244 0 -371 162.5t-92 410.5q37 254 204 414t420 160q240 0 357 -155t80 -415zM627 920q-225 0 -301 -246h520q2 117 -53 181.5t-166 64.5zM481 -115 q63 0 101.5 -44t27.5 -105q-8 -63 -58 -107.5t-112 -44.5q-63 0 -101 44t-30 108q8 61 59.5 105t112.5 44z" glyph-name="uni1EB9" horiz-adv-x="1122" unicode="ẹ"/><glyph d="M387 1704q-8 127 63.5 211t176.5 84q125 0 188 -117q18 -45 62 -45q41 0 61 40t12 103h152q8 -125 -61.5 -208.5t-180.5 -83.5q-121 0 -184 116q-25 45 -64 45t-59.5 -42t-11.5 -103h-154zM475 1305l-59 -420h639l-35 -234h-637l-59 -418h725l-33 -233h-991l215 1536h991 l-31 -231h-725z" glyph-name="uni1EBC" horiz-adv-x="1105" unicode="Ẽ"/><glyph d="M317 1194q-8 127 63 211t177 84q127 0 186 -115q20 -47 64 -47q41 0 61.5 40t12.5 103h151q8 -125 -61.5 -208.5t-179.5 -83.5q-119 0 -187 116q-20 45 -61 45q-39 0 -60.5 -41t-13.5 -104h-152zM1096 567q0 -2 -17 -88h-786q-8 -127 60.5 -201.5t176.5 -74.5 q199 0 289 151h225q-47 -152 -188 -258t-358 -106q-244 0 -371 162.5t-92 410.5q37 254 204 414t420 160q240 0 357 -155t80 -415zM627 920q-225 0 -301 -246h520q2 117 -53 181.5t-166 64.5z" glyph-name="uni1EBD" horiz-adv-x="1122" unicode="ẽ"/><glyph d="M256 1536h266l-215 -1536h-266zM114.5 -416q-61.5 0 -100.5 44t-30 108q10 61 60 105t114 44q61 0 99 -44t30 -105q-8 -63 -59.5 -107.5t-113 -44.5z" glyph-name="uni1ECA" horiz-adv-x="532" unicode="Ị"/><glyph d="M365 1204q-59 0 -99.5 45t-32.5 107q10 63 61.5 107t113 44t100.5 -44t31 -107q-10 -61 -60.5 -106.5t-113.5 -45.5zM211 1024h258l-143 -1024h-258zM143 -449q-61 0 -99 44.5t-30 107.5q10 61 60.5 106.5t112 45.5t100.5 -45.5t30 -106.5q-8 -63 -59.5 -107.5 t-114.5 -44.5z" glyph-name="uni1ECB" horiz-adv-x="577" unicode="ị"/><glyph d="M739.5 -20q-327.5 0 -507 228t-132.5 560t290 560t570.5 228t507 -228t132 -560t-290 -560t-570 -228zM776 238q223 0 379 150.5t186 379.5q33 231 -79.5 381.5t-335.5 150.5q-225 0 -383 -150.5t-189 -381.5q-33 -229 82 -379.5t340 -150.5zM684 -416q-61 0 -99 44 t-30 108q8 61 59.5 105t112.5 44t99 -44t30 -105q-8 -63 -58.5 -107.5t-113.5 -44.5z" glyph-name="uni1ECC" horiz-adv-x="1669" unicode="Ọ"/><glyph d="M497.5 -20q-227.5 0 -354.5 153.5t-94 378.5q31 227 201 379.5t397 152.5t354 -153.5t97 -378.5q-33 -225 -203 -378.5t-397.5 -153.5zM528 207q119 0 207 88t107 217q18 131 -45.5 219t-182.5 88q-121 0 -208 -88t-103 -219q-18 -131 43 -218t182 -87zM442.5 -416 q-61.5 0 -100.5 44t-31 108q10 61 60.5 105t113.5 44q61 0 99.5 -44t29.5 -105q-8 -63 -59 -107.5t-112.5 -44.5z" glyph-name="uni1ECD" horiz-adv-x="1185" unicode="ọ"/><glyph d="M655 -20q-258 0 -414.5 150.5t-125.5 367.5l145 1038h268l-141 -991q-18 -139 70 -235.5t231 -96.5q145 0 260 96.5t133 235.5l140 991h266l-146 -1038q-31 -217 -230.5 -367.5t-455.5 -150.5zM600 -416q-61 0 -99 44t-30 108q8 61 59.5 105t113 44t99 -44t29.5 -105 q-8 -63 -58.5 -107.5t-113.5 -44.5z" glyph-name="uni1EE4" horiz-adv-x="1503" unicode="Ụ"/><glyph d="M727 1714l-192 334h260l127 -334h-195zM827 727l-102 -727h-264l100 723l-424 813h297l291 -586l459 586h293z" glyph-name="Ygrave" horiz-adv-x="1368" unicode="Ỳ"/><glyph d="M575 1202l-192 334h260l129 -334h-197zM1292 1126l-909 -1679h-254l342 631h-61l-285 1048h276l215 -772l408 772h268z" glyph-name="ygrave" horiz-adv-x="1234" unicode="ỳ"/><glyph d="M561 723l-424 813h297l291 -586l459 586h293l-650 -809l-102 -727h-264zM580 -115q61 0 99 -44t30 -105q-8 -63 -59.5 -107.5t-112.5 -44.5q-63 0 -101.5 44t-29.5 108q10 61 60.5 105t113.5 44z" glyph-name="uni1EF4" horiz-adv-x="1368" unicode="Ỵ"/><glyph d="M496 1704q-8 127 62.5 211t176.5 84q127 0 187 -117q20 -45 61 -45t61.5 40t12.5 103h153q8 -125 -62.5 -208.5t-180.5 -83.5q-121 0 -183 116q-25 45 -63 45q-41 0 -61.5 -42t-10.5 -103h-153zM827 727l-102 -727h-264l100 723l-424 813h297l291 -586l459 586h293z" glyph-name="uni1EF8" horiz-adv-x="1368" unicode="Ỹ"/><glyph d="M156 621h1024l-25 -175h-1024z" glyph-name="endash" horiz-adv-x="1345" unicode="–"/><glyph d="M-2 621h2050l-25 -175h-2050z" glyph-name="emdash" horiz-adv-x="2056" unicode="—"/><glyph d="M229 1098q-61 0 -98 44t-27 105q8 55 63.5 139t119.5 150h135l-64 -174q53 -45 41 -115q-8 -63 -59.5 -106t-110.5 -43z" glyph-name="quoteleft" horiz-adv-x="335" unicode="‘"/><glyph d="M205 1245q-43 16 -65.5 55t-14.5 86q8 61 58 105.5t111.5 44.5t97.5 -43t28 -107q-16 -109 -182 -288h-138z" glyph-name="quoteright" horiz-adv-x="335" unicode="’"/><glyph d="M29 2q-43 14 -64.5 54t-15.5 87q10 61 59 105.5t113 44.5q59 0 96 -43t29 -107q-8 -55 -63.5 -139t-119.5 -149h-139z" glyph-name="quotesinglbase" horiz-adv-x="335" unicode="‚"/><glyph d="M229.5 1098q-61.5 0 -98.5 44t-27 105q8 55 63.5 139t119.5 150h135l-64 -174q53 -45 41 -115q-10 -61 -59 -105t-110.5 -44zM634.5 1098q-61.5 0 -97 44t-27.5 105q8 55 63.5 139t118.5 150h137l-63 -174q51 -45 39 -115q-8 -61 -58.5 -105t-112 -44z" glyph-name="quotedblleft" horiz-adv-x="743" unicode="“"/><glyph d="M164 1272q-51 45 -39 114q8 61 58 105.5t111.5 44.5t97.5 -43t28 -107q-16 -109 -182 -288h-138zM571 1272q-53 43 -41 114q10 61 59.5 105.5t110.5 44.5q63 0 99.5 -43t25.5 -107q-16 -109 -182 -288h-135z" glyph-name="quotedblright" horiz-adv-x="743" unicode="”"/><glyph d="M-14 0q-51 43 -41 115q10 61 59 105t111 44q63 0 99 -43t26 -106q-6 -55 -61.5 -138t-119.5 -151h-137zM393 0q-51 43 -41 115q8 61 58.5 105t112 44t97 -43t27.5 -106q-8 -55 -63.5 -139.5t-118.5 -149.5h-137z" glyph-name="quotedblbase" horiz-adv-x="743" unicode="„"/><glyph d="M1116 836h-346l-166 -1184h-164l166 1184h-338l23 163h338l53 373h164l-53 -373h346z" glyph-name="dagger" horiz-adv-x="1335" unicode="†"/><glyph d="M770 836l-88 -631h346l-24 -166h-347l-53 -387h-164l54 387h-338l22 166h338l90 631h-338l23 163h338l53 373h164l-53 -373h346l-23 -163h-346z" glyph-name="daggerdbl" horiz-adv-x="1335" unicode="‡"/><glyph d="M465 369q-125 0 -202 88t-58 215q16 121 119.5 212t226.5 91q121 0 198.5 -91t59.5 -212q-18 -127 -119.5 -215t-224.5 -88z" glyph-name="bullet" horiz-adv-x="1009" unicode="•"/><glyph d="M240 -16q-59 0 -98.5 45t-31 106.5t59.5 106.5t113 45q63 0 101 -44t28 -108q-8 -61 -58.5 -106t-113.5 -45zM817 -16q-61 0 -99 45t-30 106.5t59.5 106.5t112.5 45q63 0 101 -44t30 -108q-8 -61 -59.5 -106t-114.5 -45zM1393 -16q-61 0 -98.5 45t-26.5 106 q8 63 58 107.5t110 44.5q63 0 102 -44t31 -108q-10 -61 -61.5 -106t-114.5 -45z" glyph-name="ellipsis" horiz-adv-x="1812" unicode="…"/><glyph d="M424 850q-131 0 -207 102.5t-55 249.5q23 147 126 250.5t234 103.5q129 0 205 -103t55 -251q-20 -145 -124.5 -248.5t-233.5 -103.5zM1313 1536h266l-1255 -1536h-265zM451 1044q45 0 87 47.5t50 110.5q10 66 -18.5 113t-73.5 47q-47 0 -87 -46t-51 -114q-8 -66 19 -112 t74 -46zM1116 -20q-129 0 -204.5 103t-55.5 251q20 145 125.5 249.5t235 104.5t205 -103.5t55.5 -250.5q-20 -145 -126 -249.5t-235 -104.5zM1839 -20q-129 0 -204.5 103t-55.5 251q20 145 125.5 249.5t234.5 104.5t205 -103.5t56 -250.5q-20 -145 -126 -249.5t-235 -104.5z M1145 176q47 0 87 45t48 112.5t-18.5 113t-73.5 45.5t-88 -45.5t-49.5 -113t19.5 -112.5t75 -45zM1868 176q45 0 86 46t49 112q10 66 -18.5 112t-73.5 46q-47 0 -88 -46.5t-49.5 -112t19.5 -111.5t75 -46z" glyph-name="perthousand" horiz-adv-x="2326" unicode="‰"/><glyph d="M68 571l364 377h209l-365 -377l259 -376h-209z" glyph-name="guilsinglleft" horiz-adv-x="718" unicode="‹"/><glyph d="M420 571l-258 377h207l258 -377l-365 -376h-207z" glyph-name="guilsinglright" horiz-adv-x="718" unicode="›"/><glyph d="M1135 1536h258l-1287 -1536h-260z" glyph-name="fraction" horiz-adv-x="1239" unicode="⁄"/><glyph d="M90 950h137q66 244 232 388.5t391 144.5q229 0 347 -135.5t95 -372.5h-213q25 311 -256 311q-139 0 -236.5 -88t-142.5 -248h486l-58 -170h-458l-15 -90h445l-60 -182h-401q0 -162 72.5 -247t214.5 -85q291 0 362 336h211q-47 -250 -208 -393.5t-394 -143.5 q-227 0 -354 144.5t-123 388.5h-137l26 182h129l15 90h-131z" glyph-name="Euro" horiz-adv-x="1368" unicode="€"/><glyph d="M584 -14q-190 0 -280.5 103.5t-90.5 266.5l2 23q-23 -14 -70 -46t-73 -48l-52 131q39 29 113 77t105 70l77 559q41 285 175.5 421t312.5 136q162 0 230.5 -108.5t45.5 -270.5q-27 -193 -180.5 -383t-429.5 -403l-6 -63q-16 -127 43 -198t159.5 -71t195.5 64.5t167 156.5 l92 -104q-217 -313 -536 -313zM500 733q377 334 407 565q31 213 -121 213q-72 0 -137 -86t-90 -272z" glyph-name="afii61289" horiz-adv-x="1224" unicode="ℓ"/><glyph d="M150 1536h503l-16 -109h-188l-87 -608h-124l84 608h-189zM1528 1534l-101 -717h-120l75 543l-272 -543h-123l-119 543l-75 -543h-123l100 717h172l127 -557l289 557h170z" glyph-name="trademark" horiz-adv-x="1515" unicode="™"/><glyph d="M842 -18q-362 0 -585.5 230t-178.5 554q45 328 333.5 559t651.5 231q365 0 588 -231t178 -559l-2 -21h-1417q-12 0 -15 -8l-59 -430q-4 -23 10 -49q197 -233 504 -233q340 0 602 262h125q-137 -141 -331.5 -223t-403.5 -82zM1503 788q6 0 10 15l60 430q4 35 -12 51 q-199 225 -502 225q-301 0 -567 -231q-25 -25 -27 -53l-59 -422q-4 -14 10 -15h1087z" glyph-name="estimated" horiz-adv-x="1880" unicode="℮"/><glyph d="M1538 598h-1100l25 -260l-445 385l553 385l-98 -262h1100z" glyph-name="arrowleft" horiz-adv-x="1720" unicode="←"/><glyph d="M436 1100l-270 -62l455 498l315 -498l-252 62l-154 -1100h-247z" glyph-name="arrowup" horiz-adv-x="1024" unicode="↑"/><glyph d="M1300 846l-24 262l442 -385l-551 -385l99 260h-1100l35 248h1099z" glyph-name="arrowright" horiz-adv-x="1720" unicode="→"/><glyph d="M745 1536l-153 -1100l268 62l-454 -498l-316 498l254 -62l154 1100h247z" glyph-name="arrowdown" horiz-adv-x="995" unicode="↓"/><glyph d="M-131 682l553 385l-100 -260l1148 -2l-24 260l442 -385l-549 -385l99 262l-1151 2l22 -264z" glyph-name="arrowboth" horiz-adv-x="1753" unicode="↔"/><glyph d="M70 350l252 -61l112 798l-270 -61l454 496l316 -498l-252 61l-111 -794l269 61l-455 -497z" glyph-name="arrowupdn" horiz-adv-x="995" unicode="↕"/><glyph d="M981 137l-670 776l-172 -227l8 625l613 -80l-250 -141l670 -779z" glyph-name="uni2196" horiz-adv-x="1095" unicode="↖"/><glyph d="M705 1090l-209 141l637 80l-168 -625l-111 227l-887 -776l-149 174z" glyph-name="uni2197" horiz-adv-x="1095" unicode="↗"/><glyph d="M147 1399l668 -776l174 227l-8 -625l-612 80l247 141l-667 779z" glyph-name="uni2198" horiz-adv-x="1097" unicode="↘"/><glyph d="M420 446l211 -141l-637 -80l168 625l108 -227l889 776l150 -174z" glyph-name="uni2199" horiz-adv-x="1097" unicode="↙"/><glyph d="M436 1452q307 59 482.5 -170t117.5 -610q-41 -283 -219 -474.5t-399 -191.5q-260 0 -344 177t55 444q117 227 307.5 323.5t372.5 32.5q-31 182 -139.5 264t-259.5 25zM811 672q8 82 10 119q-131 84 -262 25.5t-229 -247.5q-82 -160 -48.5 -278.5t158.5 -118.5 q121 0 230.5 147.5t140.5 352.5z" glyph-name="partialdiff" horiz-adv-x="1114" unicode="∂"/><glyph d="M1327 991q123 -170 90 -395q-35 -254 -239.5 -433t-458.5 -179q-223 0 -375 145l-102 -88l-60 72l101 88q-121 170 -90 395q37 254 241.5 433t458.5 179q223 0 373 -145l102 90l62 -72zM397 596q-18 -143 49 -250l654 572q-92 86 -238 86q-170 0 -305 -119t-160 -289z M750 188q168 0 304 119t158 289q20 139 -49 250l-653 -572q93 -86 240 -86z" glyph-name="emptyset" horiz-adv-x="1628" unicode="∅"/><glyph glyph-name="product" horiz-adv-x="1519" unicode="∏"/><glyph d="M55 -90l815 688l-620 688l20 154h1192l-26 -195h-875l569 -647l-751 -647h874l-26 -195l-1192 2z" glyph-name="summation" horiz-adv-x="1515" unicode="∑"/><glyph d="M106 705h1229l-24 -168h-1229z" glyph-name="minus" horiz-adv-x="1427" unicode="−"/><glyph d="M246 541h-142l23 164h260l113 -601l907 1467l143 -66l-1032 -1665h-143z" glyph-name="radical" horiz-adv-x="1490" unicode="√"/><glyph d="M354 274q-131 0 -204.5 90.5t-59.5 231.5q27 141 125 231.5t229 90.5q182 0 347 -199q221 199 403 199q135 0 205.5 -87.5t54.5 -234.5q-25 -147 -119 -234.5t-231 -87.5q-182 0 -346 199q-226 -199 -404 -199zM377 438q115 0 285 158q-123 158 -242 158 q-59 0 -106.5 -45t-59.5 -113q-6 -68 29 -113t94 -45zM1126 438q61 0 107.5 44t56.5 114q8 72 -25.5 115t-95.5 43q-119 0 -286 -158q124 -158 243 -158z" glyph-name="infinity" horiz-adv-x="1564" unicode="∞"/><glyph d="M199 -387q-92 0 -136.5 66.5t-11.5 166.5h127q-6 -57 1 -78.5t38 -21.5q20 0 35.5 14.5t17.5 38.5l215 1532q12 82 72.5 134.5t140.5 52.5q88 0 131 -68t9 -166h-127q8 57 1 78.5t-36 21.5q-47 0 -58 -53l-215 -1532q-10 -82 -69 -134t-135 -52z" glyph-name="integral" horiz-adv-x="917" unicode="∫"/><glyph d="M805 651q-63 0 -118.5 30t-78 55.5t-55.5 70.5q-66 86 -135 86q-78 0 -130 -63.5t-57 -155.5h-133q4 156 102.5 254t237.5 98q80 0 132.5 -36t103.5 -111q31 -47 60.5 -71t78.5 -24q74 0 127 60.5t55 156.5h133q-2 -147 -97 -248.5t-226 -101.5zM748 236 q-66 0 -121.5 30.5t-76 53t-56.5 71.5q-63 86 -136 86q-78 0 -130 -63.5t-56 -155.5h-133q6 158 104.5 256t237.5 98q80 0 131 -36.5t104 -112.5q59 -94 138 -94q74 0 128 60t56 157h133q-2 -147 -97 -248.5t-226 -101.5z" glyph-name="approxequal" horiz-adv-x="1177" unicode="≈"/><glyph d="M901 662l-235 -236h630l-24 -166h-770l-242 -244h-149l243 244h-311l25 166h450l236 236h-654l23 163h795l212 215h150l-215 -215h287l-23 -163h-428z" glyph-name="notequal" horiz-adv-x="1427" unicode="≠"/><glyph d="M1438 1260l-975 -406l860 -410l-31 -215l-1056 508l30 232l1202 506zM152 150h1130l-20 -150h-1131z" glyph-name="lessequal" horiz-adv-x="1574" unicode="≤"/><glyph d="M1397 969l-31 -232l-1204 -508l31 215l974 410l-860 406l31 215zM152 150h1130l-20 -150h-1131z" glyph-name="greaterequal" horiz-adv-x="1574" unicode="≥"/><glyph d="M170 723l707 618l528 -616l-703 -619zM1122 725l-286 334l-383 -336l288 -334z" glyph-name="lozenge" horiz-adv-x="1558" unicode="◊"/><glyph glyph-name="glyph432"/><glyph d="M436 1100l-270 -62l455 498l315 -498l-252 62l-154 -1100h-247z" glyph-name="glyph433" horiz-adv-x="995"/><glyph d="M358 1204q-59 0 -99 45t-32 107q10 63 61.5 107t113 44t100.5 -44t30 -107q-10 -61 -60.5 -106.5t-113.5 -45.5zM205 1024h258l-144 -1024h-258z" glyph-name="i.locl" horiz-adv-x="661"/><glyph d="M1079 334h-692l-172 -334h-289l832 1536h297l401 -1536h-287zM1034 565l-166 701l-368 -701h534z" glyph-name="glyph435" horiz-adv-x="1568"/><glyph d="M1032 1714h-198l221 334h260zM1079 334h-692l-172 -334h-289l832 1536h297l401 -1536h-287zM1034 565l-166 701l-368 -701h534z" glyph-name="glyph436" horiz-adv-x="1568"/><glyph d="M920 1659q-162 0 -247 89t-61 251h150q-10 -76 40 -133.5t140 -57.5q92 0 158.5 56.5t77.5 134.5h149q-23 -162 -133 -251t-274 -89zM1079 334h-692l-172 -334h-289l832 1536h297l401 -1536h-287zM1034 565l-166 701l-368 -701h534z" glyph-name="glyph437" horiz-adv-x="1568"/><glyph d="M791 1698l-164 350h190l125 -233l191 233h190l-264 -350h-268zM1079 334h-692l-172 -334h-289l832 1536h297l401 -1536h-287zM1034 565l-166 701l-368 -701h534z" glyph-name="glyph438" horiz-adv-x="1568"/><glyph d="M776 1698h-198l262 350h268l166 -350h-199l-117 235zM1079 334h-692l-172 -334h-289l832 1536h297l401 -1536h-287zM1034 565l-166 701l-368 -701h534z" glyph-name="glyph439" horiz-adv-x="1568"/><glyph d="M715 1702q-63 0 -101.5 44t-29.5 107q10 61 60 105.5t114 44.5q61 0 99 -44t30 -106q-8 -63 -59.5 -107t-112.5 -44zM1138.5 1702q-61.5 0 -100.5 44t-30 107q10 61 61 105.5t112.5 44.5t99.5 -44t30 -106q-8 -63 -59.5 -107t-113 -44zM1079 334h-692l-172 -334h-289 l832 1536h297l401 -1536h-287zM1034 565l-166 701l-368 -701h534z" glyph-name="glyph440" horiz-adv-x="1568"/><glyph d="M1079 334h-692l-172 -334h-289l832 1536h297l401 -1536h-287zM1034 565l-166 701l-368 -701h534zM674 -115q61 0 99 -44t30 -105q-8 -63 -59.5 -107.5t-112.5 -44.5q-63 0 -101 44t-30 108q10 61 60.5 105t113.5 44z" glyph-name="glyph441" horiz-adv-x="1568"/><glyph d="M821 1714l-192 334h260l127 -334h-195zM1079 334h-692l-172 -334h-289l832 1536h297l401 -1536h-287zM1034 565l-166 701l-368 -701h534z" glyph-name="glyph442" horiz-adv-x="1568"/><glyph d="M1247 1720h-635l25 164h635zM1079 334h-692l-172 -334h-289l832 1536h297l401 -1536h-287zM1034 565l-166 701l-368 -701h534z" glyph-name="glyph443" horiz-adv-x="1568"/><glyph d="M1432 -299l65 -115q-147 -129 -330 -116q-113 6 -174 63t-49 164q29 190 279 303h-54l-90 334h-692l-172 -334h-289l832 1536h297l401 -1536h-4q-143 -14 -230 -99t-102 -182q-8 -55 20.5 -87.5t88.5 -32.5q55 0 110.5 28.5t92.5 73.5zM500 565h534l-166 701z" glyph-name="glyph444" horiz-adv-x="1558"/><glyph d="M1063 1507l393 -1507h-287l-90 334h-692l-172 -334h-289l815 1505h-6q-57 63 -45 156q14 94 92 160.5t172.5 66.5t151.5 -66.5t43 -160.5q-12 -95 -86 -154zM803 1661q-8 -53 21.5 -87t80.5 -34t90 34t45 87q8 49 -21.5 86t-78.5 37t-89 -37t-48 -86zM500 565h534 l-166 701z" glyph-name="glyph445" horiz-adv-x="1568"/><glyph d="M590 1704q-8 127 62.5 211t176.5 84q127 0 187 -117q20 -45 61 -45t61.5 40t12.5 103h154q8 -125 -63 -208.5t-181 -83.5q-121 0 -182 116q-25 45 -64 45q-41 0 -61.5 -42t-10.5 -103h-153zM1079 334h-692l-172 -334h-289l832 1536h297l401 -1536h-287zM1034 565 l-166 701l-368 -701h534z" glyph-name="glyph446" horiz-adv-x="1568"/><glyph d="M758 1536h1173l-33 -225h-628l-62 -441h543l-29 -202h-542l-62 -441h629l-31 -227h-887l45 326h-489l-160 -326h-299zM905 528l109 783h-105l-409 -783h405z" glyph-name="glyph447" horiz-adv-x="1890"/><glyph d="M938 797q131 -37 196.5 -136.5t45.5 -246.5q-27 -188 -168.5 -301t-329.5 -113h-664l215 1536h568q193 0 303 -114.5t84 -303.5q-16 -115 -84 -197.5t-166 -123.5zM919.5 1092q12.5 86 -41 149.5t-139.5 63.5h-272l-59 -408h272q90 0 158.5 54.5t81 140.5zM676 233 q88 0 158.5 63.5t83.5 149.5q12 90 -41.5 162t-139.5 72h-360l-62 -447h361z" glyph-name="glyph448" horiz-adv-x="1255"/><glyph d="M995 797q129 -37 194.5 -136.5t45.5 -246.5q-25 -188 -167 -301t-331 -113h-719l215 1536h625q190 0 301 -114.5t86 -303.5q-18 -115 -86 -197.5t-164 -123.5zM975 1092q14 86 -39 149.5t-141 63.5h-328l-59 -408h329q90 0 158 54.5t80 140.5zM731 233q88 0 160 63.5 t84 149.5q12 90 -40 162t-140 72h-418l-62 -447h416zM547 -115q61 0 99 -44t30 -105q-8 -63 -59.5 -107.5t-112.5 -44.5q-63 0 -101 44t-30 108q10 61 60.5 105t113.5 44z" glyph-name="glyph449" horiz-adv-x="1312"/><glyph d="M723 -20q-215 0 -371.5 105t-224.5 285.5t-37 397.5q47 334 287.5 561t566.5 227q295 0 461 -168.5t149 -418.5h-256q-4 129 -98 231.5t-291 102.5q-225 0 -379.5 -152t-187.5 -383q-31 -231 81 -383t337 -152q186 0 315 100.5t164 219.5h256q-51 -221 -274.5 -396 t-497.5 -177z" glyph-name="glyph450" horiz-adv-x="1642"/><glyph d="M1108 2048h260l-283 -334h-196zM723 -20q-215 0 -371.5 105t-224.5 285.5t-37 397.5q47 334 287.5 561t566.5 227q295 0 461 -168.5t149 -418.5h-256q-4 129 -98 231.5t-291 102.5q-225 0 -379.5 -152t-187.5 -383q-31 -231 81 -383t337 -152q186 0 315 100.5t164 219.5 h256q-51 -221 -274.5 -396t-497.5 -177z" glyph-name="glyph451" horiz-adv-x="1642"/><glyph d="M668 2048h190l125 -233l191 233h190l-264 -350h-269zM723 -20q-215 0 -371.5 105t-224.5 285.5t-37 397.5q47 334 287.5 561t566.5 227q295 0 461 -168.5t149 -418.5h-256q-4 129 -98 231.5t-291 102.5q-225 0 -379.5 -152t-187.5 -383q-31 -231 81 -383t337 -152 q186 0 315 100.5t164 219.5h256q-51 -221 -274.5 -396t-497.5 -177z" glyph-name="glyph452" horiz-adv-x="1642"/><glyph d="M909 1303q-225 0 -379.5 -152t-187.5 -383q-31 -231 81 -383t337 -152q186 0 315 100.5t164 219.5h256q-47 -207 -247.5 -376t-456.5 -193v-2l-74 -111q106 20 170.5 -34t50.5 -150q-12 -92 -85 -155.5t-165 -63.5q-74 0 -137.5 41.5t-79.5 101.5l121 43q12 -29 45 -48.5 t68 -19.5q41 0 73.5 30t36.5 71q10 61 -39 81.5t-131 -12.5l-86 58l109 168q-301 20 -462 244.5t-116 541.5q47 334 287.5 561t566.5 227q295 0 461 -168.5t149 -418.5h-256q-4 129 -98 231.5t-291 102.5z" glyph-name="glyph453" horiz-adv-x="1642"/><glyph d="M966.5 1702q-61.5 0 -100.5 44t-30 107q10 61 60 105.5t114 44.5q61 0 99 -44t30 -106q-8 -63 -59.5 -107t-113 -44zM723 -20q-215 0 -371.5 105t-224.5 285.5t-37 397.5q47 334 287.5 561t566.5 227q295 0 461 -168.5t149 -418.5h-256q-4 129 -98 231.5t-291 102.5 q-225 0 -379.5 -152t-187.5 -383q-31 -231 81 -383t337 -152q186 0 315 100.5t164 219.5h256q-51 -221 -274.5 -396t-497.5 -177z" glyph-name="glyph454" horiz-adv-x="1642"/><glyph d="M252 1536h469q334 0 523.5 -200.5t135.5 -571.5q-49 -358 -295.5 -561t-578.5 -203h-469zM537 233q225 0 383.5 133.5t195.5 397.5q39 281 -79.5 411t-348.5 130h-205l-151 -1072h205z" glyph-name="glyph455" horiz-adv-x="1449"/><glyph d="M874 1536q324 0 515.5 -217t144.5 -551t-300 -551t-575 -217h-471l97 692h-152l21 152h151l98 692h471zM688 233q215 0 381 149.5t199 385.5q35 236 -89 386.5t-339 150.5h-203l-66 -461h250l-20 -152h-250l-66 -459h203z" glyph-name="glyph456" horiz-adv-x="1603"/><glyph d="M449 2048h190l125 -233l190 233h191l-264 -350h-269zM252 1536h510q334 0 523.5 -200.5t135.5 -571.5q-49 -358 -295.5 -561t-578.5 -203h-510zM578 233q225 0 383.5 133.5t195.5 397.5q39 281 -80 411t-348 130h-246l-151 -1072h246z" glyph-name="glyph457" horiz-adv-x="1490"/><glyph d="M909 1536q334 0 523.5 -200.5t136.5 -571.5q-51 -358 -297 -561t-578 -203h-512l97 692h-146l21 152h147l96 692h512zM1303 764q39 281 -79 411t-347 130h-246l-66 -461h221l-20 -152h-221l-66 -459h246q225 0 383 132.5t195 398.5z" glyph-name="glyph458" horiz-adv-x="1638"/><glyph d="M475 1305l-59 -420h579l-34 -234h-578l-59 -418h663l-31 -233h-931l215 1536h931l-32 -231h-664z" glyph-name="glyph459" horiz-adv-x="1163"/><glyph d="M829 1714h-198l221 334h260zM475 1305l-59 -420h639l-35 -234h-637l-59 -418h725l-33 -233h-991l215 1536h991l-31 -231h-725z" glyph-name="glyph460" horiz-adv-x="1222"/><glyph d="M588 1698l-164 350h190l125 -233l191 233h190l-264 -350h-268zM475 1305l-59 -420h639l-35 -234h-637l-59 -418h725l-33 -233h-991l215 1536h991l-31 -231h-725z" glyph-name="glyph461" horiz-adv-x="1222"/><glyph d="M1200 1305h-725l-59 -420h639l-35 -234h-637l-59 -418h725l-33 -233h-469l-88 -129q106 20 170.5 -34t50.5 -150q-12 -92 -85 -155.5t-165 -63.5q-74 0 -137.5 41.5t-79.5 101.5l121 43q12 -29 45 -48.5t67 -19.5q41 0 74 30t37 71q10 61 -39 81.5t-131 -12.5l-86 58 l125 186h-401l215 1536h991z" glyph-name="glyph462" horiz-adv-x="1222"/><glyph d="M573 1698h-198l262 350h268l166 -350h-199l-116 235zM475 1305l-59 -420h639l-35 -234h-637l-59 -418h725l-33 -233h-991l215 1536h991l-31 -231h-725z" glyph-name="glyph463" horiz-adv-x="1222"/><glyph d="M512 1702q-61 0 -100 44t-31 107q10 61 60.5 105.5t113.5 44.5q61 0 99 -44t30 -106q-8 -63 -59.5 -107t-112.5 -44zM936 1702q-61 0 -99 45t-30 106.5t59.5 105.5t112.5 44t99 -44t30 -106q-10 -63 -59.5 -107t-112.5 -44zM475 1305l-59 -420h639l-35 -234h-637 l-59 -418h725l-33 -233h-991l215 1536h991l-31 -231h-725z" glyph-name="glyph464" horiz-adv-x="1222"/><glyph d="M725 1702q-61 0 -99 44t-30 107q8 61 59.5 105.5t112.5 44.5t99 -44t30 -106q-8 -63 -58.5 -107t-113.5 -44zM475 1305l-59 -420h639l-35 -234h-637l-59 -418h725l-33 -233h-991l215 1536h991l-31 -231h-725z" glyph-name="glyph465" horiz-adv-x="1222"/><glyph d="M475 1305l-59 -420h639l-35 -234h-637l-59 -418h725l-33 -233h-991l215 1536h991l-31 -231h-725zM471 -115q61 0 99 -44t30 -105q-8 -63 -59.5 -107.5t-112.5 -44.5t-100 44t-31 108q10 61 60.5 105t113.5 44z" glyph-name="glyph466" horiz-adv-x="1222"/><glyph d="M618 1714l-192 334h260l129 -334h-197zM475 1305l-59 -420h639l-35 -234h-637l-59 -418h725l-33 -233h-991l215 1536h991l-31 -231h-725z" glyph-name="glyph467" horiz-adv-x="1222"/><glyph d="M1047 1720h-635l22 164h635zM475 1305l-59 -420h639l-35 -234h-637l-59 -418h725l-33 -233h-991l215 1536h991l-31 -231h-725z" glyph-name="glyph468" horiz-adv-x="1222"/><glyph d="M1200 1305h-725l-59 -420h639l-35 -234h-637l-59 -418h725l-33 -233h-84q-127 -8 -223.5 -96t-108.5 -185q-8 -55 20.5 -87.5t86.5 -32.5q55 0 110 28.5t92 73.5l68 -115q-152 -129 -332 -116q-113 6 -174 63t-47 164q29 193 276 303h-675l215 1536h991z" glyph-name="glyph469" horiz-adv-x="1247"/><glyph d="M387 1704q-8 127 63.5 211t176.5 84q125 0 188 -117q18 -45 62 -45q41 0 61 40t12 103h152q8 -125 -61.5 -208.5t-180.5 -83.5q-121 0 -184 116q-25 45 -64 45t-59.5 -42t-11.5 -103h-154zM475 1305l-59 -420h639l-35 -234h-637l-59 -418h725l-33 -233h-991l215 1536h991 l-31 -231h-725z" glyph-name="glyph470" horiz-adv-x="1222"/><glyph d="M475 1305l-57 -420h577l-32 -234h-580l-90 -651h-266l215 1536h929l-30 -231h-666z" glyph-name="glyph471" horiz-adv-x="1107"/><glyph d="M885 1311q-236 0 -386.5 -146.5t-187.5 -402.5q-35 -244 84 -392.5t320 -148.5q193 0 328 97.5t161 263.5h-391l33 229h663q-51 -406 -249.5 -622t-577.5 -216q-334 0 -503 220.5t-120 568.5q51 356 280.5 575t553.5 219q276 0 446 -137t166 -397h-260q-8 133 -108 211 t-252 78z" glyph-name="glyph472" horiz-adv-x="1583"/><glyph d="M987 1659q-162 0 -247 89t-62 251h149q-10 -76 40.5 -133.5t140.5 -57.5q92 0 159.5 57.5t77.5 133.5h148q-23 -162 -133.5 -251t-272.5 -89zM1499 809l-37 -262l-76 -547h-178l-10 205q-98 -113 -220 -164t-292 -51q-328 0 -495.5 215t-118.5 557q49 350 275 566 t544 216q274 0 442 -134t162 -390h-256q-8 131 -107.5 207t-248.5 76q-233 0 -382 -144.5t-184 -396.5q-33 -238 85 -384.5t315 -146.5q193 0 326 95.5t155 257.5h-385l33 225h653z" glyph-name="glyph473" horiz-adv-x="1581"/><glyph d="M864 1698l-164 350h191l125 -233l190 233h191l-264 -350h-269zM1499 809l-37 -262l-76 -547h-178l-10 205q-98 -113 -220 -164t-292 -51q-328 0 -495.5 215t-118.5 557q49 350 275 566t544 216q274 0 442 -134t162 -390h-256q-8 131 -107.5 207t-248.5 76 q-233 0 -382 -144.5t-184 -396.5q-33 -238 85 -384.5t315 -146.5q193 0 326 95.5t155 257.5h-385l33 225h653z" glyph-name="glyph474" horiz-adv-x="1581"/><glyph d="M1499 809l-37 -262l-76 -547h-178l-10 205q-98 -113 -220 -164t-292 -51q-328 0 -495.5 215t-118.5 557q49 350 275 566t544 216q274 0 442 -134t162 -390h-256q-8 131 -107.5 207t-248.5 76q-233 0 -382 -144.5t-184 -396.5q-33 -238 85 -384.5t315 -146.5 q193 0 326 95.5t155 257.5h-385l33 225h653zM666 -387q-43 16 -65.5 55t-14.5 86q10 61 59 105.5t113 44.5q59 0 95 -43t28 -107q-14 -109 -181 -289h-139z" glyph-name="glyph475" horiz-adv-x="1581"/><glyph d="M1030.5 1702q-61.5 0 -100.5 44t-31 107q10 61 60.5 105.5t113.5 44.5q61 0 99 -44t30 -106q-8 -63 -59 -107t-112.5 -44zM1499 809l-37 -262l-76 -547h-178l-10 205q-98 -113 -220 -164t-292 -51q-328 0 -495.5 215t-118.5 557q49 350 275 566t544 216q274 0 442 -134 t162 -390h-256q-8 131 -107.5 207t-248.5 76q-233 0 -382 -144.5t-184 -396.5q-33 -238 85 -384.5t315 -146.5q193 0 326 95.5t155 257.5h-385l33 225h653z" glyph-name="glyph476" horiz-adv-x="1581"/><glyph d="M1503 1536l-215 -1536h-266l90 651h-713l-92 -651h-266l215 1536h266l-90 -649h715l90 649h266z" glyph-name="glyph477" horiz-adv-x="1513"/><glyph d="M1704 1155h-127l-162 -1155h-266l92 651h-715l-90 -651h-268l162 1155h-127l14 102h127l39 279h268l-41 -279h715l39 279h266l-39 -279h127zM1311 1155h-713l-39 -268h715z" glyph-name="glyph478" horiz-adv-x="1767"/><glyph d="M1503 1536l-215 -1536h-266l90 651h-713l-92 -651h-266l215 1536h266l-90 -649h715l90 649h266zM651 -115q63 0 101.5 -44t27.5 -105q-8 -63 -58 -107.5t-112 -44.5q-63 0 -101 44t-30 108q8 61 59.5 105t112.5 44z" glyph-name="glyph479" horiz-adv-x="1513"/><glyph d="M256 1536h266l-215 -1536h-266z" glyph-name="glyph480" horiz-adv-x="532"/><glyph d="M305 1536h268l-215 -1536h-268zM844 -20q-102 0 -158 20l37 270q68 -25 143 -24q53 0 98.5 39t53.5 94l162 1157h264l-166 -1180q-23 -166 -145.5 -271t-288.5 -105z" glyph-name="glyph481" horiz-adv-x="1554"/><glyph d="M539 2048h260l-283 -334h-199zM256 1536h266l-215 -1536h-266z" glyph-name="glyph482" horiz-adv-x="532"/><glyph d="M109 2048h192l125 -233l190 233h191l-264 -350h-269zM256 1536h266l-215 -1536h-266z" glyph-name="glyph483" horiz-adv-x="532"/><glyph d="M324 2048h268l166 -350h-199l-117 235l-182 -235h-201zM256 1536h266l-215 -1536h-266z" glyph-name="glyph484" horiz-adv-x="532"/><glyph d="M199 1702q-63 0 -102.5 44t-30.5 107q8 61 60 105.5t116 44.5q61 0 99 -44t30 -106q-8 -63 -59.5 -107t-112.5 -44zM622.5 1702q-61.5 0 -100.5 44t-30 107q10 61 61 105.5t112.5 44.5t99.5 -44t30 -106q-8 -63 -59.5 -107t-113 -44zM256 1536h266l-215 -1536h-266z" glyph-name="glyph485" horiz-adv-x="532"/><glyph d="M412 1702q-61 0 -99.5 44t-29.5 107q8 61 59 105.5t112.5 44.5t99.5 -44t30 -106q-8 -63 -58.5 -107t-113.5 -44zM256 1536h266l-215 -1536h-266z" glyph-name="glyph486" horiz-adv-x="532"/><glyph d="M256 1536h266l-215 -1536h-266zM114.5 -416q-61.5 0 -100.5 44t-30 108q10 61 60 105t114 44q61 0 99 -44t30 -105q-8 -63 -59.5 -107.5t-113 -44.5z" glyph-name="glyph487" horiz-adv-x="532"/><glyph d="M111 2048h262l127 -334h-195zM256 1536h266l-215 -1536h-266z" glyph-name="glyph488" horiz-adv-x="532"/><glyph d="M119 1884h637l-23 -164h-637zM256 1536h266l-215 -1536h-266z" glyph-name="glyph489" horiz-adv-x="532"/><glyph d="M324 -414q-150 -131 -332 -116q-113 6 -175.5 63t-47.5 164q29 190 280 303h-8l215 1536h266l-215 -1536h-28q-127 -8 -223.5 -96t-108.5 -185q-8 -55 20.5 -87.5t87.5 -32.5q115 0 203 102z" glyph-name="glyph490" horiz-adv-x="532"/><glyph d="M545 1688q-121 0 -183 116q-25 45 -63 45q-41 0 -61.5 -42t-10.5 -103h-155q-6 127 64.5 211t176.5 84q127 0 187 -117q20 -45 61 -45t61.5 40t12.5 103h153q8 -125 -62 -208.5t-181 -83.5zM256 1536h266l-215 -1536h-266z" glyph-name="glyph491" horiz-adv-x="532"/><glyph d="M143 -20q-102 0 -159 20l39 270q63 -25 141 -24q53 0 98 39t53 94l164 1157h264l-165 -1180q-23 -166 -146 -271t-289 -105z" glyph-name="glyph492" horiz-adv-x="759"/><glyph d="M920 0l-525 694l-98 -694h-266l215 1536h266l-98 -696l641 696h309l-684 -758l588 -778h-348z" glyph-name="glyph493" horiz-adv-x="1370"/><glyph d="M940 0l-545 694l-98 -694h-266l215 1536h266l-98 -696l661 696h309l-704 -758l608 -778h-348zM492 -365q-43 16 -66 55.5t-14 86.5q8 61 57 105t113 44q59 0 96 -43t29 -106q-16 -109 -183 -289h-139z" glyph-name="glyph494" horiz-adv-x="1390"/><glyph d="M242 1536h266l-184 -1303h534l-33 -233h-798z" glyph-name="glyph495" horiz-adv-x="991"/><glyph d="M524 2048h260l-282 -334h-197zM242 1536h266l-184 -1303h534l-33 -233h-798z" glyph-name="glyph496" horiz-adv-x="991"/><glyph d="M868 1245q-43 16 -65.5 56t-14.5 88q8 61 57.5 105t112.5 44q59 0 96.5 -44t28.5 -105q-8 -55 -63 -139.5t-119 -149.5h-139zM242 1536h266l-184 -1303h534l-33 -233h-798z" glyph-name="glyph497" horiz-adv-x="1054"/><glyph d="M242 1536h266l-184 -1303h534l-33 -233h-798zM319 -403q-92 37 -81 141q10 63 59 106t113 43q61 0 97 -43t25 -106q-6 -53 -61 -136t-119 -151h-137z" glyph-name="glyph498" horiz-adv-x="991"/><glyph d="M242 1536h266l-184 -1303h534l-33 -233h-798zM368.5 -416q-61.5 0 -100.5 44t-30 108q10 61 60 105t114 44q61 0 99 -44t30 -105q-8 -63 -59.5 -107.5t-113 -44.5z" glyph-name="glyph499" horiz-adv-x="991"/><glyph d="M1106 233l-33 -233h-799l76 547l-100 -90h-160l285 262l114 817h267l-76 -539l90 84h168l-283 -256l-84 -592h535z" glyph-name="glyph500" horiz-adv-x="1239"/><glyph d="M1884 1536l-215 -1536h-264l162 1159l-578 -1159h-262l-258 1159l-162 -1159h-266l215 1536h373l274 -1194l613 1194h368z" glyph-name="glyph501" horiz-adv-x="1894"/><glyph d="M1602 1536l-216 -1536h-266l-676 1128l-157 -1128h-267l216 1536h268l676 -1126l157 1126h265z" glyph-name="glyph502" horiz-adv-x="1607"/><glyph d="M1049 1714h-197l221 334h258zM1602 1536l-216 -1536h-266l-676 1128l-157 -1128h-267l216 1536h268l676 -1126l157 1126h265z" glyph-name="glyph503" horiz-adv-x="1607"/><glyph d="M809 1698l-164 350h191l125 -233l190 233h190l-264 -350h-268zM1602 1536l-216 -1536h-266l-676 1128l-157 -1128h-267l216 1536h268l676 -1126l157 1126h265z" glyph-name="glyph504" horiz-adv-x="1607"/><glyph d="M1602 1536l-216 -1536h-266l-676 1128l-157 -1128h-267l216 1536h268l676 -1126l157 1126h265zM629 -360q-43 16 -64.5 55t-15.5 88q10 61 59 105t110.5 44t98.5 -44t27 -105q-8 -55 -63.5 -139t-118.5 -150h-138z" glyph-name="glyph505" horiz-adv-x="1607"/><glyph d="M946 1702q-63 0 -101 44t-30 107q10 61 60.5 105.5t113.5 44.5q61 0 99 -44t30 -106q-8 -63 -59.5 -107t-112.5 -44zM1602 1536l-216 -1536h-266l-676 1128l-157 -1128h-267l216 1536h268l676 -1126l157 1126h265z" glyph-name="glyph506" horiz-adv-x="1607"/><glyph d="M1602 1536l-216 -1536h-266l-676 1128l-157 -1128h-267l216 1536h268l676 -1126l157 1126h265zM688.5 -115q61.5 0 99 -44t29.5 -105q-8 -63 -58 -107.5t-114 -44.5q-61 0 -99 44t-30 108q8 61 59.5 105t113 44z" glyph-name="glyph507" horiz-adv-x="1607"/><glyph d="M1591 1536l-233 -1657q-23 -172 -149 -253t-312 -81l23 172q74 -2 116.5 30t57.5 132l18 133l-680 1102l-156 -1114h-256l216 1536h258l686 -1112l155 1112h256z" glyph-name="glyph508" horiz-adv-x="1597"/><glyph d="M629 1704q-8 127 62.5 211t176.5 84q123 0 187 -117q18 -45 61 -45q41 0 61.5 41t12.5 102h151q8 -125 -61.5 -208.5t-179.5 -83.5q-121 0 -185 116q-25 45 -61 45q-41 0 -61.5 -41t-12.5 -104h-151zM1602 1536l-216 -1536h-266l-676 1128l-157 -1128h-267l216 1536h268 l676 -1126l157 1126h265z" glyph-name="glyph509" horiz-adv-x="1607"/><glyph d="M723 -20q-328 0 -507 228t-132 560t289.5 560t570.5 228t507 -228t132 -560t-289.5 -560t-570.5 -228zM760 238q225 0 379.5 150.5t187.5 379.5q31 231 -80.5 381.5t-337 150.5t-382 -150.5t-189.5 -381.5q-31 -229 83 -379.5t339 -150.5z" glyph-name="glyph510" horiz-adv-x="1646"/><glyph d="M1094 2048h260l-283 -334h-199zM723 -20q-328 0 -507 228t-132 560t289.5 560t570.5 228t507 -228t132 -560t-289.5 -560t-570.5 -228zM760 238q225 0 379.5 150.5t187.5 379.5q31 231 -80.5 381.5t-337 150.5t-382 -150.5t-189.5 -381.5q-31 -229 83 -379.5t339 -150.5z " glyph-name="glyph511" horiz-adv-x="1646"/><glyph d="M668 2048h190l125 -233l191 233h190l-264 -350h-269zM723 -20q-328 0 -507 228t-132 560t289.5 560t570.5 228t507 -228t132 -560t-289.5 -560t-570.5 -228zM760 238q225 0 379.5 150.5t187.5 379.5q31 231 -80.5 381.5t-337 150.5t-382 -150.5t-189.5 -381.5 q-31 -229 83 -379.5t339 -150.5z" glyph-name="glyph512" horiz-adv-x="1646"/><glyph d="M881 2048h268l166 -350h-199l-117 235l-184 -235h-197zM723 -20q-328 0 -507 228t-132 560t289.5 560t570.5 228t507 -228t132 -560t-289.5 -560t-570.5 -228zM760 238q225 0 379.5 150.5t187.5 379.5q31 231 -80.5 381.5t-337 150.5t-382 -150.5t-189.5 -381.5 q-31 -229 83 -379.5t339 -150.5z" glyph-name="glyph513" horiz-adv-x="1646"/><glyph d="M754 1702q-61 0 -99.5 44t-29.5 107q8 61 59 105.5t112.5 44.5t99.5 -44t30 -106q-8 -63 -58.5 -107t-113.5 -44zM1179.5 1702q-61.5 0 -100.5 44t-30 107q8 61 60 105.5t112 44.5q63 0 101 -44t28 -106q-8 -63 -58.5 -107t-112 -44zM723 -20q-328 0 -507 228t-132 560 t289.5 560t570.5 228t507 -228t132 -560t-289.5 -560t-570.5 -228zM760 238q225 0 379.5 150.5t187.5 379.5q31 231 -80.5 381.5t-337 150.5t-382 -150.5t-189.5 -381.5q-31 -229 83 -379.5t339 -150.5z" glyph-name="glyph514" horiz-adv-x="1646"/><glyph d="M723 -20q-328 0 -507 228t-132 560t289.5 560t570.5 228t507 -228t132 -560t-289.5 -560t-570.5 -228zM760 238q225 0 379.5 150.5t187.5 379.5q31 231 -80.5 381.5t-337 150.5t-382 -150.5t-189.5 -381.5q-31 -229 83 -379.5t339 -150.5zM670 -416q-63 0 -101.5 44 t-29.5 108q10 61 60 105t114 44q61 0 99 -44t30 -105q-8 -63 -59.5 -107.5t-112.5 -44.5z" glyph-name="glyph515" horiz-adv-x="1646"/><glyph d="M668 2048h258l129 -334h-197zM723 -20q-328 0 -507 228t-132 560t289.5 560t570.5 228t507 -228t132 -560t-289.5 -560t-570.5 -228zM760 238q225 0 379.5 150.5t187.5 379.5q31 231 -80.5 381.5t-337 150.5t-382 -150.5t-189.5 -381.5q-31 -229 83 -379.5t339 -150.5z " glyph-name="glyph516" horiz-adv-x="1646"/><glyph d="M1016 2048h241l-403 -362h-180zM1413 2048h244l-402 -362h-182zM723 -20q-328 0 -507 228t-132 560t289.5 560t570.5 228t507 -228t132 -560t-289.5 -560t-570.5 -228zM760 238q225 0 379.5 150.5t187.5 379.5q31 231 -80.5 381.5t-337 150.5t-382 -150.5t-189.5 -381.5 q-31 -229 83 -379.5t339 -150.5z" glyph-name="glyph517" horiz-adv-x="1646"/><glyph d="M676 1884h635l-25 -164h-635zM723 -20q-328 0 -507 228t-132 560t289.5 560t570.5 228t507 -228t132 -560t-289.5 -560t-570.5 -228zM760 238q225 0 379.5 150.5t187.5 379.5q31 231 -80.5 381.5t-337 150.5t-382 -150.5t-189.5 -381.5q-31 -229 83 -379.5t339 -150.5z " glyph-name="glyph518" horiz-adv-x="1646"/><glyph d="M1409 1378q109 -111 155 -269.5t19 -340.5q-47 -332 -289.5 -560t-570.5 -228q-211 0 -363 100l-106 -135h-164l172 213q-109 109 -156 267.5t-22 342.5q47 332 289.5 560t570.5 228q209 0 365 -100l106 133h164zM338 768q-35 -242 96 -395l705 870q-98 57 -230 57 q-225 0 -381.5 -150.5t-189.5 -381.5zM760 238q225 0 379.5 150.5t187.5 379.5q35 244 -90 395l-702 -870q88 -55 225 -55z" glyph-name="glyph519" horiz-adv-x="1646"/><glyph d="M1071 1714h-199l222 334h260zM1409 1378q109 -111 155 -269.5t19 -340.5q-47 -332 -289.5 -560t-570.5 -228q-211 0 -363 100l-106 -135h-164l172 213q-109 109 -156 267.5t-22 342.5q47 332 289.5 560t570.5 228q209 0 365 -100l106 133h164zM338 768q-35 -242 96 -395 l705 870q-98 57 -230 57q-225 0 -381.5 -150.5t-189.5 -381.5zM760 238q225 0 379.5 150.5t187.5 379.5q35 244 -90 395l-702 -870q88 -55 225 -55z" glyph-name="glyph520" horiz-adv-x="1646"/><glyph d="M1100 1688q-121 0 -182 116q-25 45 -64 45q-41 0 -61.5 -42t-10.5 -103h-153q-8 127 62.5 211t176.5 84q127 0 187 -117q20 -45 61 -45t61.5 41t12.5 102h153q8 -125 -62 -208.5t-181 -83.5zM723 -20q-328 0 -507 228t-132 560t289.5 560t570.5 228t507 -228t132 -560 t-289.5 -560t-570.5 -228zM760 238q225 0 379.5 150.5t187.5 379.5q31 231 -80.5 381.5t-337 150.5t-382 -150.5t-189.5 -381.5q-31 -229 83 -379.5t339 -150.5z" glyph-name="glyph521" horiz-adv-x="1646"/><glyph d="M2478 1305h-725l-57 -420h637l-33 -234h-639l-59 -418h725l-31 -233h-991l28 201q-256 -219 -571 -219q-328 0 -525.5 230t-152.5 558q31 215 162 396.5t327.5 287t411.5 105.5q313 0 508 -218l27 195h991zM798.5 238q223.5 0 400.5 154.5t206 377.5q33 223 -100.5 378 t-356.5 155t-399 -155t-209 -378q-29 -223 103 -377.5t355.5 -154.5z" glyph-name="glyph522" horiz-adv-x="2502"/><glyph d="M850 1536q184 0 294.5 -146.5t84 -337t-178 -334t-335.5 -143.5h-342l-80 -575h-266l215 1536h608zM723 795q94 0 172 77.5t92 178.5q12 98 -44 176t-148 78h-320l-72 -510h320z" glyph-name="glyph523" horiz-adv-x="1222"/><glyph d="M817 1317q186 0 296 -131t83 -320q-27 -182 -172 -309t-332 -127h-348l-59 -430h-258l184 1317l29 217h258l-29 -217h348zM715 657q92 0 163.5 63.5t86.5 153.5q12 90 -43.5 153t-145.5 63h-340l-61 -433h340z" glyph-name="glyph524" horiz-adv-x="1214"/><glyph d="M1552 205l-28 -205h-58q-158 0 -245 113l-19 20q-219 -154 -479 -153q-328 0 -507 228t-132 560t289.5 560t570.5 228t507 -228t132 -560q-37 -266 -209 -475l29 -37q45 -51 129 -51h20zM760 238q162 0 291 81l-193 240l170 154l191 -230q84 125 108 285 q31 231 -80.5 381.5t-337 150.5t-382 -150.5t-189.5 -381.5q-31 -229 83 -379.5t339 -150.5z" glyph-name="glyph525" horiz-adv-x="1648"/><glyph d="M1147 0h-299l-285 592h-192l-84 -592h-267l216 1536h610q182 0 293.5 -147.5t85.5 -337.5q-23 -156 -135.5 -283t-258.5 -160zM731 801q92 0 164 71.5t88 180.5q14 106 -38 179t-142 73h-332l-72 -504h332z" glyph-name="glyph526" horiz-adv-x="1306"/><glyph d="M891 1714h-197l221 334h259zM1212 0h-299l-282 592h-260l-84 -592h-267l216 1536h675q184 0 295 -147.5t84 -337.5q-23 -156 -134.5 -283t-256.5 -160zM799 801q90 0 162.5 72.5t87 179t-36.5 179.5t-142 73h-399l-72 -504h400z" glyph-name="glyph527" horiz-adv-x="1374"/><glyph d="M651 1698l-162 350h191l123 -233l192 233h191l-266 -350h-269zM1212 0h-299l-282 592h-260l-84 -592h-267l216 1536h675q184 0 295 -147.5t84 -337.5q-23 -156 -134.5 -283t-256.5 -160zM799 801q90 0 162.5 72.5t87 179t-36.5 179.5t-142 73h-399l-72 -504h400z" glyph-name="glyph528" horiz-adv-x="1374"/><glyph d="M1212 0h-299l-282 592h-260l-84 -592h-267l216 1536h675q184 0 295 -147.5t84 -337.5q-23 -156 -134.5 -283t-256.5 -160zM799 801q90 0 162.5 72.5t87 179t-36.5 179.5t-142 73h-399l-72 -504h400zM463 -365q-43 16 -65.5 56.5t-14.5 87.5q8 61 57 105t113 44 q61 0 97 -44t28 -105q-6 -55 -62.5 -138t-119.5 -151h-138z" glyph-name="glyph529" horiz-adv-x="1374"/><glyph d="M557 -20q-244 0 -375 137t-121 358h238q20 -248 301 -248q127 0 210 50.5t97 150.5q8 55 -11 98t-68.5 76t-97.5 55.5t-122 53.5q-18 6 -26 10q-96 39 -150.5 66.5t-121 77.5t-92 119t-13.5 157q29 188 196.5 301.5t386.5 113.5q475 0 494 -479h-246q2 104 -64.5 180 t-207.5 76q-106 0 -188 -49t-95 -133q-6 -43 11.5 -78t65.5 -65.5t86 -49t114 -49.5q209 -88 282 -143q168 -127 140 -334q-31 -217 -206 -334.5t-417 -117.5z" glyph-name="glyph530" horiz-adv-x="1280"/><glyph d="M971 2048h258l-283 -334h-196zM561 -20q-244 0 -377 137t-123 358h238q8 -104 80 -176t225 -72q129 0 214 50.5t100 150.5q6 39 -1.5 71.5t-37 61.5t-49 46.5t-77 44t-76 33.5t-89.5 36q-78 31 -123 51.5t-107.5 59t-93.5 77.5t-50 99.5t-9 132.5q29 188 198.5 301.5 t389.5 113.5q477 0 495 -473h-248q4 100 -64.5 175t-205.5 75q-106 0 -191 -49t-98 -133q-6 -43 12.5 -78t68.5 -66.5t87 -48t115 -49.5q209 -88 283 -141q172 -127 143 -336q-31 -217 -209 -334.5t-420 -117.5z" glyph-name="glyph531" horiz-adv-x="1290"/><glyph d="M543 2048h190l125 -233l191 233h190l-264 -350h-268zM561 -20q-244 0 -377 137t-123 358h238q8 -104 80 -176t225 -72q129 0 214 50.5t100 150.5q6 39 -1.5 71.5t-37 61.5t-49 46.5t-77 44t-76 33.5t-89.5 36q-78 31 -123 51.5t-107.5 59t-93.5 77.5t-50 99.5t-9 132.5 q29 188 198.5 301.5t389.5 113.5q477 0 495 -473h-248q4 100 -64.5 175t-205.5 75q-106 0 -191 -49t-98 -133q-6 -43 12.5 -78t68.5 -66.5t87 -48t115 -49.5q209 -88 283 -141q172 -127 143 -336q-31 -217 -209 -334.5t-420 -117.5z" glyph-name="glyph532" horiz-adv-x="1290"/><glyph d="M764 909q209 -88 283 -141q172 -127 143 -336q-29 -207 -190.5 -322.5t-387.5 -127.5l-73 -109q106 18 170.5 -36t50.5 -150q-12 -92 -85 -155.5t-165 -63.5q-74 0 -137.5 41.5t-81.5 101.5l121 43q14 -29 48 -48.5t66 -19.5q41 0 74 30t37 71q10 61 -39 82.5t-131 -11.5 l-86 58l111 168q-211 20 -326 154t-105 337h238q8 -104 80 -176t225 -72q129 0 214 50.5t100 150.5q6 39 -1.5 71.5t-37 61.5t-49 46.5t-77 44t-76 33.5t-89.5 36q-78 31 -123 51.5t-107.5 59t-93.5 77.5t-50 99.5t-9 132.5q29 188 198.5 301.5t389.5 113.5q477 0 495 -473 h-248q4 100 -64.5 175t-205.5 75q-106 0 -191 -49t-98 -133q-6 -43 12.5 -78t68.5 -66.5t87 -48t115 -49.5z" glyph-name="glyph533" horiz-adv-x="1290"/><glyph d="M561 -20q-244 0 -377 137t-123 358h238q8 -104 80 -176t225 -72q129 0 214 50.5t100 150.5q6 39 -1.5 71.5t-37 61.5t-49 46.5t-77 44t-76 33.5t-89.5 36q-78 31 -123 51.5t-107.5 59t-93.5 77.5t-50 99.5t-9 132.5q29 188 198.5 301.5t389.5 113.5q477 0 495 -473h-248 q4 100 -64.5 175t-205.5 75q-106 0 -191 -49t-98 -133q-6 -43 12.5 -78t68.5 -66.5t87 -48t115 -49.5q209 -88 283 -141q172 -127 143 -336q-31 -217 -209 -334.5t-420 -117.5zM467 -442q-41 16 -63.5 55t-16.5 86q8 63 58.5 106t111.5 43t97 -43t28 -106q-6 -53 -61.5 -136 t-118.5 -151h-140z" glyph-name="glyph534" horiz-adv-x="1290"/><glyph d="M561 -20q-244 0 -377 137t-123 358h238q8 -104 80 -176t225 -72q129 0 214 50.5t100 150.5q6 39 -1.5 71.5t-37 61.5t-49 46.5t-77 44t-76 33.5t-89.5 36q-78 31 -123 51.5t-107.5 59t-93.5 77.5t-50 99.5t-9 132.5q29 188 198.5 301.5t389.5 113.5q477 0 495 -473h-248 q4 100 -64.5 175t-205.5 75q-106 0 -191 -49t-98 -133q-6 -43 12.5 -78t68.5 -66.5t87 -48t115 -49.5q209 -88 283 -141q172 -127 143 -336q-31 -217 -209 -334.5t-420 -117.5zM526.5 -416q-61.5 0 -100.5 44t-31 108q10 61 61.5 106t113 45t99.5 -45t29.5 -106.5 t-59.5 -106.5t-112.5 -45z" glyph-name="glyph535" horiz-adv-x="1290"/><glyph d="M1280 1305h-442l-185 -1305h-262l182 1305h-444l31 231h1153z" glyph-name="glyph536" horiz-adv-x="1241"/><glyph d="M1280 1305h-442l-66 -461h74l141 -25l-106 -127h-129l-99 -692h-262l98 707l-180 12l72 125h129l63 461h-444l31 231h1153z" glyph-name="glyph537" horiz-adv-x="1241"/><glyph d="M657 1698l-163 350h190l125 -233l190 233h191l-264 -350h-269zM1280 1305h-442l-185 -1305h-262l182 1305h-444l31 231h1153z" glyph-name="glyph538" horiz-adv-x="1241"/><glyph d="M160 1536h1153l-33 -231h-442l-185 -1305h-73l-84 -123q106 18 170.5 -36t50.5 -150q-12 -92 -85 -155.5t-165 -63.5q-74 0 -137.5 43t-81.5 102l121 41q14 -29 48 -48.5t66 -19.5q41 0 73 30t38 71q10 61 -39 82.5t-131 -11.5l-88 58l121 180h-66l182 1305h-444z" glyph-name="glyph539" horiz-adv-x="1241"/><glyph d="M1280 1305h-442l-185 -1305h-262l182 1305h-444l31 231h1153zM418 -428q-43 16 -64.5 56t-15.5 87q10 61 59 105.5t110.5 44.5t98.5 -44t27 -106q-6 -55 -62.5 -139t-119.5 -149h-138z" glyph-name="glyph540" horiz-adv-x="1241"/><glyph d="M1280 1305h-442l-185 -1305h-262l182 1305h-444l31 231h1153zM506 -115q61 0 99 -44t30 -105q-8 -63 -59.5 -107.5t-113 -44.5t-100 44t-30.5 108q10 61 60.5 105t113.5 44z" glyph-name="glyph541" horiz-adv-x="1241"/><glyph d="M633 -20q-256 0 -413 150.5t-126 367.5l146 1038h266l-139 -991q-18 -139 69.5 -235.5t231 -96.5t258 96.5t135.5 235.5l139 991h266l-145 -1038q-31 -217 -230.5 -367.5t-457.5 -150.5z" glyph-name="glyph542" horiz-adv-x="1476"/><glyph d="M1024 2048h260l-283 -334h-196zM635 -20q-258 0 -415 150.5t-126 367.5l146 1038h266l-139 -991q-18 -139 69.5 -235.5t231.5 -96.5q145 0 262 97.5t137 234.5l139 991h267l-146 -1038q-31 -217 -233.5 -367.5t-458.5 -150.5z" glyph-name="glyph543" horiz-adv-x="1482"/><glyph d="M578 2048h190l125 -233l190 233h191l-264 -350h-269zM633 -20q-256 0 -413 150.5t-126 367.5l146 1038h266l-139 -991q-18 -139 69.5 -235.5t231 -96.5t258 96.5t135.5 235.5l139 991h266l-145 -1038q-31 -217 -230.5 -367.5t-457.5 -150.5z" glyph-name="glyph544" horiz-adv-x="1476"/><glyph d="M811 2048h268l166 -350h-198l-117 235l-182 -235h-199zM635 -20q-258 0 -415 150.5t-126 367.5l146 1038h266l-139 -991q-18 -139 69.5 -235.5t231.5 -96.5q145 0 262 97.5t137 234.5l139 991h267l-146 -1038q-31 -217 -233.5 -367.5t-458.5 -150.5z" glyph-name="glyph545" horiz-adv-x="1482"/><glyph d="M686 1702q-63 0 -101 44t-30 107q10 61 60.5 105.5t113.5 44.5q61 0 99 -44t30 -106q-8 -63 -59.5 -107t-112.5 -44zM1110 1702q-61 0 -100 44t-31 107q10 61 61.5 105.5t112.5 44.5t99 -44t30 -106q-8 -63 -59.5 -107t-112.5 -44zM635 -20q-258 0 -415 150.5t-126 367.5 l146 1038h266l-139 -991q-18 -139 69.5 -235.5t231.5 -96.5q145 0 262 97.5t137 234.5l139 991h267l-146 -1038q-31 -217 -233.5 -367.5t-458.5 -150.5z" glyph-name="glyph546" horiz-adv-x="1482"/><glyph d="M633 -20q-256 0 -413 150.5t-126 367.5l146 1038h266l-139 -991q-18 -139 69.5 -235.5t231 -96.5t258 96.5t135.5 235.5l139 991h266l-145 -1038q-31 -217 -230.5 -367.5t-457.5 -150.5zM580 -416q-63 0 -101.5 44t-29.5 108q10 61 60 105t114 44q61 0 99 -44t30 -105 q-8 -63 -59.5 -107.5t-112.5 -44.5z" glyph-name="glyph547" horiz-adv-x="1476"/><glyph d="M598 2048h260l129 -334h-196zM635 -20q-258 0 -415 150.5t-126 367.5l146 1038h266l-139 -991q-18 -139 69.5 -235.5t231.5 -96.5q145 0 262 97.5t137 234.5l139 991h267l-146 -1038q-31 -217 -233.5 -367.5t-458.5 -150.5z" glyph-name="glyph548" horiz-adv-x="1482"/><glyph d="M946 2048h244l-404 -362h-182zM1346 2048h243l-403 -362h-182zM635 -20q-258 0 -415 150.5t-126 367.5l146 1038h266l-139 -991q-18 -139 69.5 -235.5t231.5 -96.5q145 0 262 97.5t137 234.5l139 991h267l-146 -1038q-31 -217 -233.5 -367.5t-458.5 -150.5z" glyph-name="glyph549" horiz-adv-x="1525"/><glyph d="M606 1884h635l-22 -164h-635zM635 -20q-258 0 -415 150.5t-126 367.5l146 1038h266l-139 -991q-18 -139 69.5 -235.5t231.5 -96.5q145 0 262 97.5t137 234.5l139 991h267l-146 -1038q-31 -217 -233.5 -367.5t-458.5 -150.5z" glyph-name="glyph550" horiz-adv-x="1482"/><glyph d="M1206 1536h267l-146 -1038q-27 -195 -196.5 -339.5t-397.5 -172.5h2q-88 -37 -152.5 -112t-74.5 -148q-6 -55 21.5 -88t86.5 -33q53 0 109.5 28.5t93.5 73.5l66 -115q-145 -127 -332 -116q-113 6 -174.5 64.5t-44.5 164.5q23 172 227 279q-229 23 -362 168t-105 346 l146 1038h266l-139 -991q-18 -139 69.5 -235.5t231.5 -96.5q145 0 262 97.5t137 234.5z" glyph-name="glyph551" horiz-adv-x="1482"/><glyph d="M891 1647q-96 0 -154.5 67.5t-44.5 163.5q14 92 91 159.5t171.5 67.5t151.5 -67.5t43 -159.5q-12 -94 -88 -162.5t-170 -68.5zM905 1757q51 0 90 34t47 87q6 49 -23.5 85t-78.5 36q-51 0 -90 -36t-45 -85q-8 -53 21.5 -87t78.5 -34zM635 -20q-258 0 -415 150.5 t-126 367.5l146 1038h266l-139 -991q-18 -139 69.5 -235.5t231.5 -96.5q145 0 262 97.5t137 234.5l139 991h267l-146 -1038q-31 -217 -233.5 -367.5t-458.5 -150.5z" glyph-name="glyph552" horiz-adv-x="1482"/><glyph d="M1032 1688q-121 0 -184 116q-25 45 -64 45t-59 -42t-12 -103h-154q-8 127 63.5 211t176.5 84q125 0 188 -117q18 -45 62 -45q41 0 61 40t12 103h152q8 -125 -61.5 -208.5t-180.5 -83.5zM635 -20q-258 0 -415 150.5t-126 367.5l146 1038h266l-139 -991 q-18 -139 69.5 -235.5t231.5 -96.5q145 0 262 97.5t137 234.5l139 991h267l-146 -1038q-31 -217 -233.5 -367.5t-458.5 -150.5z" glyph-name="glyph553" horiz-adv-x="1482"/><glyph d="M1655 1536l-832 -1536h-299l-401 1536h299l295 -1227l639 1227h299z" glyph-name="glyph554" horiz-adv-x="1533"/><glyph d="M2376 1536l-656 -1536h-293l-215 1083l-489 -1083h-293l-258 1536h289l164 -1241l520 1241h264l199 -1243l481 1243h287z" glyph-name="glyph555" horiz-adv-x="2308"/><glyph d="M1419 1714h-198l221 334h260zM2376 1536l-656 -1536h-293l-215 1083l-489 -1083h-293l-258 1536h289l164 -1241l520 1241h264l199 -1243l481 1243h287z" glyph-name="glyph556" horiz-adv-x="2308"/><glyph d="M1163 1698h-198l262 350h268l166 -350h-199l-116 235zM2376 1536l-656 -1536h-293l-215 1083l-489 -1083h-293l-258 1536h289l164 -1241l520 1241h264l199 -1243l481 1243h287z" glyph-name="glyph557" horiz-adv-x="2308"/><glyph d="M1102 1702q-63 0 -101 44t-30 107q8 61 59 105.5t113 44.5q63 0 101 -44t28 -106q-8 -63 -58.5 -107t-111.5 -44zM1525.5 1702q-61.5 0 -100.5 44t-30 107q8 61 60 105.5t113.5 44.5t99.5 -44t28 -106q-8 -63 -58.5 -107t-112 -44zM2376 1536l-656 -1536h-293l-215 1083 l-489 -1083h-293l-258 1536h289l164 -1241l520 1241h264l199 -1243l481 1243h287z" glyph-name="glyph558" horiz-adv-x="2308"/><glyph d="M1206 1714l-190 334h258l129 -334h-197zM2376 1536l-656 -1536h-293l-215 1083l-489 -1083h-293l-258 1536h289l164 -1241l520 1241h264l199 -1243l481 1243h287z" glyph-name="glyph559" horiz-adv-x="2308"/><glyph d="M961 0l-289 567l-447 -567h-305l639 786l-399 750h303l270 -530l422 530h301l-610 -750l420 -786h-305z" glyph-name="glyph560" horiz-adv-x="1372"/><glyph d="M827 727l-102 -727h-264l100 723l-424 813h297l291 -586l459 586h293z" glyph-name="glyph561" horiz-adv-x="1368"/><glyph d="M938 1714h-199l222 334h260zM827 727l-102 -727h-264l100 723l-424 813h297l291 -586l459 586h293z" glyph-name="glyph562" horiz-adv-x="1368"/><glyph d="M682 1698h-199l262 350h269l166 -350h-199l-117 235zM827 727l-102 -727h-264l100 723l-424 813h297l291 -586l459 586h293z" glyph-name="glyph563" horiz-adv-x="1368"/><glyph d="M621 1702q-63 0 -101.5 44t-30.5 107q10 61 60.5 105.5t114.5 44.5q61 0 99 -44t30 -106q-8 -63 -59.5 -107t-112.5 -44zM1044.5 1702q-61.5 0 -100.5 44t-31 107q10 61 61.5 105.5t113 44.5t99.5 -44t30 -106q-8 -63 -59.5 -107t-113 -44zM827 727l-102 -727h-264 l100 723l-424 813h297l291 -586l459 586h293z" glyph-name="glyph564" horiz-adv-x="1368"/><glyph d="M561 723l-424 813h297l291 -586l459 586h293l-650 -809l-102 -727h-264zM580 -115q61 0 99 -44t30 -105q-8 -63 -59.5 -107.5t-112.5 -44.5q-63 0 -101.5 44t-29.5 108q10 61 60.5 105t113.5 44z" glyph-name="glyph565" horiz-adv-x="1368"/><glyph d="M727 1714l-192 334h260l127 -334h-195zM827 727l-102 -727h-264l100 723l-424 813h297l291 -586l459 586h293z" glyph-name="glyph566" horiz-adv-x="1368"/><glyph d="M496 1704q-8 127 62.5 211t176.5 84q127 0 187 -117q20 -45 61 -45t61.5 40t12.5 103h153q8 -125 -62.5 -208.5t-180.5 -83.5q-121 0 -183 116q-25 45 -63 45q-41 0 -61.5 -42t-10.5 -103h-153zM827 727l-102 -727h-264l100 723l-424 813h297l291 -586l459 586h293z" glyph-name="glyph567" horiz-adv-x="1368"/><glyph d="M1184 233l-33 -233h-1169l18 141l965 1164h-779l31 231h1137l-19 -141l-964 -1162h813z" glyph-name="glyph568" horiz-adv-x="1320"/><glyph d="M932 1714h-199l221 334h260zM1184 233l-33 -233h-1169l18 141l965 1164h-779l31 231h1137l-19 -141l-964 -1162h813z" glyph-name="glyph569" horiz-adv-x="1320"/><glyph d="M690 1698l-164 350h191l125 -233l190 233h191l-265 -350h-268zM1184 233l-33 -233h-1169l18 141l965 1164h-779l31 231h1137l-19 -141l-964 -1162h813z" glyph-name="glyph570" horiz-adv-x="1320"/><glyph d="M827 1702q-61 0 -99 44t-30 107q8 61 59.5 105.5t113 44.5t99.5 -44t29 -106q-8 -63 -58.5 -107t-113.5 -44zM1184 233l-33 -233h-1169l18 141l965 1164h-779l31 231h1137l-19 -141l-964 -1162h813z" glyph-name="glyph571" horiz-adv-x="1320"/><glyph d="M1184 233l-33 -233h-1169l18 141l965 1164h-779l31 231h1137l-19 -141l-964 -1162h813zM547 -115q63 0 101 -44t28 -105q-8 -63 -58.5 -107.5t-111.5 -44.5q-63 0 -101 44t-30 108q8 61 59.5 105t112.5 44z" glyph-name="glyph572" horiz-adv-x="1320"/><glyph d="M283 -18q-141 8 -217 89t-55.5 218t151.5 222t323 85h213l9 63q29 184 -156 185q-205 0 -244 -166h-211q35 158 156 260t334 102q193 0 292 -95t70 -290l-90 -655h-211l-2 115q-118 -143 -362 -133zM387 172q74 0 147.5 34t122.5 91l19 135h-168q-109 0 -172.5 -36 t-71.5 -95t26 -94t97 -35z" glyph-name="glyph573" horiz-adv-x="1001"/><glyph d="M1049 1536l-283 -334h-197l222 334h258zM975 348q-20 -141 67 -141l-28 -207h-76q-61 2 -96 8t-74 36t-53 83q-55 -63 -159.5 -102t-219.5 -39q-164 0 -253 89t-69 244q20 152 160.5 246t351.5 111l242 20l4 25q27 201 -176 201q-96 0 -168 -47.5t-94 -143.5h-232 q37 174 169 290t362 116q211 0 317.5 -106.5t75.5 -313.5q-22 -172 -51 -369zM719 340l22 174l-190 -20q-246 -29 -264 -162q-8 -63 33.5 -101t111.5 -38q84 0 163 43t124 104z" glyph-name="glyph574" horiz-adv-x="1159"/><glyph d="M578 1147q-160 0 -245 89t-63 251h150q-10 -76 40 -133.5t140 -57.5q92 0 158.5 57.5t77.5 133.5h149q-23 -162 -133 -251t-274 -89zM336 -14q-164 0 -253 89t-69 244q20 152 160.5 246t351.5 111l242 20l4 25q27 201 -176 201q-96 0 -168 -47.5t-94 -143.5h-232 q37 174 169 290t362 116q211 0 317.5 -106.5t75.5 -313.5q-23 -172 -51 -369q-20 -141 67 -141l-28 -207h-76q-61 2 -96 8t-74 36t-53 83q-55 -63 -159.5 -102t-219.5 -39zM432 193q84 0 163 43t124 104l22 174l-190 -20q-246 -29 -264 -162q-8 -63 33.5 -101t111.5 -38z " glyph-name="glyph575" horiz-adv-x="1159"/><glyph d="M471 1186l-164 350h191l125 -233l190 233h191l-265 -350h-268zM336 -14q-164 0 -253 89t-69 244q20 152 160.5 246t351.5 111l242 20l4 25q27 201 -176 201q-96 0 -168 -47.5t-94 -143.5h-232q37 174 169 290t362 116q211 0 317.5 -106.5t75.5 -313.5q-23 -172 -51 -369 q-20 -141 67 -141l-28 -207h-76q-61 2 -96 8t-74 36t-53 83q-55 -63 -159.5 -102t-219.5 -39zM432 193q84 0 163 43t124 104l22 174l-190 -20q-246 -29 -264 -162q-8 -63 33.5 -101t111.5 -38z" glyph-name="glyph576" horiz-adv-x="1159"/><glyph d="M623 1421l-183 -235h-198l262 350h268l166 -350h-199zM975 348q-20 -141 67 -141l-28 -207h-76q-61 2 -96 8t-74 36t-53 83q-55 -63 -159.5 -102t-219.5 -39q-164 0 -253 89t-69 244q20 152 160.5 246t351.5 111l242 20l4 25q27 201 -176 201q-96 0 -168 -47.5 t-94 -143.5h-232q37 174 169 290t362 116q211 0 317.5 -106.5t75.5 -313.5q-22 -172 -51 -369zM719 340l22 174l-190 -20q-246 -29 -264 -162q-8 -63 33.5 -101t111.5 -38q84 0 163 43t124 104z" glyph-name="glyph577" horiz-adv-x="1159"/><glyph d="M375 1190q-63 0 -101 44t-30 107q10 61 60 105.5t114 44.5q61 0 99 -44t30 -106q-8 -63 -59.5 -107t-112.5 -44zM798.5 1190q-61.5 0 -100.5 44t-30 107q8 61 60 105.5t113.5 44.5t99.5 -44t30 -106q-8 -63 -59.5 -107t-113 -44zM336 -14q-164 0 -253 89t-69 244 q20 152 160.5 246t351.5 111l242 20l4 25q27 201 -176 201q-96 0 -168 -47.5t-94 -143.5h-232q37 174 169 290t362 116q211 0 317.5 -106.5t75.5 -313.5q-23 -172 -51 -369q-20 -141 67 -141l-28 -207h-76q-61 2 -96 8t-74 36t-53 83q-55 -63 -159.5 -102t-219.5 -39z M432 193q84 0 163 43t124 104l22 174l-190 -20q-246 -29 -264 -162q-8 -63 33.5 -101t111.5 -38z" glyph-name="glyph578" horiz-adv-x="1159"/><glyph d="M336 -14q-164 0 -253 89t-69 244q20 152 160.5 246t351.5 111l242 20l4 25q27 201 -176 201q-96 0 -168 -47.5t-94 -143.5h-232q37 174 169 290t362 116q211 0 317.5 -106.5t75.5 -313.5q-23 -172 -51 -369q-20 -141 67 -141l-28 -207h-76q-61 2 -96 8t-74 36t-53 83 q-55 -63 -159.5 -102t-219.5 -39zM432 193q84 0 163 43t124 104l22 174l-190 -20q-246 -29 -264 -162q-8 -63 33.5 -101t111.5 -38zM442 -115q61 0 99.5 -44t29.5 -105q-8 -63 -59 -107.5t-113 -44.5q-63 0 -101 44t-30 108q10 61 60.5 105t113.5 44z" glyph-name="glyph579" horiz-adv-x="1159"/><glyph d="M752 1202h-197l-190 334h258zM975 348q-20 -141 67 -141l-28 -207h-76q-61 2 -96 8t-74 36t-53 83q-55 -63 -159.5 -102t-219.5 -39q-164 0 -253 89t-69 244q20 152 160.5 246t351.5 111l242 20l4 25q27 201 -176 201q-96 0 -168 -47.5t-94 -143.5h-232q37 174 169 290 t362 116q211 0 317.5 -106.5t75.5 -313.5q-22 -172 -51 -369zM719 340l22 174l-190 -20q-246 -29 -264 -162q-8 -63 33.5 -101t111.5 -38q84 0 163 43t124 104z" glyph-name="glyph580" horiz-adv-x="1159"/><glyph d="M893 1208h-635l23 164h634zM336 -14q-164 0 -253 89t-69 244q20 152 160.5 246t351.5 111l242 20l4 25q27 201 -176 201q-96 0 -168 -47.5t-94 -143.5h-232q37 174 169 290t362 116q211 0 317.5 -106.5t75.5 -313.5q-23 -172 -51 -369q-20 -141 67 -141l-28 -207h-76 q-61 2 -96 8t-74 36t-53 83q-55 -63 -159.5 -102t-219.5 -39zM432 193q84 0 163 43t124 104l22 174l-190 -20q-246 -29 -264 -162q-8 -63 33.5 -101t111.5 -38z" glyph-name="glyph581" horiz-adv-x="1159"/><glyph d="M336 -14q-164 0 -253 89t-69 244q20 152 160.5 246t351.5 111l242 20l4 25q27 201 -176 201q-96 0 -168 -47.5t-94 -143.5h-232q37 174 169 290t362 116q211 0 317.5 -106.5t75.5 -313.5q-23 -172 -51 -369q-20 -141 67 -141l-28 -207h-76q-61 2 -96 8t-74 36t-53 83 q-55 -63 -159.5 -102t-219.5 -39zM432 193q84 0 163 43t124 104l22 174l-190 -20q-246 -29 -264 -162q-8 -63 33.5 -101t111.5 -38zM569 -530q-113 6 -174 63t-47 164q29 195 289 303h211q-133 -29 -221 -108.5t-103 -172.5q-8 -55 20.5 -87.5t88.5 -32.5q115 0 203 102 l65 -115q-150 -130 -332 -116z" glyph-name="glyph582" horiz-adv-x="1159"/><glyph d="M975 348q-20 -141 67 -141l-28 -207h-76q-61 2 -96 8t-74 36t-53 83q-55 -63 -159.5 -102t-219.5 -39q-164 0 -253 89t-69 244q20 152 160.5 246t351.5 111l242 20l4 25q27 201 -176 201q-96 0 -168 -47.5t-94 -143.5h-232q35 164 154 276.5t322 127.5q-94 2 -149.5 69.5 t-43.5 161.5q14 92 91 159.5t171 67.5t151.5 -67.5t45.5 -159.5q-12 -86 -79 -152.5t-153 -76.5h21q211 0 317.5 -106.5t75.5 -313.5q-22 -172 -51 -369zM498 1366q-8 -53 21.5 -87t80.5 -34q49 0 88 34t47 87q6 49 -23.5 85t-78.5 36q-51 0 -90 -36t-45 -85zM719 340 l22 174l-190 -20q-246 -29 -264 -162q-8 -63 33.5 -101t111.5 -38q84 0 163 43t124 104z" glyph-name="glyph583" horiz-adv-x="1159"/><glyph d="M260 1192q-6 127 64.5 211t177.5 84q127 0 186 -117q20 -45 61.5 -45t61.5 40t12 103h154q8 -125 -62.5 -208.5t-181.5 -83.5q-121 0 -184 116q-20 45 -61.5 45t-61.5 -41t-12 -104h-154zM336 -14q-164 0 -253 89t-69 244q20 152 160.5 246t351.5 111l242 20l4 25 q27 201 -176 201q-96 0 -168 -47.5t-94 -143.5h-232q37 174 169 290t362 116q211 0 317.5 -106.5t75.5 -313.5q-23 -172 -51 -369q-20 -141 67 -141l-28 -207h-76q-61 2 -96 8t-74 36t-53 83q-55 -63 -159.5 -102t-219.5 -39zM432 193q84 0 163 43t124 104l22 174l-190 -20 q-246 -29 -264 -162q-8 -63 33.5 -101t111.5 -38z" glyph-name="glyph584" horiz-adv-x="1159"/><glyph d="M1880 565q-2 -18 -16 -86h-793q-6 -133 62.5 -206.5t187.5 -73.5q82 0 164 38.5t127 114.5h225q-51 -160 -199.5 -265t-361.5 -105q-207 0 -336 129l-14 -111h-178l-33 131q-47 -63 -155.5 -104t-223.5 -41q-164 0 -253 89t-69 244q20 147 158.5 240.5t353.5 116.5 l242 24l4 21q29 203 -176 203q-98 0 -169 -47.5t-93 -145.5h-230q37 176 168 291t361 115q281 0 362 -176q182 184 447 182q240 0 357.5 -158t80.5 -420zM1104 672h526q0 119 -55 184.5t-166 65.5q-115 0 -192.5 -66.5t-112.5 -183.5zM719 340l24 180l-190 -24 q-248 -31 -266 -166q-8 -63 32.5 -101.5t110.5 -38.5q86 0 165 43.5t124 106.5z" glyph-name="glyph585" horiz-adv-x="2021"/><glyph d="M743 1044q209 0 321 -152.5t81 -379.5q-33 -225 -188.5 -378.5t-362.5 -153.5q-195 0 -297 147l-29 -129l-227 2l215 1536h254l-86 -625q133 133 319 133zM578 207q119 0 206.5 88t106.5 217q16 131 -46.5 219t-180.5 88q-90 0 -166 -56t-117 -147l-29 -208 q14 -90 75 -145.5t151 -55.5z" glyph-name="glyph586" horiz-adv-x="1232"/><glyph d="M776 1137q227 0 349 -164t87.5 -410t-202.5 -409.5t-396 -163.5q-215 0 -325 153l-37 -143l-242 2l215 1536h277l-74 -539q141 138 348 138zM596 229q129 0 224 96.5t116 237.5q20 143 -47.5 239.5t-198.5 96.5q-96 0 -181 -61.5t-128 -159.5l-31 -227q14 -100 81 -161 t165 -61zM514 -115q61 0 99 -44t30 -105q-8 -63 -59.5 -107.5t-112.5 -44.5q-63 0 -101 44t-30 108q10 61 60.5 105t113.5 44z" glyph-name="glyph587" horiz-adv-x="1232"/><glyph d="M442 -20q-223 0 -336.5 149.5t-81 382.5t188.5 382.5t379 149.5q127 0 219 -38.5t138 -103t66.5 -130t18.5 -135.5h-229q2 78 -60.5 134t-158.5 56q-127 0 -208 -86t-102 -229q-18 -143 38.5 -229t181.5 -86q96 0 172.5 58t101.5 136h227q-20 -74 -57 -139.5t-100.5 -130 t-166 -103t-231.5 -38.5z" glyph-name="glyph588" horiz-adv-x="1085"/><glyph d="M752 1536h260l-283 -334h-199zM489 -10q-244 0 -368.5 160.5t-89.5 414.5q37 254 207 413t413 159q113 0 200 -28t139 -72t86 -103.5t45.5 -116.5t8.5 -117h-247q0 86 -67.5 146.5t-174.5 60.5q-137 0 -224 -93t-109.5 -248.5t39 -250t198.5 -94.5q102 0 186 63.5 t115 151.5h246q-20 -80 -61.5 -152.5t-111 -142t-180.5 -110.5t-250 -41z" glyph-name="glyph589" horiz-adv-x="1173"/><glyph d="M354 1536h191l125 -233l190 233h191l-265 -350h-268zM489 -10q-244 0 -368.5 160.5t-89.5 414.5q37 254 207 413t413 159q113 0 200 -28t139 -72t86 -103.5t45.5 -116.5t8.5 -117h-247q0 86 -67.5 146.5t-174.5 60.5q-137 0 -224 -93t-109.5 -248.5t39 -250t198.5 -94.5 q102 0 186 63.5t115 151.5h246q-20 -80 -61.5 -152.5t-111 -142t-180.5 -110.5t-250 -41z" glyph-name="glyph590" horiz-adv-x="1173"/><glyph d="M641 907q-137 0 -224 -93t-109.5 -248.5t39 -250t198.5 -94.5q102 0 186 63.5t115 151.5h246q-20 -80 -61.5 -151.5t-109 -140t-177 -110.5t-246.5 -44l-72 -109q106 20 171 -34t50 -150q-12 -92 -85 -155.5t-165 -63.5q-74 0 -137 42t-82 101l121 43q14 -29 47 -48 t68 -19q41 0 73.5 29.5t36.5 70.5q10 61 -39 81.5t-131 -11.5l-88 57l117 172l2 2q-195 35 -290 189.5t-64 377.5q37 254 207 413t413 159q113 0 200 -28t139 -72t86 -103.5t45.5 -116.5t8.5 -117h-247q0 86 -68 146.5t-174 60.5z" glyph-name="glyph591" horiz-adv-x="1173"/><glyph d="M670 1190q-63 0 -101.5 44t-29.5 107q10 61 60 105.5t114 44.5q61 0 99 -44t30 -106q-8 -63 -59.5 -107t-112.5 -44zM489 -10q-244 0 -368.5 160.5t-89.5 414.5q37 254 207 413t413 159q113 0 200 -28t139 -72t86 -103.5t45.5 -116.5t8.5 -117h-247q0 86 -67.5 146.5 t-174.5 60.5q-137 0 -224 -93t-109.5 -248.5t39 -250t198.5 -94.5q102 0 186 63.5t115 151.5h246q-20 -80 -61.5 -152.5t-111 -142t-180.5 -110.5t-250 -41z" glyph-name="glyph592" horiz-adv-x="1173"/><glyph d="M1223 1536l-215 -1536l-230 -2l4 127q-145 -145 -333 -145q-209 0 -321 153.5t-79 378.5q31 227 185.5 379.5t363.5 152.5q182 0 283 -133l88 625h254zM528 207q88 0 165 55t116 146l31 210q-16 90 -77 145.5t-149 55.5q-121 0 -208 -88t-103 -219q-18 -131 43 -218 t182 -87z" glyph-name="glyph593" horiz-adv-x="1232"/><glyph d="M907 1409q162 -141 234.5 -376.5t34.5 -520.5q-33 -223 -218.5 -377.5t-421 -154.5t-378 154.5t-109.5 377.5q31 223 215.5 377.5t421.5 154.5q123 0 215 -51q-45 162 -149 248l-115 -123l-72 62l107 112q-111 59 -258 64l80 205q186 0 337 -97l103 113l74 -61zM567 207 q127 0 229.5 89t121.5 216q16 129 -61 218t-204 89t-229 -89t-119 -218q-18 -127 58.5 -216t203.5 -89z" glyph-name="glyph594" horiz-adv-x="1253"/><glyph d="M1473 1249q-43 16 -65 55t-15 87q8 63 58 106t111.5 43t97.5 -43t28 -106q-6 -53 -61.5 -136.5t-119.5 -150.5h-139zM1303 1534l-216 -1532l-241 -2l-4 133q-145 -143 -363 -143q-227 0 -349 160.5t-87 404.5q35 248 204 415t396 167q199 0 305 -144l78 541h277zM565 223 q94 0 178 60.5t129 156.5l33 232q-18 98 -83.5 158.5t-162.5 60.5q-131 0 -226 -96.5t-114 -239.5q-20 -141 47.5 -236.5t198.5 -95.5z" glyph-name="glyph595" horiz-adv-x="1603"/><glyph d="M1317 1188h-143l-166 -1188l-230 -2l4 127q-145 -145 -333 -145q-209 0 -321 153.5t-79 378.5q31 227 185.5 379.5t363.5 152.5q182 0 283 -133l39 277h-269l23 151h266l29 197h254l-29 -197h145zM528 207q88 0 165 55t116 146l31 210q-16 90 -77 145.5t-149 55.5 q-121 0 -208 -88t-103 -219q-18 -131 43 -218t182 -87z" glyph-name="glyph596" horiz-adv-x="1232"/><glyph d="M1020 516q-8 -49 -16 -80h-725q-6 -123 56 -190.5t171 -67.5q76 0 151.5 36t116.5 108h205q-47 -150 -182 -246t-332 -96q-223 0 -344 151.5t-88 380.5q33 233 191.5 384t391.5 151q219 0 329 -144.5t75 -386.5zM586 842q-207 0 -279 -228h484q0 228 -205 228z" glyph-name="glyph597" horiz-adv-x="1091"/><glyph d="M1042 1540l-282 -332h-197l219 332h260zM659 1137q240 0 357 -155t80 -415q0 -2 -17 -88h-786q-8 -127 60.5 -201.5t176.5 -74.5q199 0 289 151h225q-47 -152 -188 -258t-358 -106q-244 0 -371 162.5t-92 410.5q37 254 203.5 414t420.5 160zM846 674q2 117 -53.5 181.5 t-165.5 64.5q-225 0 -301 -246h520z" glyph-name="glyph598" horiz-adv-x="1177"/><glyph d="M518 1190l-162 350h191l123 -233l192 233h191l-267 -350h-268zM1096 567q0 -2 -17 -88h-786q-8 -127 60.5 -201.5t176.5 -74.5q199 0 289 151h225q-47 -152 -188 -258t-358 -106q-244 0 -371 162.5t-92 410.5q37 254 204 414t420 160q240 0 357 -155t80 -415zM627 920 q-225 0 -301 -246h520q2 117 -53 181.5t-166 64.5z" glyph-name="glyph599" horiz-adv-x="1177"/><glyph d="M659 1137q240 0 357 -155t80 -415q0 -2 -17 -88h-786q-8 -127 60.5 -201.5t176.5 -74.5q199 0 289 151h225q-43 -141 -171 -245.5t-324 -116.5q0 -2 -1 -5t-1 -5l-76 -111q106 18 170 -36t49 -150q-12 -92 -83.5 -156t-164.5 -64q-74 0 -137 42t-82 102l119 43 q16 -29 50 -48.5t67 -19.5q41 0 72.5 30t37.5 71q8 61 -41 82.5t-131 -11.5l-86 58l113 170v10q-209 27 -315.5 184.5t-73.5 384.5q37 254 203.5 414t420.5 160zM846 674q2 117 -53.5 181.5t-165.5 64.5q-225 0 -301 -246h520z" glyph-name="glyph600" horiz-adv-x="1177"/><glyph d="M504 1190h-197l260 350h269l168 -350h-201l-117 237zM1096 567q0 -2 -17 -88h-786q-8 -127 60.5 -201.5t176.5 -74.5q199 0 289 151h225q-47 -152 -188 -258t-358 -106q-244 0 -371 162.5t-92 410.5q37 254 204 414t420 160q240 0 357 -155t80 -415zM627 920 q-225 0 -301 -246h520q2 117 -53 181.5t-166 64.5z" glyph-name="glyph601" horiz-adv-x="1177"/><glyph d="M442.5 1194q-61.5 0 -100.5 44t-31 108q10 61 61.5 106t113 45t99.5 -45t29 -106q-8 -63 -59 -107.5t-112.5 -44.5zM866 1194q-61 0 -99 45t-30 107q10 61 60.5 106t112 45t99.5 -45t29 -106q-10 -63 -59.5 -107.5t-112.5 -44.5zM1096 567q0 -2 -17 -88h-786 q-8 -127 60.5 -201.5t176.5 -74.5q199 0 289 151h225q-47 -152 -188 -258t-358 -106q-244 0 -371 162.5t-92 410.5q37 254 204 414t420 160q240 0 357 -155t80 -415zM627 920q-225 0 -301 -246h520q2 117 -53 181.5t-166 64.5z" glyph-name="glyph602" horiz-adv-x="1177"/><glyph d="M657 1194q-63 0 -101 44t-30 108q10 61 60.5 106t111.5 45q63 0 101.5 -45t27.5 -106q-8 -63 -58.5 -107.5t-111.5 -44.5zM1096 567q0 -2 -17 -88h-786q-8 -127 60.5 -201.5t176.5 -74.5q199 0 289 151h225q-47 -152 -188 -258t-358 -106q-244 0 -371 162.5t-92 410.5 q37 254 204 414t420 160q240 0 357 -155t80 -415zM627 920q-225 0 -301 -246h520q2 117 -53 181.5t-166 64.5z" glyph-name="glyph603" horiz-adv-x="1177"/><glyph d="M1096 567q0 -2 -17 -88h-786q-8 -127 60.5 -201.5t176.5 -74.5q199 0 289 151h225q-47 -152 -188 -258t-358 -106q-244 0 -371 162.5t-92 410.5q37 254 204 414t420 160q240 0 357 -155t80 -415zM627 920q-225 0 -301 -246h520q2 117 -53 181.5t-166 64.5zM481 -115 q63 0 101.5 -44t27.5 -105q-8 -63 -58 -107.5t-112 -44.5q-63 0 -101 44t-30 108q8 61 59.5 105t112.5 44z" glyph-name="glyph604" horiz-adv-x="1177"/><glyph d="M549 1208l-193 332h260l129 -332h-196zM1096 567q0 -2 -17 -88h-786q-8 -127 60.5 -201.5t176.5 -74.5q199 0 289 151h225q-47 -152 -188 -258t-358 -106q-244 0 -371 162.5t-92 410.5q37 254 204 414t420 160q240 0 357 -155t80 -415zM627 920q-225 0 -301 -246h520 q2 117 -53 181.5t-166 64.5z" glyph-name="glyph605" horiz-adv-x="1177"/><glyph d="M977 1212h-635l23 166h634zM1096 567q0 -2 -17 -88h-786q-8 -127 60.5 -201.5t176.5 -74.5q199 0 289 151h225q-47 -152 -188 -258t-358 -106q-244 0 -371 162.5t-92 410.5q37 254 204 414t420 160q240 0 357 -155t80 -415zM627 920q-225 0 -301 -246h520 q2 117 -53 181.5t-166 64.5z" glyph-name="glyph606" horiz-adv-x="1177"/><glyph d="M659 1137q240 0 357 -155t80 -415q0 -2 -17 -88h-786q-8 -127 60.5 -201.5t176.5 -74.5q199 0 289 151h225q-41 -133 -157.5 -234.5t-294.5 -123.5l-8 -8q-59 -70 -74 -150q-8 -55 20.5 -88t87.5 -33q53 0 108.5 29t92.5 74l66 -115q-141 -127 -330 -117 q-113 6 -174.5 64.5t-46.5 165.5q12 92 82 168q0 6 2 10q-207 27 -311.5 184.5t-71.5 382.5q37 254 203.5 414t420.5 160zM846 674q2 117 -53.5 181.5t-165.5 64.5q-225 0 -301 -246h520z" glyph-name="glyph607" horiz-adv-x="1177"/><glyph d="M317 1194q-8 127 63 211t177 84q127 0 186 -115q20 -47 64 -47q41 0 61.5 40t12.5 103h151q8 -125 -61.5 -208.5t-179.5 -83.5q-119 0 -187 116q-20 45 -61 45q-39 0 -60.5 -41t-13.5 -104h-152zM1096 567q0 -2 -17 -88h-786q-8 -127 60.5 -201.5t176.5 -74.5 q199 0 289 151h225q-47 -152 -188 -258t-358 -106q-244 0 -371 162.5t-92 410.5q37 254 204 414t420 160q240 0 357 -155t80 -415zM627 920q-225 0 -301 -246h520q2 117 -53 181.5t-166 64.5z" glyph-name="glyph608" horiz-adv-x="1177"/><glyph d="M139 0l117 829h-172l27 195h172l24 166q20 152 140 259t270 107q137 0 211 -59l-23 -168q-86 53 -186 27q-139 -35 -160 -182l-20 -150h254l-27 -195h-254l-117 -829h-256z" glyph-name="glyph609" horiz-adv-x="786"/><glyph d="M1153 1024l-143 -1012q-33 -242 -194 -383t-398 -141q-131 0 -227.5 39t-143.5 99.5t-66.5 120.5t-13.5 118h203q0 -78 87 -135.5t201.5 -49t194.5 93.5t103 242l12 99q-139 -135 -319 -135q-209 0 -321 153.5t-79 378.5q31 227 185.5 379.5t363.5 152.5q193 0 295 -147 l29 127h231zM528 207q88 0 165 55t116 146l31 208q-16 90 -78 146.5t-148 56.5q-121 0 -208 -88t-103 -219q-18 -131 43 -218t182 -87z" glyph-name="glyph610" horiz-adv-x="1234"/><glyph d="M686 1147q-160 0 -245 89t-62 251h149q-10 -76 40 -133.5t141 -57.5q92 0 158.5 57.5t76.5 133.5h150q-23 -162 -133.5 -251t-274.5 -89zM414 -508q-225 -4 -348 78t-125 213q-2 78 44 166t132 131q-45 16 -74 65.5t-20 106.5q18 125 178 205q-45 49 -70 128t-12 167 q25 160 171 274.5t347 114.5q72 0 153.5 -21.5t122.5 -56.5q33 76 125 117t160 26q-8 -43 -24 -174q-47 14 -95.5 -2t-72.5 -63q72 -125 57 -230q-27 -182 -177.5 -297.5t-353.5 -120.5q-135 -6 -210 41q-35 -12 -54.5 -35.5t-13.5 -45.5q12 -63 149 -66l224 -2 q180 -4 280.5 -77t98.5 -206q-8 -203 -170 -316.5t-422 -119.5zM803 739q12 84 -43 133.5t-154 49.5q-96 0 -163.5 -50.5t-80 -134.5t42 -136t148.5 -52q98 0 168 52t82 138zM745 -119q6 68 -66.5 94.5t-197.5 26.5h-176q-47 -12 -78.5 -52t-38.5 -85q-10 -74 54.5 -115 t181.5 -41q141 0 230 47t91 125z" glyph-name="glyph611" horiz-adv-x="1177"/><glyph d="M528 1186l-163 350h190l125 -233l190 233h191l-264 -350h-269zM414 -508q-225 -4 -348 78t-125 213q-2 78 44 166t132 131q-45 16 -74 65.5t-20 106.5q18 125 178 205q-45 49 -70 128t-12 167q25 160 171 274.5t347 114.5q72 0 153.5 -21.5t122.5 -56.5q33 76 125 117 t160 26q-8 -43 -24 -174q-47 14 -95.5 -2t-72.5 -63q72 -125 57 -230q-27 -182 -177.5 -297.5t-353.5 -120.5q-135 -6 -210 41q-35 -12 -54.5 -35.5t-13.5 -45.5q12 -63 149 -66l224 -2q180 -4 280.5 -77t98.5 -206q-8 -203 -170 -316.5t-422 -119.5zM803 739 q12 84 -43 133.5t-154 49.5q-96 0 -163.5 -50.5t-80 -134.5t42 -136t148.5 -52q98 0 168 52t82 138zM745 -119q6 68 -66.5 94.5t-197.5 26.5h-176q-47 -12 -78.5 -52t-38.5 -85q-10 -74 54.5 -115t181.5 -41q141 0 230 47t91 125z" glyph-name="glyph612" horiz-adv-x="1177"/><glyph d="M762 1452q41 -16 63.5 -55t16.5 -86q-8 -63 -58.5 -106.5t-112 -43.5t-97 43t-27.5 107q6 53 61.5 136t118.5 150h139zM414 -508q-225 -4 -348 78t-125 213q-2 78 44 166t132 131q-45 16 -74 65.5t-20 106.5q18 125 178 205q-45 49 -70 128t-12 167q25 160 171 274.5 t347 114.5q72 0 153.5 -21.5t122.5 -56.5q33 76 125 117t160 26q-8 -43 -24 -174q-47 14 -95.5 -2t-72.5 -63q72 -125 57 -230q-27 -182 -177.5 -297.5t-353.5 -120.5q-135 -6 -210 41q-35 -12 -54.5 -35.5t-13.5 -45.5q12 -63 149 -66l224 -2q180 -4 280.5 -77t98.5 -206 q-8 -203 -170 -316.5t-422 -119.5zM803 739q12 84 -43 133.5t-154 49.5q-96 0 -163.5 -50.5t-80 -134.5t42 -136t148.5 -52q98 0 168 52t82 138zM745 -119q6 68 -66.5 94.5t-197.5 26.5h-176q-47 -12 -78.5 -52t-38.5 -85q-10 -74 54.5 -115t181.5 -41q141 0 230 47t91 125z " glyph-name="glyph613" horiz-adv-x="1177"/><glyph d="M664 1190q-61 0 -99.5 44t-29.5 107q8 61 59 105.5t112.5 44.5t99.5 -44t30 -106q-8 -63 -58.5 -107t-113.5 -44zM414 -508q-225 -4 -348 78t-125 213q-2 78 44 166t132 131q-45 16 -74 65.5t-20 106.5q18 125 178 205q-45 49 -70 128t-12 167q25 160 171 274.5 t347 114.5q72 0 153.5 -21.5t122.5 -56.5q33 76 125 117t160 26q-8 -43 -24 -174q-47 14 -95.5 -2t-72.5 -63q72 -125 57 -230q-27 -182 -177.5 -297.5t-353.5 -120.5q-135 -6 -210 41q-35 -12 -54.5 -35.5t-13.5 -45.5q12 -63 149 -66l224 -2q180 -4 280.5 -77t98.5 -206 q-8 -203 -170 -316.5t-422 -119.5zM803 739q12 84 -43 133.5t-154 49.5q-96 0 -163.5 -50.5t-80 -134.5t42 -136t148.5 -52q98 0 168 52t82 138zM745 -119q6 68 -66.5 94.5t-197.5 26.5h-176q-47 -12 -78.5 -52t-38.5 -85q-10 -74 54.5 -115t181.5 -41q141 0 230 47t91 125z " glyph-name="glyph614" horiz-adv-x="1177"/><glyph d="M772 1044q178 0 265 -99t61 -277l-92 -668h-258l90 637q25 182 -172 182q-102 0 -184.5 -54t-94.5 -142l-88 -623h-258l215 1536h258l-88 -627q66 63 159 99t187 36z" glyph-name="glyph615" horiz-adv-x="1226"/><glyph d="M825 1137q195 0 290 -108.5t69 -301.5l-103 -727h-280l98 692q12 96 -37 147.5t-151 51.5q-111 0 -202 -59.5t-103 -155.5l-95 -676h-280l168 1198h-109l23 152h106l27 186h280l-26 -186h278l-22 -152h-277l-30 -209q72 68 174 108t202 40z" glyph-name="glyph616" horiz-adv-x="1226"/><glyph d="M825 1137q195 0 290 -108.5t69 -301.5l-103 -727h-280l98 692q12 96 -37 147.5t-151 51.5q-111 0 -202 -59.5t-103 -155.5l-95 -676h-280l215 1536h280l-77 -547q72 68 174 108t202 40zM498 -115q61 0 99 -44t30 -105q-8 -63 -59.5 -107.5t-113 -44.5t-100.5 44t-30 108 q10 61 60.5 105t113.5 44z" glyph-name="glyph617" horiz-adv-x="1226"/><glyph d="M358 1204q-59 0 -99 45t-32 107q10 63 61.5 107t113 44t100.5 -44t30 -107q-10 -61 -60.5 -106.5t-113.5 -45.5zM205 1024h258l-144 -1024h-258z" glyph-name="glyph618" horiz-adv-x="561"/><glyph d="M184 1024h258l-143 -1024h-258z" glyph-name="glyph619" horiz-adv-x="524"/><glyph d="M465 1536h260l-283 -334h-196zM184 1024h258l-143 -1024h-258z" glyph-name="glyph620" horiz-adv-x="524"/><glyph d="M35 1536h192l125 -233l191 233h190l-264 -350h-268zM184 1024h258l-143 -1024h-258z" glyph-name="glyph621" horiz-adv-x="524"/><glyph d="M250 1536h268l166 -350h-199l-116 235l-183 -235h-200zM184 1024h258l-143 -1024h-258z" glyph-name="glyph622" horiz-adv-x="524"/><glyph d="M124.5 1190q-61.5 0 -101 44t-31.5 107q8 61 60 105.5t116 44.5q61 0 99 -44t30 -106q-8 -63 -59.5 -107t-113 -44zM549 1190q-61 0 -99 45t-30 106.5t59 105.5t112.5 44t99.5 -44t30 -106q-10 -63 -59.5 -107t-112.5 -44zM184 1024h258l-143 -1024h-258z" glyph-name="glyph623" horiz-adv-x="524"/><glyph d="M358 1204q-59 0 -99 45t-32 107q10 63 61.5 107t113 44t100.5 -44t30 -107q-10 -61 -60.5 -106.5t-113.5 -45.5zM205 1024h258l-144 -1024h-258z" glyph-name="glyph624" horiz-adv-x="661"/><glyph d="M365 1204q-59 0 -99.5 45t-32.5 107q10 63 61.5 107t113 44t100.5 -44t31 -107q-10 -61 -60.5 -106.5t-113.5 -45.5zM211 1024h258l-143 -1024h-258zM143 -449q-61 0 -99 44.5t-30 107.5q10 61 60.5 106.5t112 45.5t100.5 -45.5t30 -106.5q-8 -63 -59.5 -107.5 t-114.5 -44.5z" glyph-name="glyph625" horiz-adv-x="577"/><glyph d="M35 1536h262l129 -334h-197zM184 1024h258l-143 -1024h-258z" glyph-name="glyph626" horiz-adv-x="524"/><glyph d="M389 1235q-61 0 -100 45t-31 108.5t60.5 108.5t113.5 45q63 0 102 -45t31 -108.5t-60.5 -108.5t-115.5 -45zM1032.5 1235q-61.5 0 -100.5 44t-31 107q10 61 60.5 105.5t113.5 44.5q61 0 99 -44t28 -106q-8 -61 -58 -106t-111.5 -45zM442 -510l33 227h49q86 0 130 35 t57 119l176 1255h258l-178 -1276q-12 -88 -49 -155.5t-84.5 -105.5t-111 -61.5t-117.5 -30.5t-113 -7h-50zM233 1051h261l-148 -1051h-260z" glyph-name="glyph627" horiz-adv-x="1267"/><glyph d="M43 1372h637l-23 -164h-637zM184 1024h258l-143 -1024h-258z" glyph-name="glyph628" horiz-adv-x="524"/><glyph d="M338 1190q-63 0 -101 44t-30 107q8 61 59 105.5t113 44.5q63 0 101 -44t28 -106q-8 -63 -58.5 -107t-111.5 -44zM319 -414q-147 -129 -331 -116q-113 6 -175.5 63t-48.5 164q29 190 281 303h-4l143 1024h258l-143 -1024h-25q-127 -8 -222 -96t-109 -185 q-8 -55 20.5 -87.5t87.5 -32.5q55 0 110.5 28.5t92.5 73.5z" glyph-name="glyph629" horiz-adv-x="524"/><glyph d="M471 1176q-121 0 -184 116q-25 45 -62 45q-41 0 -62.5 -41t-12.5 -104h-154q-6 127 65.5 211t178.5 84q123 0 186 -117q18 -45 61 -45q41 0 61.5 40t12.5 103h152q8 -125 -61.5 -208.5t-180.5 -83.5zM184 1024h258l-143 -1024h-258z" glyph-name="glyph630" horiz-adv-x="524"/><glyph d="M364.5 1204q-61.5 0 -100.5 45t-31 107q8 63 60.5 107t114 44t99.5 -44t30 -107q-8 -61 -59.5 -106.5t-113 -45.5zM-156 -518l31 225q74 2 117 38t59 136l160 1143h258l-164 -1159q-16 -119 -65.5 -202t-117 -122t-137 -53t-141.5 -6z" glyph-name="glyph631" horiz-adv-x="542"/><glyph d="M-90 -532q-98 0 -141 32l30 217q45 -39 111 -39q57 0 102 44.5t54 107.5l167 1194h259l-170 -1210q-20 -145 -140 -245.5t-272 -100.5z" glyph-name="glyph632" horiz-adv-x="606"/><glyph d="M41 0l215 1536h258l-127 -897l358 385h277l-447 -465l392 -559h-273l-327 485l-68 -485h-258z" glyph-name="glyph633" horiz-adv-x="1105"/><glyph d="M18 0l215 1536h281l-117 -836l404 426h291l-508 -518l401 -608h-297l-321 492l-68 -492h-281zM397 -365q-43 16 -65.5 56.5t-14.5 87.5q8 61 58.5 105t113.5 44q59 0 95.5 -44t27.5 -105q-6 -55 -62 -139t-120 -150h-137z" glyph-name="glyph634" horiz-adv-x="1114"/><glyph d="M59 0l215 1536h258l-215 -1536h-258z" glyph-name="glyph635" horiz-adv-x="585"/><glyph d="M524 2048h260l-282 -334h-199zM57 0l215 1536h258l-215 -1536h-258z" glyph-name="glyph636" horiz-adv-x="714"/><glyph d="M764 1257q-41 16 -63.5 56.5t-14.5 87.5q8 61 57.5 105t110.5 44t98 -44t29 -105q-8 -55 -63.5 -139t-118.5 -150h-140zM57 0l215 1536h258l-215 -1536h-258z" glyph-name="glyph637" horiz-adv-x="927"/><glyph d="M57 0l215 1536h258l-215 -1536h-258zM84 -383q-45 16 -66.5 55t-15.5 86q10 63 59.5 106.5t112.5 43.5q61 0 97 -43t26 -107q-6 -53 -61.5 -136t-118.5 -150h-137z" glyph-name="glyph638" horiz-adv-x="714"/><glyph d="M57 0l215 1536h258l-215 -1536h-258zM623 625q-45 0 -75 32.5t-22 79.5q6 45 45 80t84 35t75 -34t24 -81q-8 -47 -46 -79.5t-85 -32.5z" glyph-name="glyph639" horiz-adv-x="780"/><glyph d="M57 0l215 1536h258l-215 -1536h-258zM131 -416q-63 0 -101 44t-30 108q10 61 60.5 105t113.5 44q61 0 99 -44t30 -105q-8 -63 -59.5 -107.5t-112.5 -44.5z" glyph-name="glyph640" horiz-adv-x="714"/><glyph d="M717 1083l-283 -258l-4 -4l-115 -821h-258l78 555l-106 -96h-162l293 266l112 811h258l-75 -543l4 4l92 86h166z" glyph-name="glyph641" horiz-adv-x="714"/><glyph d="M1415 1044q170 0 252 -97t59 -273l-94 -674h-258l88 643q25 176 -151 176q-94 0 -170 -53t-88 -139l-88 -627h-258l90 643q25 176 -150 176q-94 0 -171 -53t-89 -139l-88 -627h-258l143 1024h234l-6 -119q63 63 154 101t184 38q199 0 278 -174q70 78 175.5 126t211.5 48z " glyph-name="glyph642" horiz-adv-x="1851"/><glyph d="M743 1044q178 0 265.5 -99t60.5 -277l-92 -668h-258l90 637q12 88 -33 135t-139 47q-102 0 -185 -54t-96 -142l-86 -623h-258l144 1024h231l-4 -127q68 68 165 107.5t195 39.5z" glyph-name="glyph643" horiz-adv-x="1159"/><glyph d="M795 1202h-197l221 334h258zM809 1141q193 0 287 -108.5t67 -303.5l-102 -729h-279l97 696q14 96 -35 147.5t-152 51.5q-111 0 -201 -59.5t-102 -153.5l-94 -682h-281l158 1126h250l-2 -147q72 74 177.5 118t211.5 44z" glyph-name="glyph644" horiz-adv-x="1247"/><glyph d="M555 1186l-162 350h191l123 -233l192 233h191l-267 -350h-268zM809 1141q193 0 287 -108.5t67 -303.5l-102 -729h-279l97 696q14 96 -35 147.5t-152 51.5q-111 0 -201 -59.5t-102 -153.5l-94 -682h-281l158 1126h250l-2 -147q72 74 177.5 118t211.5 44z" glyph-name="glyph645" horiz-adv-x="1247"/><glyph d="M809 1141q193 0 287 -108.5t67 -303.5l-102 -729h-279l97 696q14 96 -35 147.5t-152 51.5q-111 0 -201 -59.5t-102 -153.5l-94 -682h-281l158 1126h250l-2 -147q72 74 177.5 118t211.5 44zM406 -395q-41 16 -62.5 55t-15.5 86q8 63 58 106.5t111.5 43.5t97.5 -43t28 -107 q-8 -55 -63.5 -138t-117.5 -149h-139z" glyph-name="glyph646" horiz-adv-x="1247"/><glyph d="M692 1190q-63 0 -101 44t-30 107q10 61 60.5 105.5t113.5 44.5q61 0 99 -44t30 -106q-8 -63 -59.5 -107t-112.5 -44zM809 1141q193 0 287 -108.5t67 -303.5l-102 -729h-279l97 696q14 96 -35 147.5t-152 51.5q-111 0 -201 -59.5t-102 -153.5l-94 -682h-281l158 1126h250 l-2 -147q72 74 177.5 118t211.5 44z" glyph-name="glyph647" horiz-adv-x="1247"/><glyph d="M809 1141q193 0 287 -108.5t67 -303.5l-102 -729h-279l97 696q14 96 -35 147.5t-152 51.5q-111 0 -201 -59.5t-102 -153.5l-94 -682h-281l158 1126h250l-2 -147q72 74 177.5 118t211.5 44zM508 -115q63 0 101 -44t28 -105q-8 -63 -58.5 -107.5t-111.5 -44.5 q-63 0 -101 44t-30 108q8 61 59.5 105t112.5 44z" glyph-name="glyph648" horiz-adv-x="1247"/><glyph d="M809 1141q193 0 287 -108.5t67 -303.5l-102 -729h-19l-20 -139q-23 -170 -150 -252t-313 -80l23 172q76 -2 123 29.5t59 130.5l20 139h-2l97 696q14 96 -35 147.5t-152 51.5q-111 0 -201 -59.5t-102 -153.5l-94 -682h-281l158 1126h250l-2 -147q72 74 177.5 118t211.5 44 z" glyph-name="glyph649" horiz-adv-x="1247"/><glyph d="M352 1192q-8 127 63.5 211t178.5 84q123 0 186 -117q18 -45 62 -45q41 0 61.5 40t11.5 103h152q8 -125 -61.5 -208.5t-180.5 -83.5q-121 0 -184 116q-25 45 -61 45q-41 0 -61.5 -41t-12.5 -104h-154zM809 1141q193 0 287 -108.5t67 -303.5l-102 -729h-279l97 696 q14 96 -35 147.5t-152 51.5q-111 0 -201 -59.5t-102 -153.5l-94 -682h-281l158 1126h250l-2 -147q72 74 177.5 118t211.5 44z" glyph-name="glyph650" horiz-adv-x="1247"/><glyph d="M483.5 -20q-227.5 0 -354.5 153.5t-94 378.5q31 227 201 379.5t397 152.5t354 -153.5t96 -378.5q-33 -225 -202.5 -378.5t-397 -153.5zM514 207q119 0 207 88t106 217q18 131 -45 219t-182 88q-121 0 -208 -88t-103 -219q-18 -131 43 -218t182 -87z" glyph-name="glyph651" horiz-adv-x="1153"/><glyph d="M795 1536h260l-283 -334h-199zM530.5 -14q-247.5 0 -386 166.5t-103.5 412.5q35 248 219 414t432 166t386.5 -167t103.5 -413t-219.5 -412.5t-432 -166.5zM565 231q131 0 226.5 96.5t113.5 237.5q23 141 -45.5 238.5t-200 97.5t-226.5 -96t-118 -240 q-18 -143 50.5 -238.5t199.5 -95.5z" glyph-name="glyph652" horiz-adv-x="1247"/><glyph d="M354 1536h191l125 -233l190 233h191l-265 -350h-268zM483.5 -20q-227.5 0 -354.5 153.5t-94 378.5q31 227 201 379.5t397 152.5t354 -153.5t96 -378.5q-33 -225 -202.5 -378.5t-397 -153.5zM514 207q119 0 207 88t106 217q18 131 -45 219t-182 88q-121 0 -208 -88 t-103 -219q-18 -131 43 -218t182 -87z" glyph-name="glyph653" horiz-adv-x="1153"/><glyph d="M623 1536h268l166 -350h-199l-117 235l-182 -235h-199zM530.5 -14q-247.5 0 -386 166.5t-103.5 412.5q35 248 219 414t432 166t386.5 -167t103.5 -413t-219.5 -412.5t-432 -166.5zM565 231q131 0 226.5 96.5t113.5 237.5q23 141 -45.5 238.5t-200 97.5t-226.5 -96 t-118 -240q-18 -143 50.5 -238.5t199.5 -95.5z" glyph-name="glyph654" horiz-adv-x="1247"/><glyph d="M504 1190q-63 0 -101 44t-30 107q10 61 60 105.5t114 44.5q61 0 99 -44t30 -106q-8 -63 -59.5 -107t-112.5 -44zM927.5 1190q-61.5 0 -100.5 44t-30 107q8 61 60 105.5t113.5 44.5t99.5 -44t30 -106q-8 -63 -59.5 -107t-113 -44zM530.5 -14q-247.5 0 -386 166.5 t-103.5 412.5q35 248 219 414t432 166t386.5 -167t103.5 -413t-219.5 -412.5t-432 -166.5zM565 231q131 0 226.5 96.5t113.5 237.5q23 141 -45.5 238.5t-200 97.5t-226.5 -96t-118 -240q-18 -143 50.5 -238.5t199.5 -95.5z" glyph-name="glyph655" horiz-adv-x="1247"/><glyph d="M483.5 -20q-227.5 0 -354.5 153.5t-94 378.5q31 227 201 379.5t397 152.5t354 -153.5t96 -378.5q-33 -225 -202.5 -378.5t-397 -153.5zM514 207q119 0 207 88t106 217q18 131 -45 219t-182 88q-121 0 -208 -88t-103 -219q-18 -131 43 -218t182 -87zM428 -416 q-61 0 -100 44t-31 108q10 61 60.5 105t113.5 44q61 0 99 -44t30 -105q-8 -63 -59.5 -107.5t-112.5 -44.5z" glyph-name="glyph656" horiz-adv-x="1153"/><glyph d="M369 1536h260l127 -334h-195zM530.5 -14q-247.5 0 -386 166.5t-103.5 412.5q35 248 219 414t432 166t386.5 -167t103.5 -413t-219.5 -412.5t-432 -166.5zM565 231q131 0 226.5 96.5t113.5 237.5q23 141 -45.5 238.5t-200 97.5t-226.5 -96t-118 -240q-18 -143 50.5 -238.5 t199.5 -95.5z" glyph-name="glyph657" horiz-adv-x="1247"/><glyph d="M702 1536h242l-401 -362h-183zM1100 1536h243l-401 -362h-182zM483.5 -20q-227.5 0 -354.5 153.5t-94 378.5q31 227 201 379.5t397 152.5t354 -153.5t96 -378.5q-33 -225 -202.5 -378.5t-397 -153.5zM514 207q119 0 207 88t106 217q18 131 -45 219t-182 88 q-121 0 -208 -88t-103 -219q-18 -131 43 -218t182 -87z" glyph-name="glyph658" horiz-adv-x="1271"/><glyph d="M362 1372h635l-22 -164h-635zM483.5 -20q-227.5 0 -354.5 153.5t-94 378.5q31 227 201 379.5t397 152.5t354 -153.5t96 -378.5q-33 -225 -202.5 -378.5t-397 -153.5zM514 207q119 0 207 88t106 217q18 131 -45 219t-182 88q-121 0 -208 -88t-103 -219q-18 -131 43 -218 t182 -87z" glyph-name="glyph659" horiz-adv-x="1153"/><glyph d="M1028 1028q176 -174 139 -459q-35 -248 -219 -416.5t-428 -168.5q-150 0 -264 69l-94 -121h-125l141 179q-176 176 -135 458q35 248 217 417t426 169q147 0 264 -68l97 121h122zM315 569q-23 -139 41 -231l422 532q-55 39 -127 39q-129 0 -222.5 -97.5t-113.5 -242.5z M557 233q127 0 221 97.5t115 238.5q18 141 -45 234l-422 -535q53 -35 131 -35z" glyph-name="glyph660" horiz-adv-x="1228"/><glyph d="M758 1202h-199l221 334h260zM950 930q168 -156 133 -418q-33 -225 -202.5 -378.5t-397.5 -153.5q-139 0 -247 63l-89 -111h-114l131 162q-166 158 -129 418q31 227 201 379.5t397 152.5q141 0 246 -63l90 111h114zM289 512q-18 -127 39 -213l395 485q-53 35 -123 35 q-121 0 -208 -88t-103 -219zM514 207q119 0 207 88t106 217q18 125 -41 213l-393 -487q53 -31 121 -31z" glyph-name="glyph661" horiz-adv-x="1153"/><glyph d="M801 1176q-121 0 -185 116q-20 45 -61 45t-61.5 -41t-12.5 -104h-153q-6 127 64.5 211t176.5 84q127 0 187 -117q20 -45 61 -45t61.5 40t12.5 103h153q8 -125 -62 -208.5t-181 -83.5zM530.5 -14q-247.5 0 -386 166.5t-103.5 412.5q35 248 219 414t432 166t386.5 -167 t103.5 -413t-219.5 -412.5t-432 -166.5zM565 231q131 0 226.5 96.5t113.5 237.5q23 141 -45.5 238.5t-200 97.5t-226.5 -96t-118 -240q-18 -143 50.5 -238.5t199.5 -95.5z" glyph-name="glyph662" horiz-adv-x="1247"/><glyph d="M1470 1137q240 0 357 -155t80 -415q0 -2 -17 -88h-786q-8 -127 60.5 -201.5t176.5 -74.5q199 0 289 151h225q-47 -152 -188 -258t-358 -106q-252 0 -381 176q-180 -184 -445 -184q-248 0 -386 167.5t-103 411.5q35 246 220 413t433 167q252 0 389 -176q176 172 434 172z M1657 674q2 117 -53.5 181.5t-165.5 64.5q-225 0 -301 -246h520zM518 229q109 0 195 68t125 176q4 57 8 90q6 45 18 88q-10 111 -76.5 178.5t-175.5 67.5q-131 0 -225 -96t-114.5 -239.5t47 -238t198.5 -94.5z" glyph-name="glyph663" horiz-adv-x="1941"/><glyph d="M743 1044q209 0 321 -152.5t81 -379.5q-33 -225 -188.5 -378.5t-362.5 -153.5q-182 0 -283 133l-90 -627l-254 2l217 1536h254l-14 -113q133 133 319 133zM578 207q119 0 206.5 88t106.5 217q16 131 -46.5 219t-180.5 88q-90 0 -166 -56t-117 -147l-29 -208 q14 -90 75 -145.5t151 -55.5z" glyph-name="glyph664" horiz-adv-x="1232"/><glyph d="M788 1044q213 0 340 -154.5t97 -377.5q-33 -223 -203 -377.5t-383 -154.5q-211 0 -322 159l-92 -651h-258l289 2048h258l-92 -651q155 159 366 159zM633 207q127 0 228.5 89t121.5 216q16 129 -60.5 218t-203.5 89t-229.5 -89t-118.5 -218q-18 -127 58.5 -216t203.5 -89z " glyph-name="glyph665" horiz-adv-x="1312"/><glyph d="M1151 1024l-217 -1536l-254 -2l88 627q-139 -133 -319 -133q-209 0 -321 153.5t-79 378.5q31 227 185.5 379.5t363.5 152.5q182 0 283 -133l16 113h254zM528 207q88 0 165 55t116 146l31 210q-16 90 -77 145.5t-149 55.5q-121 0 -208 -88t-103 -219q-18 -131 43 -218 t182 -87z" glyph-name="glyph666" horiz-adv-x="1232"/><glyph d="M795 1044l-29 -202q-379 6 -426 -324l-72 -518h-258l144 1024h258l-25 -168q39 78 142.5 134t265.5 54z" glyph-name="glyph667" horiz-adv-x="774"/><glyph d="M623 1202h-199l221 334h260zM866 1139l-35 -244q-205 4 -321.5 -82t-144.5 -285l-74 -528h-281l158 1126h260l-6 -170q45 76 157.5 130.5t286.5 52.5z" glyph-name="glyph668" horiz-adv-x="831"/><glyph d="M391 1186l-164 350h191l125 -233l190 233h191l-265 -350h-268zM870 1139l-34 -244q-205 4 -322 -82t-145 -285l-74 -528h-281l158 1126h260l-6 -170q45 76 157.5 130.5t286.5 52.5z" glyph-name="glyph669" horiz-adv-x="837"/><glyph d="M868 1139l-34 -244q-205 4 -322 -82t-145 -285l-74 -528h-281l158 1126h260l-6 -170q45 76 157.5 130.5t286.5 52.5zM55 -387q-43 16 -64.5 56t-15.5 87q10 61 59.5 105.5t111 44.5t98.5 -44t26 -106q-6 -55 -61 -138t-119 -150h-139z" glyph-name="glyph670" horiz-adv-x="833"/><glyph d="M416 -20q-201 0 -303.5 103t-98.5 236h219q6 -70 64.5 -113.5t136.5 -39.5q158 6 174 127q6 57 -45 86t-166 59q-55 14 -93 26.5t-84 36t-72.5 52.5t-42 73t-7.5 99q20 143 146.5 231t306.5 88q156 0 260 -81.5t98 -235.5h-219q-8 113 -153 125q-68 4 -116 -21.5 t-56 -74.5q-2 -14 0 -25.5t9 -22t13 -18.5t22.5 -16t25.5 -12.5t31.5 -12.5t34 -11t38 -10t39.5 -12q143 -39 224 -107.5t62 -203.5q-20 -147 -143 -236t-305 -89z" glyph-name="glyph671" horiz-adv-x="978"/><glyph d="M705 1536h260l-283 -334h-197zM457 -16q-221 0 -332 112.5t-105 257.5h238q6 -74 68.5 -123t148.5 -45q174 8 191 138q8 63 -50.5 96t-179.5 63q-78 20 -128 39t-105.5 54.5t-78 91t-11.5 129.5q20 158 157.5 253t333.5 95q168 0 284 -89t107 -257h-237q-8 63 -55.5 97 t-114.5 38q-74 4 -126 -23.5t-61 -81.5q-10 -72 101 -112q29 -10 131 -39q57 -16 98 -31.5t89 -44.5t76 -62.5t43 -86t5 -115.5q-20 -160 -154 -257t-333 -97z" glyph-name="glyph672" horiz-adv-x="1054"/><glyph d="M279 1536h190l125 -233l190 233h191l-264 -350h-269zM457 -16q-221 0 -332 112.5t-105 257.5h238q6 -74 68.5 -123t148.5 -45q174 8 191 138q8 63 -50.5 96t-179.5 63q-78 20 -128 39t-105.5 54.5t-78 91t-11.5 129.5q20 158 157.5 253t333.5 95q168 0 284 -89t107 -257 h-237q-8 63 -55.5 97t-114.5 38q-74 4 -126 -23.5t-61 -81.5q-10 -72 101 -112q29 -10 131 -39q57 -16 98 -31.5t89 -44.5t76 -62.5t43 -86t5 -115.5q-20 -160 -154 -257t-333 -97z" glyph-name="glyph673" horiz-adv-x="1054"/><glyph d="M457 -16q-221 0 -332 112.5t-105 257.5h238q6 -74 68.5 -123t148.5 -45q174 8 191 138q8 63 -50.5 96t-179.5 63q-78 20 -128 39t-105.5 54.5t-78 91t-11.5 129.5q20 158 157.5 253t333.5 95q168 0 284 -89t107 -257h-237q-8 63 -55.5 97t-114.5 38q-74 4 -126 -23.5 t-61 -81.5q-10 -72 101 -112q29 -10 131 -39q57 -16 98 -31.5t89 -44.5t76 -62.5t43 -86t5 -115.5q-20 -160 -154 -257t-333 -97zM481 -18l-73 -111q106 20 170.5 -34t50.5 -150q-12 -92 -85 -155.5t-165 -63.5q-74 0 -137.5 41.5t-79.5 101.5l121 43q12 -29 44.5 -48.5 t67.5 -19.5q41 0 74 30t37 71q10 61 -39 81.5t-131 -12.5l-86 58l110 170z" glyph-name="glyph674" horiz-adv-x="1054"/><glyph d="M457 -16q-221 0 -332 112.5t-105 257.5h238q6 -74 68.5 -123t148.5 -45q174 8 191 138q8 63 -50.5 96t-179.5 63q-78 20 -128 39t-105.5 54.5t-78 91t-11.5 129.5q20 158 157.5 253t333.5 95q168 0 284 -89t107 -257h-237q-8 63 -55.5 97t-114.5 38q-74 4 -126 -23.5 t-61 -81.5q-10 -72 101 -112q29 -10 131 -39q57 -16 98 -31.5t89 -44.5t76 -62.5t43 -86t5 -115.5q-20 -160 -154 -257t-333 -97zM319 -440q-43 16 -64.5 55t-12.5 86q8 63 57 106t113 43q59 0 96 -43t29 -106q-8 -53 -63.5 -137t-119.5 -150h-139z" glyph-name="glyph675" horiz-adv-x="1054"/><glyph d="M457 -16q-221 0 -332 112.5t-105 257.5h238q6 -74 68.5 -123t148.5 -45q174 8 191 138q8 63 -50.5 96t-179.5 63q-78 20 -128 39t-105.5 54.5t-78 91t-11.5 129.5q20 158 157.5 253t333.5 95q168 0 284 -89t107 -257h-237q-8 63 -55.5 97t-114.5 38q-74 4 -126 -23.5 t-61 -81.5q-10 -72 101 -112q29 -10 131 -39q57 -16 98 -31.5t89 -44.5t76 -62.5t43 -86t5 -115.5q-20 -160 -154 -257t-333 -97zM376.5 -416q-61.5 0 -100 44t-30.5 108q10 61 60 105t114 44q61 0 99 -44t30 -105q-8 -63 -59.5 -107.5t-113 -44.5z" glyph-name="glyph676" horiz-adv-x="1054"/><glyph d="M1065 797q94 -59 140 -160.5t30 -220.5q-27 -182 -165 -309t-312 -127q-84 0 -180.5 30.5t-147.5 77.5l129 199q33 -29 84 -49.5t100 -18.5q82 4 153 63.5t83 147.5q14 96 -50.5 166t-166.5 70h-92l30 211h37q94 0 171 66.5t91 158.5q12 90 -49 149.5t-170 59.5 q-117 0 -204 -67.5t-101 -172.5l-149 -1071h-256l149 1071q29 201 198 333t392 132q215 0 338 -123t96 -307q-28 -184 -178 -309z" glyph-name="glyph677" horiz-adv-x="1386"/><glyph d="M592 4q-59 -25 -140 -23.5t-162 30t-129 113.5t-30 212l70 493h-127l26 195h127l49 348h259l-50 -348h258l-26 -195h-258l-70 -495q-16 -106 57.5 -137t171.5 -4z" glyph-name="glyph678" horiz-adv-x="743"/><glyph d="M825 909h-293l-45 -321h220l-21 -152h-221l-8 -59q-12 -82 22.5 -118t120.5 -36h135l-33 -225h-135q-100 0 -163.5 10t-123 45t-81 110t-4.5 193l12 80h-187l21 152h186l47 321h-186l31 221h184l57 406h261l-58 -406h293z" glyph-name="glyph679" horiz-adv-x="864"/><glyph d="M776 1305q-92 37 -82 143q10 61 60.5 105t112 44t97 -44t25.5 -105q-6 -55 -61.5 -138t-118.5 -151h-137zM565 -2q-100 0 -164.5 10t-124 45t-80 110t-3.5 193l77 553h-186l31 221h186l57 406h260l-57 -406h291l-29 -221h-295l-75 -532q-10 -84 23.5 -119t119.5 -35h137 l-33 -225h-135z" glyph-name="glyph680" horiz-adv-x="931"/><glyph d="M565 -2q-100 0 -164.5 10t-124 45t-80 110t-3.5 193l77 553h-186l31 221h186l57 406h260l-57 -406h291l-29 -221h-295l-75 -532q-10 -84 23.5 -119t119.5 -35h137l-33 -225h-135zM375 -129q106 20 170.5 -34t50.5 -150q-12 -92 -85 -155.5t-165 -63.5q-74 0 -137.5 41.5 t-81.5 101.5l121 43q14 -29 47 -48.5t67 -19.5q41 0 74 30t37 71q10 61 -39 81.5t-131 -12.5l-86 58l123 186l109 -14z" glyph-name="glyph681" horiz-adv-x="874"/><glyph d="M565 -2q-100 0 -164.5 10t-124 45t-80 110t-3.5 193l77 553h-186l31 221h186l57 406h260l-57 -406h291l-29 -221h-295l-75 -532q-10 -84 23.5 -119t119.5 -35h137l-33 -225h-135zM244 -430q-41 16 -63.5 56t-14.5 87q8 61 57 105.5t113 44.5q59 0 96 -44t29 -106 q-8 -55 -63.5 -139t-118.5 -149h-140z" glyph-name="glyph682" horiz-adv-x="860"/><glyph d="M565 -2q-100 0 -164.5 10t-124 45t-80 110t-3.5 193l77 553h-186l31 221h186l57 406h260l-57 -406h291l-29 -221h-295l-75 -532q-10 -84 23.5 -119t119.5 -35h137l-33 -225h-135zM329.5 -115q61.5 0 99.5 -44t30 -105q-8 -63 -58.5 -107.5t-113.5 -44.5q-61 0 -99 44 t-30 108q8 61 59 105t112.5 44z" glyph-name="glyph683" horiz-adv-x="860"/><glyph d="M1135 1024l-144 -1024h-231l4 129q-68 -70 -165 -109.5t-193 -39.5q-168 0 -260.5 111.5t-67.5 283.5l92 649h258l-88 -618q-12 -92 33 -145.5t137 -53.5q100 0 184 55t97 144l88 618h256z" glyph-name="glyph684" horiz-adv-x="1183"/><glyph d="M797 1202h-197l221 334h258zM1237 1126l-158 -1126h-250l2 152q-72 -76 -177 -119t-210 -43q-186 0 -286.5 120.5t-73.5 309.5l100 706h281l-94 -673q-16 -98 34 -157.5t150 -59.5q109 0 202 61t105 156l94 673h281z" glyph-name="glyph685" horiz-adv-x="1271"/></font>
</defs>
</svg>
