<?xml version="1.0" standalone="no"?>
<!DOCTYPE svg PUBLIC "-//W3C//DTD SVG 1.1//EN" "http://www.w3.org/Graphics/SVG/1.1/DTD/svg11.dtd">
<svg xmlns="http://www.w3.org/2000/svg"><metadata>This SVG WebFont was generated by YouWorkForThem.
\(c\)2017 Oakes is a trademark of Samuel Oakes. All rights reserved.</metadata><defs><font horiz-adv-x="0" id="ywftsvg"><font-face ascent="1536" bbox="-1526 -674 2413 2073" cap-height="1536" descent="-512" font-family="" font-stretch="normal" font-weight="400" panose-1="0 0 4 0 0 0 0 0 0 0" underline-position="0" underline-thickness="0" unicode-range="U+000D-FB02" units-per-em="2048" x-height="1118"/><missing-glyph d="M182 1536h844v-1536h-844v1536zM891 137v1264h-574v-1264h574z" horiz-adv-x="1208"/><glyph d="M260 0v975h-154v143h154v101q0 129 66.5 218t185.5 103q61 8 124.5 -3t102.5 -38l-2 -143q-27 14 -63.5 24.5t-85.5 10.5t-82 -23q-63 -47 -64 -172v-78h242v-143h-242v-975h-182zM1018 1305q-47 0 -81 33.5t-34 82.5q0 47 34 82t81 35q49 0 83 -35t34 -82 q0 -49 -34 -82.5t-83 -33.5zM926 1126h188v-1126h-188v1126z" glyph-name="uniFB01" horiz-adv-x="1253" unicode="fi"/><glyph d="M260 0v975h-154v143h154v101q0 129 66.5 218t185.5 103q61 8 124.5 -3t102.5 -38l-2 -143q-27 14 -63.5 24.5t-85.5 10.5t-82 -23q-63 -47 -64 -172v-78h242v-143h-242v-975h-182zM983 0v1536h178v-1536h-178z" glyph-name="uniFB02" horiz-adv-x="1349" unicode="fl"/><glyph d="M182 1536h844v-1536h-844v1536zM891 137v1264h-574v-1264h574z" glyph-name=".notdef" horiz-adv-x="1208"/><glyph glyph-name="glyph1"/><glyph glyph-name="glyph2" horiz-adv-x="681"/><glyph glyph-name="space" horiz-adv-x="524" unicode=" "/><glyph d="M213 1536h168l-12 -1098h-144zM299 -16q-49 0 -83 34.5t-34 84t34 83t83 33.5q47 0 82 -33.5t35 -83.5q0 -47 -35 -82.5t-82 -35.5z" glyph-name="exclam" horiz-adv-x="595" unicode="!"/><glyph d="M330 1538q43 0 71.5 -30.5t28.5 -80.5q0 -45 -18.5 -99t-34.5 -87l-19 -31h-59q-12 23 -29 58l-28 -58h-60q-68 117 -67 217q0 49 28.5 80t71.5 31q33 0 57 -18q25 18 58 18z" glyph-name="quotedbl" horiz-adv-x="544" unicode="&quot;"/><glyph d="M414 358h-289l16 131h289l72 474h-293l22 129h285l51 360h129l-49 -360h385l49 360h131l-51 -360h289l-20 -129h-287l-66 -474h287l-18 -131h-287l-53 -358h-127l49 358h-387l-49 -358h-130zM946 489l68 474h-385l-68 -474h385z" glyph-name="numbersign" horiz-adv-x="1574" unicode="#"/><glyph d="M772 860q88 -33 130 -50t115 -58t108.5 -81t64.5 -103.5t29 -141.5q0 -188 -125 -303t-322 -137v-162h-135v158q-215 12 -347 141t-149 313h178q18 -111 95.5 -190.5t222.5 -91.5v589h-2q-86 33 -130 50.5t-116 56.5t-107.5 77t-64.5 97t-29 131q0 178 129 282.5 t320 116.5v132h135v-134q385 -39 453 -432h-164q-14 98 -85 176t-204 99v-535zM373 1165q0 -90 67.5 -145t196.5 -107v486q-113 -12 -188.5 -72t-75.5 -162zM1034 420q2 102 -66.5 162.5t-195.5 109.5v-534q123 18 191.5 83.5t70.5 178.5z" glyph-name="dollar" horiz-adv-x="1325" unicode="$"/><glyph d="M393 909q-117 0 -198.5 95.5t-81.5 228.5t81.5 228t198.5 95t199 -95t82 -228t-82 -228.5t-199 -95.5zM1196 1536h182l-1050 -1536h-183zM393.5 1044q59.5 0 102.5 55.5t43 133.5t-43 133t-102.5 55t-101.5 -55t-42 -133t42 -133.5t101.5 -55.5zM1132.5 -20 q-116.5 0 -198.5 95t-82 230q0 133 82 228.5t198.5 95.5t198.5 -95.5t82 -228.5q0 -135 -82 -230t-198.5 -95zM1132.5 117q59.5 0 101.5 54t42 134q0 78 -42 132.5t-101.5 54.5t-102.5 -54.5t-43 -132.5q0 -80 43 -134t102.5 -54z" glyph-name="percent" horiz-adv-x="1523" unicode="%"/><glyph d="M616 -39q-190 0 -327 126t-137 300q0 131 66.5 239.5t189.5 180.5q-156 164 -156 315q0 168 96 270.5t268 100.5q139 -2 236.5 -103.5t97.5 -244.5q0 -113 -72.5 -210t-199.5 -159l348 -346l184 348h191l-252 -465l311 -338h-237l-185 193q-176 -207 -422 -207zM573 891 q217 94 218 256q0 86 -51.5 144.5t-129.5 58.5q-102 0 -149 -62.5t-47.5 -165t159.5 -231.5zM621 129q174 0 307 164l-416 403q-199 -106 -199 -299q0 -121 85.5 -194.5t222.5 -73.5z" glyph-name="ampersand" horiz-adv-x="1499" unicode="&amp;"/><glyph d="M219 1538q43 0 70.5 -30.5t27.5 -80.5q0 -45 -17 -99t-34 -87l-18 -31h-62q-66 117 -65 217q0 49 27.5 80t70.5 31z" glyph-name="quotesingle" horiz-adv-x="350" unicode="'"/><glyph d="M549 -451q-143 123 -255 403.5t-112 602.5q0 340 116 625.5t296 437.5h129q-178 -170 -280.5 -467t-102.5 -596q0 -279 89 -548t249 -460z" glyph-name="parenleft" horiz-adv-x="821" unicode="("/><glyph d="M350 1618q143 -125 255 -405.5t112 -600.5q0 -342 -116 -627.5t-298 -437.5h-127q178 170 280.5 468t102.5 597q0 279 -89 546t-249 460h129z" glyph-name="parenright" horiz-adv-x="821" unicode=")"/><glyph d="M180 1098l109 153l-189 -16v100l189 -16l-109 154l86 51l80 -172l80 172l88 -51l-111 -154l189 16v-100l-189 16l111 -153l-88 -51l-80 170l-80 -170z" glyph-name="asterisk" horiz-adv-x="690" unicode="*"/><glyph d="M758 537h-461v122h461v492h121v-492h460v-122h-460v-492h-121v492z" glyph-name="plus" horiz-adv-x="1632" unicode="+"/><glyph d="M172 -2q-80 31 -80 113q0 47 34 81.5t83 34.5t81 -33.5t32 -82.5q0 -55 -48.5 -139.5t-78.5 -123.5h-74z" glyph-name="comma" horiz-adv-x="425" unicode=","/><glyph d="M182 594h717v-123h-717v123z" glyph-name="hyphen" horiz-adv-x="1079" unicode="-"/><glyph d="M186 -20q-47 0 -81.5 34.5t-34.5 81.5q0 49 34.5 84t81.5 35q49 0 84 -35t35 -84q0 -47 -35 -81.5t-84 -34.5z" glyph-name="period" horiz-adv-x="372" unicode="."/><glyph d="M719 1536h168l-758 -2048h-170z" glyph-name="slash" horiz-adv-x="983" unicode="/"/><glyph d="M694 -20q-279 0 -426 218t-147 570q0 350 150.5 569t422.5 219q305 0 446.5 -213t141.5 -575t-141.5 -575t-446.5 -213zM696 135q410 0 410 633t-410 633q-195 0 -297 -175t-102 -458q0 -287 98 -459t301 -174z" glyph-name="zero" horiz-adv-x="1388" unicode="0"/><glyph d="M381 1327l-313 -246v207l325 248h164v-1536h-176v1327z" glyph-name="one" horiz-adv-x="800" unicode="1"/><glyph d="M84 119q551 561 647 672q141 162 160 260q4 27 4 59q0 137 -83 213t-208 78q-129 4 -214 -78t-85 -217l-170 2q-2 199 135.5 326t339.5 125q190 -2 317.5 -117t135.5 -305q6 -164 -99.5 -304.5t-510.5 -551.5q-80 -82 -123 -125h784v-156h-1030v119z" glyph-name="two" horiz-adv-x="1208" unicode="2"/><glyph d="M567 -20q-207 0 -352 131t-145 315l174 2q2 -119 99 -203t224 -84q139 0 237.5 83t98.5 233q0 129 -88 219t-217 90h-123v141h113q102 0 174 73t72 177q0 102 -78 170t-203 68q-113 0 -188.5 -61.5t-83.5 -164.5l-168 5q6 180 141 281t299 101q195 0 317.5 -110.5 t122.5 -271.5q0 -98 -52 -180.5t-140 -129.5q123 -55 198.5 -164.5t75.5 -244.5q0 -213 -144.5 -344t-363.5 -131z" glyph-name="three" horiz-adv-x="1216" unicode="3"/><glyph d="M1108 324h-162v-324h-174v324h-741v112l698 1100h217v-1057h162v-155zM772 479v873l-536 -873h536z" glyph-name="four" horiz-adv-x="1226" unicode="4"/><glyph d="M616 -20q-197 0 -334 113.5t-147 268.5h160q27 -100 110.5 -161.5t202.5 -59.5q152 2 254.5 104.5t102.5 256.5q0 152 -103.5 257t-253.5 105q-166 0 -289 -123l-149 70l88 721h793v-156h-656l-61 -467q127 111 315 111q211 0 351.5 -146.5t140.5 -365.5 q0 -229 -150 -378.5t-375 -149.5z" glyph-name="five" horiz-adv-x="1261" unicode="5"/><glyph d="M659 -16q-205 0 -358.5 142t-173.5 353q-14 123 -14 254q0 352 127 568.5t393 244.5q45 4 63 4q199 0 337 -116.5t151 -262.5h-176q-8 76 -88 148t-215 72q-121 0 -210 -50.5t-136.5 -138.5t-68 -189.5t-20.5 -221.5q31 78 91.5 132t129 74.5t110.5 27.5t69 7 q231 0 373.5 -139t154.5 -358q10 -225 -149 -388t-390 -163zM662 135q158 0 263 108.5t105 262.5q0 160 -107.5 266.5t-265.5 106.5q-154 0 -259 -108.5t-105 -260.5q0 -160 106.5 -267.5t262.5 -107.5z" glyph-name="six" horiz-adv-x="1320" unicode="6"/><glyph d="M895 1380h-823v156h1026v-115l-795 -1421h-199z" glyph-name="seven" horiz-adv-x="1128" unicode="7"/><glyph d="M807 854q121 -55 193.5 -163.5t72.5 -244.5q0 -197 -142.5 -331.5t-350.5 -134.5q-207 0 -349.5 136t-142.5 330q0 135 72.5 244t193.5 164q-84 51 -133 135t-49 185q0 162 119 272t291 110t290.5 -110.5t118.5 -271.5q0 -100 -50 -184.5t-134 -135.5zM581.5 1415 q-106.5 0 -183 -73.5t-76.5 -180t76.5 -181.5t183 -75t183.5 75t77 181.5t-77 180t-183.5 73.5zM580 135q133 0 225 94.5t92 229.5q0 131 -92 222t-225.5 91t-224.5 -91t-91 -222q0 -133 92.5 -228.5t223.5 -95.5z" glyph-name="eight" horiz-adv-x="1161" unicode="8"/><glyph d="M659 -12q-203 0 -342 111.5t-153 260.5l176 -2q8 -74 91 -142.5t226 -68.5q33 0 50 3q180 18 269 177.5t95 411.5q-33 -74 -90 -125t-119.5 -72.5t-103.5 -28.5t-72 -7q-238 0 -385 145.5t-151 366.5q-2 221 155.5 378.5t380.5 157.5q211 0 362.5 -142t176.5 -355 q14 -123 14 -258q0 -371 -141.5 -591t-438.5 -220zM692 655q156 0 260.5 108.5t104.5 262.5q0 158 -107.5 265.5t-261.5 107.5q-156 0 -263.5 -109.5t-107.5 -263.5q0 -160 108.5 -265.5t266.5 -105.5z" glyph-name="nine" horiz-adv-x="1320" unicode="9"/><glyph d="M299 811q-47 0 -82 34t-35 83q0 47 35 81.5t82 34.5t83 -34.5t36 -81.5q0 -49 -35 -83t-84 -34zM299 -20q-47 0 -82 34.5t-35 81.5q0 49 35 84t82 35t83 -35t36 -84q0 -47 -36 -81.5t-83 -34.5z" glyph-name="colon" horiz-adv-x="598" unicode=":"/><glyph d="M295 807q-47 0 -82 33.5t-35 83.5q0 47 35 81.5t82 34.5q49 0 83 -34.5t34 -81.5q0 -49 -34 -83t-83 -34zM258 -2q-80 31 -80 113q0 47 34 81.5t83 34.5t81 -33.5t32 -82.5q0 -55 -46.5 -137.5t-80.5 -127.5h-74z" glyph-name="semicolon" horiz-adv-x="614" unicode=";"/><glyph d="M1313 1204l-991 -499l991 -500v-152l-1131 572v159l1131 568v-148z" glyph-name="less" horiz-adv-x="1492" unicode="&lt;"/><glyph d="M121 797h1229v-117h-1229v117zM121 408h1229v-117h-1229v117z" glyph-name="equal" horiz-adv-x="1468" unicode="="/><glyph d="M1313 784v-159l-1131 -572v152l989 500l-989 499v148z" glyph-name="greater" horiz-adv-x="1492" unicode=">"/><glyph d="M487 512q0 88 38 162t92.5 124t108.5 97t92 104.5t38 120.5q0 119 -81 195t-208 76q-123 0 -203.5 -77t-84.5 -196h-158q0 184 127 306t319.5 122t319.5 -121.5t127 -304.5q0 -78 -38 -148.5t-91.5 -124.5t-107.5 -103.5t-92 -104.5t-38 -109v-143h-160v125zM575 -20 q-49 0 -82.5 34.5t-33.5 81.5q0 49 33.5 84t82.5 35q47 0 82 -35t35 -84q0 -47 -35 -81.5t-82 -34.5z" glyph-name="question" horiz-adv-x="1134" unicode="?"/><glyph d="M688 -20q-266 0 -437 168.5t-171 431.5q0 260 182 442t443 182q254 0 415.5 -151.5t161.5 -388.5q0 -168 -77 -274.5t-197 -106.5q-129 0 -170 100q-82 -109 -205 -109q-115 0 -183.5 74t-68.5 199q0 145 88 248.5t213 103.5q106 0 164 -70l4 58h135l-43 -369 q-18 -121 66 -121q70 0 110.5 71t40.5 194q0 195 -124 310t-330 115q-213 0 -354.5 -144t-141.5 -361q0 -215 132 -350.5t347 -135.5v-116zM647 389q72 0 124 67.5t52 161.5q0 78 -35.5 121t-99.5 43q-72 0 -122 -67.5t-50 -167.5q0 -74 35 -116t96 -42z" glyph-name="at" horiz-adv-x="1232" unicode="@"/><glyph d="M1133 379h-738l-147 -379h-199l617 1536h202l617 -1536h-197zM1079 539l-313 811l-313 -811h626z" glyph-name="A" horiz-adv-x="1533" unicode="A"/><glyph d="M889 805q139 -31 225 -139.5t86 -257.5q0 -178 -122 -293t-302 -115h-692v1536h604q182 0 305 -113.5t123 -292.5q0 -127 -62.5 -213.5t-164.5 -111.5zM934 1110q0 111 -78 188.5t-186 77.5h-406v-512h406q113 0 188.5 68.5t75.5 177.5zM754 162q111 0 187.5 77.5 t76.5 188.5t-78 199t-186 88h-490v-553h490z" glyph-name="B" horiz-adv-x="1257" unicode="B"/><glyph d="M805 -20q-324 -2 -529.5 226t-205.5 562t205.5 561t529.5 227q150 0 276.5 -48t206.5 -124.5t127 -163.5t58 -176h-187q-12 55 -45 110.5t-87 110t-145 87t-204 32.5q-254 0 -408.5 -176t-154.5 -440q0 -262 154.5 -438t408.5 -176q197 0 329 100t152 215h187 q-10 -78 -60.5 -161t-132.5 -156.5t-207 -121.5t-268 -50z" glyph-name="C" horiz-adv-x="1587" unicode="C"/><glyph d="M139 1536h469q162 0 299 -46t243.5 -138t166 -245t59.5 -351q0 -348 -219 -552t-549 -204h-469v1536zM606 162q260 0 424 152.5t164 441.5q0 322 -161 471t-427 149h-289v-1214h289z" glyph-name="D" horiz-adv-x="1476" unicode="D"/><glyph d="M287 1376v-526h682v-162h-682v-526h768v-162h-951v1536h951v-160h-768z" glyph-name="E" horiz-adv-x="1171" unicode="E"/><glyph d="M289 1376v-526h678v-162h-678v-688h-180v1536h944v-160h-764z" glyph-name="F" horiz-adv-x="1142" unicode="F"/><glyph d="M1436 784v-166v-618h-121l-37 244q-82 -131 -203 -192.5t-313 -61.5q-324 0 -517.5 225t-193.5 549q0 348 195.5 568t509.5 220q258 0 435 -128t212 -361h-174q-41 156 -170 238.5t-291 82.5q-252 0 -400.5 -170t-148.5 -450q0 -270 156.5 -439t384.5 -169q246 0 373 128 t127 343h-420v157h596z" glyph-name="G" horiz-adv-x="1546" unicode="G"/><glyph d="M1339 1536v-1536h-180v688h-823v-688h-182v1536h182v-686h823v686h180z" glyph-name="H" horiz-adv-x="1492" unicode="H"/><glyph d="M154 1536h182v-1536h-182v1536z" glyph-name="I" horiz-adv-x="503" unicode="I"/><glyph d="M242 -20q-94 0 -158 18v186q68 -23 152 -22q72 0 124 51t52 123v1200h178v-1206q0 -150 -100.5 -250t-247.5 -100z" glyph-name="J" horiz-adv-x="749" unicode="J"/><glyph d="M1030 0l-725 709v-709h-182v1536h182v-727l649 725h224l-689 -768l775 -766h-234z" glyph-name="K" horiz-adv-x="1302" unicode="K"/><glyph d="M109 1536h180v-1374h565v-162h-745v1536z" glyph-name="L" horiz-adv-x="944" unicode="L"/><glyph d="M1667 1536v-1536h-180v1272l-518 -1272h-148l-516 1272v-1272h-182v1536h248l524 -1307l526 1307h246z" glyph-name="M" horiz-adv-x="1820" unicode="M"/><glyph d="M1374 1536v-1536h-172l-928 1245v-1245h-182v1536h172l930 -1243v1243h180z" glyph-name="N" horiz-adv-x="1511" unicode="N"/><glyph d="M805 -20q-326 0 -538 228t-212 560t212 560t538 228q324 0 536.5 -228t212.5 -560t-212.5 -560t-536.5 -228zM805 154q254 0 414.5 177t160.5 437q0 262 -160.5 439t-414.5 177q-256 0 -417 -177t-161 -439t161 -438t417 -176z" glyph-name="O" horiz-adv-x="1636" unicode="O"/><glyph d="M743 1536q178 0 304.5 -137t126.5 -319.5t-126 -317.5t-305 -135h-454v-627h-180v1536h634zM731 778q113 0 196 89t83 210q0 119 -83 209t-196 90h-442v-598h442z" glyph-name="P" horiz-adv-x="1259" unicode="P"/><glyph d="M1610 147v-147h-39q-137 0 -242 106l-47 48q-203 -174 -477 -174q-326 0 -538 228t-212 560t212 560t538 228q324 0 536.5 -228t212.5 -560q0 -287 -163 -500l57 -59q59 -61 137 -62h25zM805 154q211 0 358 125l-254 268l109 110l252 -262q111 162 110 373 q0 262 -160.5 439t-414.5 177q-256 0 -417 -177t-161 -439t161 -438t417 -176z" glyph-name="Q" horiz-adv-x="1656" unicode="Q"/><glyph d="M1219 0h-203l-389 637h-353v-637h-182v1536h637q176 0 303 -138t127 -321q0 -156 -100.5 -281.5t-247.5 -148.5zM723 784q113 0 191.5 89.5t78.5 208t-79.5 206.5t-190.5 88h-449v-592h449z" glyph-name="R" horiz-adv-x="1290" unicode="R"/><glyph d="M612 -20q-233 0 -384.5 131t-170.5 325h179q20 -119 115 -201.5t265 -82.5q162 0 263.5 68.5t103.5 199.5q0 29 -7 55.5t-16.5 46t-31 41l-34.5 34.5t-46 31.5t-48.5 27t-56.5 24.5t-56 21.5t-61 21.5t-59 20q-88 31 -137 50.5t-120.5 57.5t-109.5 76t-67 97t-29 131 q0 188 153 294.5t359 106.5q242 0 374 -111.5t167 -309.5h-164q-14 109 -112.5 187.5t-262.5 78.5q-129 0 -228 -61.5t-99 -174.5q0 -43 21.5 -79.5t45 -60.5t80 -53.5t86 -41.5t101.5 -39q25 -10 37 -14q18 -6 74.5 -28t80 -32t73.5 -31.5t74.5 -38t63.5 -43t58.5 -54 t41 -61.5t30.5 -75t9 -88q0 -209 -162 -327.5t-393 -118.5z" glyph-name="S" horiz-adv-x="1218" unicode="S"/><glyph d="M1122 1376h-463v-1374h-178v1374h-463v162h1104v-162z" glyph-name="T" horiz-adv-x="1183" unicode="T"/><glyph d="M680 -20q-244 0 -415 152.5t-171 371.5v1032h182v-1004q0 -162 119 -276.5t285 -114.5q170 0 294 115t124 276v1004h180v-1032q0 -219 -176 -371.5t-422 -152.5z" glyph-name="U" horiz-adv-x="1423" unicode="U"/><glyph d="M1432 1536l-617 -1536h-201l-618 1536h205l514 -1325l514 1325h203z" glyph-name="V" horiz-adv-x="1476" unicode="V"/><glyph d="M2083 1536l-469 -1536h-211l-342 1204l-338 -1204h-211l-481 1536h194l391 -1327l357 1327h184l352 -1329l379 1329h195z" glyph-name="W" horiz-adv-x="2129" unicode="W"/><glyph d="M1071 0l-414 631l-413 -631h-207l522 780l-508 756h205l401 -606l402 606h207l-510 -756l526 -780h-211z" glyph-name="X" horiz-adv-x="1316" unicode="X"/><glyph d="M754 729v-729h-181v725l-536 811h203l422 -653l425 653h201z" glyph-name="Y" horiz-adv-x="1325" unicode="Y"/><glyph d="M1251 162v-162h-1163v94l889 1282h-866v160h1114v-94l-889 -1280h915z" glyph-name="Z" horiz-adv-x="1343" unicode="Z"/><glyph d="M162 1698h418v-125h-265v-2122h265v-125h-418v2372z" glyph-name="bracketleft" horiz-adv-x="571" unicode="["/><glyph d="M57 1536l557 -1536l172 -512l-555 1536z" glyph-name="backslash" horiz-adv-x="1198" unicode="\"/><glyph d="M162 -549h264v2122h-264v125h418v-2372h-418v125z" glyph-name="bracketright" horiz-adv-x="571" unicode="]"/><glyph d="M1206 406l-497 989l-498 -989h-152l570 1130h159l570 -1130h-152z" glyph-name="asciicircum" horiz-adv-x="1417" unicode="^"/><glyph d="M182 0h1024v-123h-1024v123z" glyph-name="underscore" horiz-adv-x="1386" unicode="_"/><glyph d="M59 1536h181l184 -315h-141z" glyph-name="grave" horiz-adv-x="94" unicode="`"/><glyph d="M434 -10q-164 0 -268.5 91t-104.5 236q0 154 115 250.5t348 112.5l275 18v37q0 125 -72 188.5t-199 63.5q-113 0 -186.5 -62.5t-85.5 -164.5h-170q16 160 130 270.5t321 110.5q203 0 319.5 -107.5t116.5 -302.5q0 -82 1 -182t1 -170v-78q0 -86 19.5 -121t64.5 -33v-147 q-23 0 -64 4q-152 25 -182 156q-45 -72 -150.5 -121t-228.5 -49zM461 141q125 0 226 74t112 170v172l-258 -20q-303 -25 -303 -215q0 -82 67.5 -131.5t155.5 -49.5z" glyph-name="a" horiz-adv-x="1114" unicode="a"/><glyph d="M678 1137q229 0 373.5 -166t144.5 -412t-143.5 -409.5t-370.5 -163.5q-250 0 -389 196l-21 -182h-157v1536h188v-588q139 189 375 189zM651 150q162 0 260.5 117.5t98.5 291.5q0 176 -98.5 294t-260.5 118q-129 0 -223 -85t-125 -218v-215q31 -135 125 -219t223 -84z" glyph-name="b" horiz-adv-x="1236" unicode="b"/><glyph d="M582 -12q-233 0 -380 164.5t-147 414.5t145.5 410t381.5 160q215 0 348 -113t153 -274h-172q-16 98 -105 163.5t-210 65.5q-164 0 -260 -111.5t-96 -300.5q0 -190 97 -303.5t261 -113.5q117 0 201 66.5t112 168.5h168q-33 -166 -159.5 -281.5t-337.5 -115.5z" glyph-name="c" horiz-adv-x="1159" unicode="c"/><glyph d="M1137 1536v-1536h-162l-19 178q-135 -188 -385 -188q-229 0 -372.5 160.5t-143.5 406.5t144.5 413t373.5 167q236 0 377 -191v590h187zM602 147q129 0 223.5 84t124.5 218v217q-31 133 -125 217t-223 84q-160 0 -260 -117t-100 -293q0 -174 100 -292t260 -118z" glyph-name="d" horiz-adv-x="1247" unicode="d"/><glyph d="M1087 569q0 -18 -4 -67h-843q6 -168 106 -263.5t229 -97.5q123 -2 204 51.5t110 143.5h162q-8 -57 -38 -113.5t-83 -112t-143.5 -88t-202.5 -32.5q-236 2 -380.5 164.5t-144.5 406.5q0 250 140.5 412t382.5 162q231 0 368 -156t137 -410zM582 979q-145 0 -232.5 -91 t-105.5 -245h667q-16 154 -101 245t-228 91z" glyph-name="e" horiz-adv-x="1148" unicode="e"/><glyph d="M260 0v975h-154v143h154v101q0 129 66.5 218t185.5 103q61 8 124.5 -3t102.5 -38l-2 -143q-27 14 -63.5 24.5t-85.5 10.5t-82 -23q-63 -47 -64 -172v-78h242v-143h-242v-975h-182z" glyph-name="f" horiz-adv-x="790" unicode="f"/><glyph d="M549 -498q-217 -2 -357.5 89.5t-146.5 238.5q-4 78 35 150.5t115 111.5q-125 78 -125 174q0 63 35.5 107.5t105.5 89.5q-113 109 -113 282q0 164 121 277t307 113q150 0 258 -70q25 63 94.5 101t141.5 34v-145q-45 4 -83 -16.5t-52 -61.5q84 -109 84 -238 q0 -176 -122 -285.5t-317 -111.5q-147 -4 -225 49q-39 -14 -57.5 -45t-7.5 -63q31 -90 182 -93l225 -2q358 -6 397 -262q25 -178 -108 -300t-387 -124zM791 741q0 102 -75 169t-190 67q-111 0 -184.5 -67.5t-73.5 -170.5q0 -100 74 -168.5t184 -68.5q117 0 191 67.5 t74 171.5zM870 -90q-12 72 -83.5 101.5t-206.5 29.5h-224q-66 -16 -100.5 -67.5t-34.5 -114.5q0 -92 92.5 -146.5t218.5 -54.5q176 0 266 70.5t72 181.5z" glyph-name="g" horiz-adv-x="1097" unicode="g"/><glyph d="M698 1139q186 0 299 -112t113 -298v-729h-192v707q0 121 -73 191.5t-198 70.5q-131 0 -229.5 -77t-98.5 -194v-698h-190v1534h190v-567q61 78 163.5 125t215.5 47z" glyph-name="h" horiz-adv-x="1198" unicode="h"/><glyph d="M227 1305q-47 0 -80.5 33.5t-33.5 82.5q0 47 33.5 82t80.5 35q49 0 83 -35t34 -82q0 -49 -34 -82.5t-83 -33.5zM135 1126h189v-1126h-189v1126z" glyph-name="i" horiz-adv-x="462" unicode="i"/><glyph d="M289 1305q-47 0 -82 34.5t-35 81.5t35 82t82 35q45 0 79.5 -35t34.5 -82t-34.5 -81.5t-79.5 -34.5zM-8 -508v162h47q90 0 123 42t33 124v1306h178l2 -1327q0 -307 -336 -307h-47z" glyph-name="j" horiz-adv-x="522" unicode="j"/><glyph d="M121 0v1536h190v-893l410 483h221l-467 -530l535 -596h-222l-477 530v-530h-190z" glyph-name="k" horiz-adv-x="995" unicode="k"/><glyph d="M180 0v1536h178v-1536h-178z" glyph-name="l" horiz-adv-x="546" unicode="l"/><glyph d="M1405 1137q176 0 279.5 -106.5t103.5 -289.5v-741h-191v721q0 115 -63.5 182.5t-177.5 67.5q-121 0 -211 -74t-90 -188v-709h-189v721q0 115 -65.5 182.5t-177.5 67.5q-121 0 -210 -74t-89 -188v-709h-191v1126h172l8 -161q55 78 152.5 125t204.5 47q219 0 334 -217 q59 96 169.5 156.5t231.5 60.5z" glyph-name="m" horiz-adv-x="1902" unicode="m"/><glyph d="M684 1139q184 0 295 -112t111 -300v-727h-189v709q0 119 -72.5 190.5t-193.5 71.5q-131 0 -227.5 -77t-96.5 -194v-700h-188v1126h164l18 -168q59 82 162.5 131.5t216.5 49.5z" glyph-name="n" horiz-adv-x="1204" unicode="n"/><glyph d="M594 -14q-240 0 -394.5 166.5t-154.5 412.5t153.5 413t395.5 167t395.5 -167t153.5 -413t-154.5 -412.5t-394.5 -166.5zM594 156q162 0 261 117.5t99 291.5q0 176 -99 294t-261 118t-261.5 -118t-99.5 -294q0 -174 99.5 -291.5t261.5 -117.5z" glyph-name="o" horiz-adv-x="1187" unicode="o"/><glyph d="M674 1137q229 0 371.5 -161t142.5 -406.5t-145.5 -411.5t-374.5 -166q-238 0 -373 188v-702h-189v1648h170l19 -170q127 181 379 181zM641 160q162 0 261 117.5t99 291.5q0 176 -99 293t-261 117q-129 0 -223 -85t-123 -218v-215q29 -133 123 -217t223 -84z" glyph-name="p" horiz-adv-x="1222" unicode="p"/><glyph d="M1114 1128v-1648h-186v702q-143 -190 -381 -190q-227 0 -370.5 166t-143.5 413q0 246 142 406t372 160q248 0 381 -181l12 172h174zM580 160q129 0 223 84t125 219v215q-31 135 -125 219t-223 84q-162 0 -261.5 -118t-99.5 -292t99.5 -292.5t261.5 -118.5z" glyph-name="q" horiz-adv-x="1198" unicode="q"/><glyph d="M727 1137l-2 -162q-182 10 -295 -83t-113 -282v-610h-192v1126h172l20 -204q101 229 410 215z" glyph-name="r" horiz-adv-x="772" unicode="r"/><glyph d="M506 -18q-209 0 -323.5 108.5t-125.5 241.5h166q12 -80 94 -143.5t186.5 -61.5t170 55.5t65.5 136.5q0 86 -73.5 130.5t-210.5 68.5q-164 33 -262.5 98.5t-98.5 202.5q0 147 118 235.5t286 88.5q176 0 285.5 -82t125.5 -238h-161q-16 86 -86 126t-144 44 q-94 4 -161.5 -34.5t-67.5 -116.5q0 -82 68.5 -119t201.5 -61q373 -72 373 -330q0 -152 -121 -251t-305 -99z" glyph-name="s" horiz-adv-x="999" unicode="s"/><glyph d="M559 -2q-162 0 -250 65.5t-88 241.5v676h-176v149h176v406h182v-406h267v-151l-271 2v-655q0 -84 32 -125t128 -41h123v-162h-123z" glyph-name="t" horiz-adv-x="755" unicode="t"/><glyph d="M1096 1126v-1126h-168l-19 170q-59 -82 -162.5 -132t-214.5 -50q-184 0 -301.5 118.5t-117.5 303.5v716h192v-694q0 -123 75 -198.5t198 -75.5q131 0 229 77.5t98 196.5v694h191z" glyph-name="u" horiz-adv-x="1200" unicode="u"/><glyph d="M1145 1118l-449 -1118h-184l-446 1118h204l334 -895l336 895h205z" glyph-name="v" horiz-adv-x="1175" unicode="v"/><glyph d="M1630 1118l-342 -1118h-215l-225 827l-223 -827h-213l-344 1118h215l245 -891l234 891h184l232 -895l241 895h211z" glyph-name="w" horiz-adv-x="1679" unicode="w"/><glyph d="M692 559l402 -559h-226l-293 422l-288 -422h-228l400 559l-400 567h226l290 -430l293 430h226z" glyph-name="x" horiz-adv-x="1161" unicode="x"/><glyph d="M1122 1126l-669 -1652h-177l244 594h-49l-442 1058h190l369 -880l344 880h190z" glyph-name="y" horiz-adv-x="1171" unicode="y"/><glyph d="M88 131l645 836h-631v159h883v-125l-643 -841h662v-160h-916v131z" glyph-name="z" horiz-adv-x="1064" unicode="z"/><glyph d="M465 -651q-90 0 -150.5 79.5t-60.5 196.5v488q0 154 -28.5 222t-125.5 116v120q98 47 126 116t28 220v484q0 117 60.5 196.5t150.5 79.5h94v-121q-96 0 -132 -33.5t-36 -130.5v-505q0 -131 -27.5 -218.5t-111.5 -148.5q84 -61 111.5 -148.5t27.5 -218.5v-512 q0 -84 37 -119.5t131 -35.5v-127h-94z" glyph-name="braceleft" horiz-adv-x="661" unicode="{"/><glyph d="M236 1536h114v-1843h-114v1843z" glyph-name="bar" horiz-adv-x="585" unicode="|"/><glyph d="M102 -524q96 0 132 35.5t36 119.5v512q0 129 29 217.5t113 149.5q-84 63 -113 150.5t-29 216.5v505q0 96 -34.5 130t-133.5 34v125h97q90 0 150.5 -80t60.5 -196v-488q0 -150 27.5 -219.5t125.5 -116.5v-120q-96 -47 -124.5 -116t-28.5 -222v-488q0 -117 -60.5 -196.5 t-150.5 -79.5h-97v127z" glyph-name="braceright" horiz-adv-x="661" unicode="}"/><glyph d="M793 369q-59 0 -115.5 28.5t-81.5 52t-68 70.5q-88 104 -170 104.5t-133 -67.5t-45 -166h-100q-8 145 71.5 238.5t206.5 93.5q78 0 136.5 -38t117.5 -114q84 -106 172 -106q82 0 134.5 64.5t44.5 164.5h98q10 -139 -67.5 -232t-200.5 -93z" glyph-name="asciitilde" horiz-adv-x="1140" unicode="~"/><glyph d="M299 791q-47 0 -82 33.5t-35 82.5q0 47 35 82t82 35t83 -35t36 -82q0 -49 -35 -82.5t-84 -33.5zM229 580h138l18 -1092h-174z" glyph-name="exclamdown" horiz-adv-x="598" unicode="¡"/><glyph d="M653 1094q-158 0 -267.5 -110t-109.5 -267q0 -156 110 -266.5t267 -110.5q170 0 277 98v-174q-115 -74 -256 -80v-186h-109v195q-199 29 -332 177t-133 346.5t133.5 347t331.5 177.5v197h109v-189q135 -6 256 -78v-174q-113 97 -277 97z" glyph-name="cent" horiz-adv-x="1069" unicode="¢"/><glyph d="M74 791h131q-37 143 -37 264q0 195 133 320.5t338 125.5q209 0 334 -118.5t129 -323.5h-182q-16 145 -83 208.5t-198 63.5q-125 0 -202 -76.5t-77 -199.5t37 -264h467v-160h-428q29 -123 29 -236q0 -66 -23 -133q55 -14 185.5 -70.5t189.5 -56.5q88 0 129 50.5t39 156.5 h174q2 -172 -89 -276.5t-243 -104.5q-106 0 -266 72.5t-211 72.5q-57 0 -88 -33.5t-29 -95.5h-174q-2 102 54.5 181.5t146.5 105.5q29 68 29 133q0 98 -39 234h-176v160z" glyph-name="sterling" horiz-adv-x="1236" unicode="£"/><glyph d="M147 377l105 102q-88 115 -88 264.5t88 264.5l-102 102l96 100l104 -106q117 90 265.5 90t263.5 -90l104 104l96 -96l-102 -102q88 -117 88 -265.5t-88 -265.5l102 -102l-94 -101l-106 107q-115 -88 -264.5 -88t-266.5 88l-104 -107zM389 522q94 -94 224 -94t225 94 q90 90 90 221t-90 224q-92 90 -223.5 90t-223.5 -92q-90 -92 -91 -223.5t89 -219.5z" glyph-name="currency" horiz-adv-x="1228" unicode="¤"/><glyph d="M766 725h412v-119h-416v-198h416v-111h-416v-297h-156v297h-411v111h411v198h-411v119h407l-4 29l-518 782h168l436 -672l436 672h168l-518 -782z" glyph-name="yen" horiz-adv-x="1368" unicode="¥"/><glyph d="M236 1536h114v-737h-114v737zM236 430h114v-737h-114v737z" glyph-name="brokenbar" horiz-adv-x="585" unicode="¦"/><glyph d="M1051 506q82 -72 82 -180q0 -143 -146.5 -232.5t-349.5 -89.5q-172 0 -310.5 66.5t-197.5 167.5l115 67q41 -78 147.5 -128t251.5 -50q147 0 251.5 53t104.5 148q0 76 -81.5 125t-199.5 79.5t-235.5 66.5t-199.5 108.5t-82 181t82 184.5q-82 72 -82 178q0 143 129 224 t305 81q123 0 233.5 -39.5t175.5 -105.5l-94 -76q-109 104 -307 105q-127 0 -218 -48.5t-91 -134.5q0 -66 59.5 -111.5t147.5 -70t192.5 -56.5t192.5 -65.5t147.5 -101.5t59.5 -162q0 -102 -82 -184zM334 893q0 -68 64.5 -116t147.5 -72.5t204.5 -60.5t191.5 -69 q57 53 57 117q0 66 -65.5 114t-148.5 70.5t-203.5 58.5t-190.5 69q-57 -43 -57 -111z" glyph-name="section" horiz-adv-x="1257" unicode="§"/><glyph d="M242 1208q-47 0 -82 35t-35 84q0 47 35 82t82 35t82.5 -35t35.5 -82q0 -49 -35.5 -84t-82.5 -35zM622.5 1208q-47.5 0 -82 35t-34.5 84q0 47 34.5 82t82 35t82 -35t34.5 -82q0 -49 -34.5 -84t-82 -35z" glyph-name="dieresis" horiz-adv-x="94" unicode="¨"/><glyph d="M888.5 -20q-325.5 0 -557 231t-231.5 557t231.5 557t557 231t557 -231t231.5 -557t-231.5 -557t-557 -231zM889 82q287 0 487.5 199.5t200.5 486.5t-200.5 486.5t-487.5 199.5t-486.5 -200.5t-199.5 -485.5t199.5 -485.5t486.5 -200.5zM881 350q-170 -2 -281 119 t-111 301t111 300t281 120q164 0 261 -97.5t97 -197.5h-123q-14 78 -76.5 127t-158.5 49q-121 0 -197 -85t-76 -216t76 -215t197 -84q92 0 160.5 50t72.5 112h125q4 -88 -98 -185.5t-260 -97.5z" glyph-name="copyright" horiz-adv-x="1777" unicode="©"/><glyph d="M721 1536v-614h-94v133q-39 -68 -106.5 -107t-147.5 -39q-129 0 -221.5 93.5t-92.5 226.5q0 131 92.5 225t221.5 94q80 0 147.5 -40t106.5 -105v133h94zM389 993q98 0 168 68.5t70 167.5q0 96 -70 165.5t-168 69.5t-166.5 -69.5t-68.5 -165.5q0 -98 68.5 -167t166.5 -69z " glyph-name="ordfeminine" horiz-adv-x="827" unicode="ª"/><glyph d="M225 571l312 377h147l-311 -377l311 -376h-147zM606 571l312 377h151l-311 -377l311 -376h-151z" glyph-name="guillemotleft" horiz-adv-x="1292" unicode="«"/><glyph d="M1294 764h-1112v119h1229v-643h-117v524z" glyph-name="logicalnot" horiz-adv-x="1593" unicode="¬"/><glyph d="M182 594h717v-123h-717v123z" glyph-name="uni00AD" horiz-adv-x="1208" unicode="­"/><glyph d="M888.5 1556q325.5 0 557 -231t231.5 -557t-231.5 -557t-557 -231t-557 231t-231.5 557t231.5 557t557 231zM889 82q287 0 487.5 199.5t200.5 486.5t-200.5 486.5t-487.5 199.5t-486.5 -200.5t-199.5 -485.5t199.5 -485.5t486.5 -200.5zM1206 369h-135l-197 321h-114v-321 h-121v802h297q94 0 162.5 -73.5t68.5 -171.5q0 -78 -48 -142.5t-120 -83.5zM932 795q49 0 86 38.5t37 94.5q0 53 -37 94t-86 41h-172v-268h172z" glyph-name="registered" horiz-adv-x="1777" unicode="®"/><glyph d="M59 1350h635v-119h-635v119z" glyph-name="macron" horiz-adv-x="116" unicode="¯"/><glyph d="M497.5 1008q-112.5 0 -193.5 80.5t-81 193.5q0 115 81 194.5t193.5 79.5t193.5 -80.5t81 -193.5t-81 -193.5t-193.5 -80.5zM497.5 1102q75.5 0 128 52t52.5 128t-52.5 128t-128 52t-128 -51t-52.5 -129q0 -76 52.5 -128t128 -52z" glyph-name="degree" horiz-adv-x="993" unicode="°"/><glyph d="M1511 879v-119h-647v-369h-116v369h-648v119h648v368h116v-368h647zM100 109h1411v-109h-1411v109z" glyph-name="plusminus" horiz-adv-x="1611" unicode="±"/><glyph d="M82 844q285 291 342 359.5t57 127.5q0 68 -40 105t-101 39q-63 0 -104 -40t-41 -106h-89q-2 100 68 165t172 62q94 0 158.5 -57t66.5 -151q2 -88 -55 -162t-303 -324h385v-84h-516v66z" glyph-name="uni00B2" horiz-adv-x="692" unicode="²"/><glyph d="M446 805q-94 -2 -160.5 58.5t-66.5 146.5l78 2q0 -55 44 -94t105 -41q66 0 111 38.5t47 108.5q0 61 -41 103t-102 42h-58v66h54q49 0 80.5 32.5t31.5 82t-33.5 80t-93.5 30.5q-53 0 -86.5 -27.5t-38.5 -76.5l-75 2q2 84 64.5 131t135.5 45q88 0 142.5 -51t58.5 -125 q4 -96 -90 -146q57 -23 92 -74t37 -114q2 -100 -66 -159.5t-170 -59.5z" glyph-name="uni00B3" horiz-adv-x="741" unicode="³"/><glyph d="M244 1536h180l-221 -315h-144z" glyph-name="acute" horiz-adv-x="94" unicode="´"/><glyph d="M1063 1024v-1024h-176v152q-55 -80 -141.5 -126t-184.5 -46q-154 0 -266 108v-600h-133v1536h174v-618q0 -113 79 -192t191 -79q117 0 199 79t82 192v618h176z" glyph-name="uni00B5" horiz-adv-x="1208" unicode="µ"/><glyph d="M631 727h-64q-170 0 -298 120t-128 285.5t128 284.5t298 119h160v-1843h-96v1034zM920 1536h98v-1843h-98v1843z" glyph-name="paragraph" horiz-adv-x="1261" unicode="¶"/><glyph d="M276 643q-39 0 -66.5 27.5t-27.5 66.5t28 66.5t66 27.5q37 0 66 -27.5t29 -66.5t-29 -66.5t-66 -27.5z" glyph-name="periodcentered" horiz-adv-x="552" unicode="·"/><glyph d="M295 -532q-70 0 -137.5 37.5t-98.5 91.5l82 34q23 -33 68 -54t86 -21q51 0 85 34.5t34 85.5q0 72 -60.5 99.5t-146.5 -4.5l-74 49l90 180h90l-65 -139q106 23 181 -31.5t75 -153.5q0 -88 -60.5 -148t-148.5 -60z" glyph-name="cedilla" horiz-adv-x="94" unicode="¸"/><glyph d="M182 1454h-114v82h208v-768h-94v686z" glyph-name="uni00B9" horiz-adv-x="520" unicode="¹"/><glyph d="M389 909q-135 0 -232.5 93.5t-97.5 226.5q0 131 97.5 225t232.5 94q137 0 234.5 -93t97.5 -226t-96.5 -226.5t-235.5 -93.5zM389 993q98 0 168 68.5t70 167.5q0 96 -70 165.5t-168 69.5t-166.5 -69.5t-68.5 -165.5q0 -98 68.5 -167t166.5 -69z" glyph-name="ordmasculine" horiz-adv-x="780" unicode="º"/><glyph d="M535 571l-312 377h148l311 -377l-311 -376h-148zM915 571l-311 377h152l311 -377l-311 -376h-152z" glyph-name="guillemotright" horiz-adv-x="1292" unicode="»"/><glyph d="M584 1053q47 0 81.5 -35t34.5 -84q0 -47 -34.5 -82t-81.5 -35t-83 35t-36 82q0 49 36 84t83 35zM670 518q0 -88 -38 -160.5t-92.5 -123t-108.5 -97.5t-92 -105.5t-38 -121.5q0 -119 82 -194.5t209 -75.5q123 0 205 77.5t84 196.5h155q0 -184 -126 -306t-318.5 -122 t-319.5 121t-127 303q0 78 38 148.5t91.5 125t107.5 104.5t92 104t38 108v145h158v-127z" glyph-name="questiondown" horiz-adv-x="1130" unicode="¿"/><glyph d="M676 1733l-223 315h182l182 -315h-141zM1133 379h-738l-147 -379h-199l617 1536h202l617 -1536h-197zM1079 539l-313 811l-313 -811h626z" glyph-name="Agrave" horiz-adv-x="1533" unicode="À"/><glyph d="M829 1733h-141l182 315h183zM1133 379h-738l-147 -379h-199l617 1536h202l617 -1536h-197zM1079 539l-313 811l-313 -811h626z" glyph-name="Aacute" horiz-adv-x="1533" unicode="Á"/><glyph d="M596 1698h-143l206 350h187l209 -350h-144l-157 266zM1133 379h-738l-147 -379h-199l617 1536h202l617 -1536h-197zM1079 539l-313 811l-313 -811h626z" glyph-name="Acircumflex" horiz-adv-x="1533" unicode="Â"/><glyph d="M420 1733q-14 115 41 188.5t149 73.5q121 0 191 -111q35 -61 94 -61q47 0 71.5 43t14.5 108h109q16 -113 -38.5 -186.5t-152.5 -73.5q-117 0 -190 113q-35 59 -95 59q-47 0 -71.5 -43t-12.5 -110h-110zM1133 379h-738l-147 -379h-199l617 1536h202l617 -1536h-197z M1079 539l-313 811l-313 -811h626z" glyph-name="Atilde" horiz-adv-x="1533" unicode="Ã"/><glyph d="M565 1720q-49 0 -82.5 35t-33.5 84q0 47 33.5 82t82.5 35q47 0 82 -35t35 -82q0 -49 -35 -84t-82 -35zM946 1720q-49 0 -84 35t-35 84q0 47 35 82t84 35q47 0 81 -35t34 -82q0 -49 -34 -84t-81 -35zM1133 379h-738l-147 -379h-199l617 1536h202l617 -1536h-197zM1079 539 l-313 811l-313 -811h626z" glyph-name="Adieresis" horiz-adv-x="1533" unicode="Ä"/><glyph d="M881 1505l604 -1505h-197l-155 379h-738l-147 -379h-199l602 1499h-14q-90 59 -90 168q0 84 61.5 145.5t147.5 61.5q84 0 145.5 -61.5t61.5 -145.5q0 -101 -82 -162zM631 1667q0 -55 35.5 -91t89 -36t89.5 36t36 91q0 53 -37 90t-88 37t-88 -37t-37 -90zM453 539h626 l-313 811z" glyph-name="Aring" horiz-adv-x="1533" unicode="Å"/><glyph d="M666 1536h1067v-156h-670v-540h584v-142h-584v-542h670v-156h-846v338h-508l-125 -338h-205zM887 479v901h-94l-355 -901h449z" glyph-name="AE" horiz-adv-x="1792" unicode="Æ"/><glyph d="M805 154q197 0 329 100t152 215h187q-18 -156 -180.5 -306.5t-405.5 -178.5q2 0 2 -4l-58 -119q106 23 181 -31.5t75 -153.5q0 -88 -60 -148t-148 -60q-70 0 -137.5 37.5t-98.5 91.5l82 34q23 -33 68 -54t86 -21q51 0 84.5 34.5t33.5 85.5q0 72 -60 99.5t-146 -4.5 l-74 49l78 160q-317 0 -521 228t-204 560q0 334 205.5 561t529.5 227q150 0 276.5 -48t206.5 -124.5t127 -163.5t58 -176h-187q-12 55 -45 110.5t-87 110t-145 87t-204 32.5q-254 0 -408.5 -176t-154.5 -440q0 -262 154.5 -438t408.5 -176z" glyph-name="Ccedilla" horiz-adv-x="1587" unicode="Ç"/><glyph d="M500 1733l-224 315h181l184 -315h-141zM287 1376v-526h682v-162h-682v-526h768v-162h-951v1536h951v-160h-768z" glyph-name="Egrave" horiz-adv-x="1171" unicode="È"/><glyph d="M653 1733h-143l184 315h180zM287 1376v-526h682v-162h-682v-526h768v-162h-951v1536h951v-160h-768z" glyph-name="Eacute" horiz-adv-x="1171" unicode="É"/><glyph d="M418 1698h-142l207 350h187l209 -350h-144l-157 266zM287 1376v-526h682v-162h-682v-526h768v-162h-951v1536h951v-160h-768z" glyph-name="Ecircumflex" horiz-adv-x="1171" unicode="Ê"/><glyph d="M389 1720q-49 0 -84 35t-35 84q0 47 35 82t84 35q47 0 82 -35t35 -82q0 -49 -35 -84t-82 -35zM768 1720q-47 0 -82 35t-35 84q0 47 35 82t82 35t82 -35t35 -82q0 -49 -35 -84t-82 -35zM287 1376v-526h682v-162h-682v-526h768v-162h-951v1536h951v-160h-768z" glyph-name="Edieresis" horiz-adv-x="1171" unicode="Ë"/><glyph d="M154 2048h182l184 -315h-141zM369 1536h182v-1536h-182v1536z" glyph-name="Igrave" horiz-adv-x="718" unicode="Ì"/><glyph d="M360 2048h181l-222 -315h-143zM154 1536h182v-1536h-182v1536z" glyph-name="Iacute" horiz-adv-x="710" unicode="Í"/><glyph d="M362 2048h187l209 -350h-144l-157 266l-158 -266h-145zM367 1536h182v-1536h-182v1536z" glyph-name="Icircumflex" horiz-adv-x="927" unicode="Î"/><glyph d="M272 1720q-47 0 -82.5 35t-35.5 84q0 47 35.5 82t82.5 35t83 -35t36 -82q0 -49 -36 -84t-83 -35zM653 1720q-47 0 -81.5 35t-34.5 84q0 47 34.5 82t81.5 35t82 -35t35 -82q0 -49 -35 -84t-82 -35zM375 1536h180v-1536h-180v1536z" glyph-name="Idieresis" horiz-adv-x="937" unicode="Ï"/><glyph d="M725 1536q334 0 551 -201.5t217 -566.5t-217 -566.5t-551 -201.5h-430v711h-156v116h156v709h430zM723 162q258 0 423 157.5t165 448.5q0 289 -166 448.5t-422 159.5h-248v-549h270v-116h-270v-549h248z" glyph-name="Eth" horiz-adv-x="1593" unicode="Ð"/><glyph d="M455 1733q-14 115 41 188.5t149 73.5q121 0 191 -111q39 -61 96 -61q47 0 70.5 43t13.5 108h110q16 -113 -39 -186.5t-153 -73.5q-117 0 -189 113q-39 59 -94 59q-47 0 -71.5 -43t-12.5 -110h-112zM1374 1536v-1536h-172l-928 1245v-1245h-182v1536h172l930 -1243v1243 h180z" glyph-name="Ntilde" horiz-adv-x="1511" unicode="Ñ"/><glyph d="M504 2048h180l184 -315h-143zM805 -20q-326 0 -538 228t-212 560t212 560t538 228q324 0 536.5 -228t212.5 -560t-212.5 -560t-536.5 -228zM805 154q254 0 414.5 177t160.5 437q0 262 -160.5 439t-414.5 177q-256 0 -417 -177t-161 -439t161 -438t417 -176z" glyph-name="Ograve" horiz-adv-x="1636" unicode="Ò"/><glyph d="M922 2048h182l-223 -315h-142zM805 -20q-326 0 -538 228t-212 560t212 560t538 228q324 0 536.5 -228t212.5 -560t-212.5 -560t-536.5 -228zM805 154q254 0 414.5 177t160.5 437q0 262 -160.5 439t-414.5 177q-256 0 -417 -177t-161 -439t161 -438t417 -176z" glyph-name="Oacute" horiz-adv-x="1636" unicode="Ó"/><glyph d="M713 2048h186l207 -350h-141l-158 266l-160 -266h-143zM805 -20q-326 0 -538 228t-212 560t212 560t538 228q324 0 536.5 -228t212.5 -560t-212.5 -560t-536.5 -228zM805 154q254 0 414.5 177t160.5 437q0 262 -160.5 439t-414.5 177q-256 0 -417 -177t-161 -439 t161 -438t417 -176z" glyph-name="Ocircumflex" horiz-adv-x="1636" unicode="Ô"/><glyph d="M948 1714q-117 0 -190 113q-35 59 -92 59q-49 0 -74 -43t-12 -110h-111q-14 115 41 188.5t149 73.5q121 0 191 -111q35 -61 96 -61q47 0 70.5 43t13.5 108h109q16 -113 -38.5 -186.5t-152.5 -73.5zM805 -20q-326 0 -538 228t-212 560t212 560t538 228q324 0 536.5 -228 t212.5 -560t-212.5 -560t-536.5 -228zM805 154q254 0 414.5 177t160.5 437q0 262 -160.5 439t-414.5 177q-256 0 -417 -177t-161 -439t161 -438t417 -176z" glyph-name="Otilde" horiz-adv-x="1636" unicode="Õ"/><glyph d="M614.5 1720q-47.5 0 -82 35t-34.5 84q0 47 34.5 82t82 35t83 -35t35.5 -82q0 -49 -35.5 -84t-83 -35zM995 1720q-47 0 -81.5 35t-34.5 84q0 47 34.5 82t81.5 35t82 -35t35 -82q0 -49 -35 -84t-82 -35zM805 -20q-326 0 -538 228t-212 560t212 560t538 228 q324 0 536.5 -228t212.5 -560t-212.5 -560t-536.5 -228zM805 154q254 0 414.5 177t160.5 437q0 262 -160.5 439t-414.5 177q-256 0 -417 -177t-161 -439t161 -438t417 -176z" glyph-name="Odieresis" horiz-adv-x="1636" unicode="Ö"/><glyph d="M872 635l402 -399l-96 -97l-402 400l-399 -400l-96 97l399 399l-399 401l96 97l399 -402l402 402l96 -97z" glyph-name="multiply" horiz-adv-x="1497" unicode="×"/><glyph d="M1284 1384q127 -111 198.5 -271.5t71.5 -344.5q0 -332 -213 -560t-536 -228q-215 0 -393 110l-80 -119h-125l121 181q-129 109 -201 269.5t-72 346.5q0 332 212 560t538 228q219 0 395 -112l80 119h125zM227 768q0 -299 197 -473l680 1005q-133 84 -299 84 q-256 0 -417 -177t-161 -439zM805 154q254 0 414.5 177t160.5 437q0 291 -192 471l-678 -1006q127 -79 295 -79z" glyph-name="Oslash" horiz-adv-x="1636" unicode="Ø"/><glyph d="M440 2048h181l184 -315h-141zM680 -20q-244 0 -415 152.5t-171 371.5v1032h182v-1004q0 -162 119 -276.5t285 -114.5q170 0 294 115t124 276v1004h180v-1032q0 -219 -176 -371.5t-422 -152.5z" glyph-name="Ugrave" horiz-adv-x="1423" unicode="Ù"/><glyph d="M860 2048h180l-221 -315h-143zM680 -20q-244 0 -415 152.5t-171 371.5v1032h182v-1004q0 -162 119 -276.5t285 -114.5q170 0 294 115t124 276v1004h180v-1032q0 -219 -176 -371.5t-422 -152.5z" glyph-name="Uacute" horiz-adv-x="1423" unicode="Ú"/><glyph d="M649 2048h187l208 -350h-143l-158 266l-159 -266h-142zM680 -20q-244 0 -415 152.5t-171 371.5v1032h182v-1004q0 -162 119 -276.5t285 -114.5q170 0 294 115t124 276v1004h180v-1032q0 -219 -176 -371.5t-422 -152.5z" glyph-name="Ucircumflex" horiz-adv-x="1423" unicode="Û"/><glyph d="M553 1720q-49 0 -83 35t-34 84q0 47 34 82t83 35q47 0 82 -35t35 -82q0 -49 -35 -84t-82 -35zM934 1720q-49 0 -84 35t-35 84q0 47 35 82t84 35q47 0 81 -35t34 -82q0 -49 -34 -84t-81 -35zM680 -20q-244 0 -415 152.5t-171 371.5v1032h182v-1004q0 -162 119 -276.5 t285 -114.5q170 0 294 115t124 276v1004h180v-1032q0 -219 -176 -371.5t-422 -152.5z" glyph-name="Udieresis" horiz-adv-x="1423" unicode="Ü"/><glyph d="M739 1733h-141l182 315h183zM754 729v-729h-181v725l-536 811h203l422 -653l425 653h201z" glyph-name="Yacute" horiz-adv-x="1325" unicode="Ý"/><glyph d="M711 1323q178 0 304 -127t126 -307q0 -176 -126 -300t-304 -124h-381v-465h-176v1530h176v-207h381zM705 623q115 0 194.5 78.5t79.5 193.5q0 113 -80 191.5t-194 78.5h-375v-542h375z" glyph-name="Thorn" horiz-adv-x="1202" unicode="Þ"/><glyph d="M975 786q113 -53 181.5 -156.5t68.5 -228.5q0 -176 -119 -298.5t-285 -122.5q-88 0 -183 35.5t-153 90.5l76 132q39 -39 103.5 -67t126.5 -28q104 4 181 80t77 187q0 117 -84 197.5t-205 80.5h-117v148h49q115 0 196 81.5t81 196.5t-83 190.5t-214 75.5 q-135 0 -225.5 -80.5t-90.5 -203.5v-1096h-174v1096q0 190 139.5 315t348.5 125q203 0 335 -119t132 -299q0 -207 -162 -332z" glyph-name="germandbls" horiz-adv-x="1363" unicode="ß"/><glyph d="M686 1221h-143l-221 315h180zM975 301q0 -86 19.5 -121t64.5 -33v-147q-23 0 -64 4q-152 25 -182 156q-45 -72 -150.5 -121t-228.5 -49q-164 0 -268.5 91t-104.5 236q0 154 115 250.5t348 112.5l275 18v37q0 125 -72 188.5t-199 63.5q-113 0 -186.5 -62.5t-85.5 -164.5 h-170q16 160 130 270.5t321 110.5q203 0 319.5 -107.5t116.5 -302.5q0 -82 1 -182t1 -170v-78zM799 385v172l-258 -20q-303 -25 -303 -215q0 -82 67.5 -131.5t155.5 -49.5q125 0 226.5 74t111.5 170z" glyph-name="agrave" horiz-adv-x="1114" unicode="à"/><glyph d="M889 1536l-223 -315h-142l185 315h180zM975 301q0 -86 19.5 -121t64.5 -33v-147q-23 0 -64 4q-152 25 -182 156q-45 -72 -150.5 -121t-228.5 -49q-164 0 -268.5 91t-104.5 236q0 154 115 250.5t348 112.5l275 18v37q0 125 -72 188.5t-199 63.5q-113 0 -186.5 -62.5 t-85.5 -164.5h-170q16 160 130 270.5t321 110.5q203 0 319.5 -107.5t116.5 -302.5q0 -82 1 -182t1 -170v-78zM799 385v172l-258 -20q-303 -25 -303 -215q0 -82 67.5 -131.5t155.5 -49.5q125 0 226.5 74t111.5 170z" glyph-name="aacute" horiz-adv-x="1114" unicode="á"/><glyph d="M520 1452l-160 -266h-141l207 350h186l209 -350h-143zM975 301q0 -86 19.5 -121t64.5 -33v-147q-23 0 -64 4q-152 25 -182 156q-45 -72 -150.5 -121t-228.5 -49q-164 0 -268.5 91t-104.5 236q0 154 115 250.5t348 112.5l275 18v37q0 125 -72 188.5t-199 63.5 q-113 0 -186.5 -62.5t-85.5 -164.5h-170q16 160 130 270.5t321 110.5q203 0 319.5 -107.5t116.5 -302.5q0 -82 1 -182t1 -170v-78zM799 385v172l-258 -20q-303 -25 -303 -215q0 -82 67.5 -131.5t155.5 -49.5q125 0 226.5 74t111.5 170z" glyph-name="acircumflex" horiz-adv-x="1114" unicode="â"/><glyph d="M188 1221q-14 115 41.5 188.5t149.5 73.5q121 0 190 -111q35 -61 95 -61q47 0 71.5 43t14.5 108h108q16 -113 -38 -186.5t-152 -73.5q-117 0 -191 113q-35 59 -94 59q-47 0 -71.5 -43t-12.5 -110h-111zM434 -10q-164 0 -268.5 91t-104.5 236q0 154 115 250.5t348 112.5 l275 18v37q0 125 -72 188.5t-199 63.5q-113 0 -186.5 -62.5t-85.5 -164.5h-170q16 160 130 270.5t321 110.5q203 0 319.5 -107.5t116.5 -302.5q0 -82 1 -182t1 -170v-78q0 -86 19.5 -121t64.5 -33v-147q-23 0 -64 4q-152 25 -182 156q-45 -72 -150.5 -121t-228.5 -49z M461 141q125 0 226 74t112 170v172l-258 -20q-303 -25 -303 -215q0 -82 67.5 -131.5t155.5 -49.5z" glyph-name="atilde" horiz-adv-x="1114" unicode="ã"/><glyph d="M332 1208q-47 0 -82 35t-35 84q0 47 35 82t82 35t83 -35t36 -82q0 -49 -36 -84t-83 -35zM713 1208q-47 0 -82 35t-35 84q0 47 35 82t82 35t81.5 -35t34.5 -82q0 -49 -34.5 -84t-81.5 -35zM434 -10q-164 0 -268.5 91t-104.5 236q0 154 115 250.5t348 112.5l275 18v37 q0 125 -72 188.5t-199 63.5q-113 0 -186.5 -62.5t-85.5 -164.5h-170q16 160 130 270.5t321 110.5q203 0 319.5 -107.5t116.5 -302.5q0 -82 1 -182t1 -170v-78q0 -86 19.5 -121t64.5 -33v-147q-23 0 -64 4q-152 25 -182 156q-45 -72 -150.5 -121t-228.5 -49zM461 141 q125 0 226 74t112 170v172l-258 -20q-303 -25 -303 -215q0 -82 67.5 -131.5t155.5 -49.5z" glyph-name="adieresis" horiz-adv-x="1114" unicode="ä"/><glyph d="M524 1176q-86 0 -147.5 61t-61.5 145q0 86 61.5 147.5t147.5 61.5q84 0 145.5 -61.5t61.5 -147.5q0 -84 -61.5 -145t-145.5 -61zM524 1511q-51 0 -88 -37.5t-37 -91t36 -89.5t89.5 -36t89 36t35.5 89.5t-37 91t-88 37.5zM434 -10q-164 0 -268.5 91t-104.5 236 q0 154 115 250.5t348 112.5l275 18v37q0 125 -72 188.5t-199 63.5q-113 0 -186.5 -62.5t-85.5 -164.5h-170q16 160 130 270.5t321 110.5q203 0 319.5 -107.5t116.5 -302.5q0 -82 1 -182t1 -170v-78q0 -86 19.5 -121t64.5 -33v-147q-23 0 -64 4q-152 25 -182 156 q-45 -72 -150.5 -121t-228.5 -49zM461 141q125 0 226 74t112 170v172l-258 -20q-303 -25 -303 -215q0 -82 67.5 -131.5t155.5 -49.5z" glyph-name="aring" horiz-adv-x="1114" unicode="å"/><glyph d="M1882 575q0 -43 -4 -67h-860q14 -178 115.5 -274.5t255.5 -96.5q104 0 200.5 54.5t124.5 148.5h156q-29 -156 -165 -255t-337 -97q-272 2 -420 202v-190h-151l-15 164q-49 -84 -162.5 -132t-244.5 -40q-152 10 -248 99t-96 228q0 141 113.5 236.5t351.5 120.5l274 26v35 q0 129 -71.5 192.5t-198.5 63.5q-117 0 -188.5 -63.5t-84.5 -167.5h-164q16 162 125 270.5t318 108.5q154 0 260 -60.5t152 -177.5q147 246 452 246q233 0 372.5 -159t139.5 -415zM1022 651h684q-16 156 -104.5 248t-231.5 92q-147 0 -238.5 -93t-109.5 -247zM770 385v188 l-258 -28q-305 -35 -305 -230q0 -80 59.5 -127t145.5 -51q129 -8 238.5 68t119.5 180z" glyph-name="ae" horiz-adv-x="1892" unicode="æ"/><glyph d="M598 150q117 0 201 66.5t112 168.5h168q-33 -166 -159.5 -281.5t-337.5 -115.5h-17l-47 -97q106 23 181 -31.5t75 -152.5q0 -88 -60.5 -148.5t-148.5 -60.5q-70 0 -137.5 38t-97.5 91l82 35q23 -33 67.5 -54.5t85.5 -21.5q51 0 85 35t34 86q0 72 -60.5 99.5t-146.5 -5.5 l-74 49l72 148q-190 37 -305 193.5t-115 375.5q0 250 145.5 410t381.5 160q215 0 348 -113t153 -274h-172q-16 98 -105 163.5t-210 65.5q-164 0 -260 -111.5t-96 -300.5q0 -190 97 -303.5t261 -113.5z" glyph-name="ccedilla" horiz-adv-x="1159" unicode="ç"/><glyph d="M496 1231l-224 315h183l182 -315h-141zM1087 569q0 -18 -4 -67h-843q6 -168 106 -263.5t229 -97.5q123 -2 204 51.5t110 143.5h162q-8 -57 -38 -113.5t-83 -112t-143.5 -88t-202.5 -32.5q-236 2 -380.5 164.5t-144.5 406.5q0 250 140.5 412t382.5 162q231 0 368 -156 t137 -410zM582 979q-145 0 -232.5 -91t-105.5 -245h667q-16 154 -101 245t-228 91z" glyph-name="egrave" horiz-adv-x="1155" unicode="è"/><glyph d="M872 1546l-221 -315h-143l184 315h180zM1087 569q0 -18 -4 -67h-843q6 -168 106 -263.5t229 -97.5q123 -2 204 51.5t110 143.5h162q-8 -57 -38 -113.5t-83 -112t-143.5 -88t-202.5 -32.5q-236 2 -380.5 164.5t-144.5 406.5q0 250 140.5 412t382.5 162q231 0 368 -156 t137 -410zM244 643h667q-16 154 -101 245t-228 91q-145 0 -232.5 -91t-105.5 -245z" glyph-name="eacute" horiz-adv-x="1155" unicode="é"/><glyph d="M416 1196h-142l207 350h187l209 -350h-144l-158 266zM1087 569q0 -18 -4 -67h-843q6 -168 106 -263.5t229 -97.5q123 -2 204 51.5t110 143.5h162q-8 -57 -38 -113.5t-83 -112t-143.5 -88t-202.5 -32.5q-236 2 -380.5 164.5t-144.5 406.5q0 250 140.5 412t382.5 162 q231 0 368 -156t137 -410zM582 979q-145 0 -232.5 -91t-105.5 -245h667q-16 154 -101 245t-228 91z" glyph-name="ecircumflex" horiz-adv-x="1155" unicode="ê"/><glyph d="M385 1219q-49 0 -83 34.5t-34 81.5q0 49 34 84t83 35q47 0 82 -35t35 -84q0 -47 -35 -81.5t-82 -34.5zM766 1219q-49 0 -84 34.5t-35 81.5q0 49 35 84t84 35q47 0 81 -35t34 -84q0 -47 -34 -81.5t-81 -34.5zM1087 569q0 -18 -4 -67h-843q6 -168 106 -263.5t229 -97.5 q123 -2 204 51.5t110 143.5h162q-8 -57 -38 -113.5t-83 -112t-143.5 -88t-202.5 -32.5q-236 2 -380.5 164.5t-144.5 406.5q0 250 140.5 412t382.5 162q231 0 368 -156t137 -410zM582 979q-145 0 -232.5 -91t-105.5 -245h667q-16 154 -101 245t-228 91z" glyph-name="edieresis" horiz-adv-x="1155" unicode="ë"/><glyph d="M43 1536h184l183 -315h-142zM260 1024h176v-1024h-176v1024z" glyph-name="igrave" horiz-adv-x="548" unicode="ì"/><glyph d="M313 1536h183l-224 -315h-141zM109 1024h176v-1024h-176v1024z" glyph-name="iacute" horiz-adv-x="542" unicode="í"/><glyph d="M317 1536h187l209 -350h-144l-157 266l-160 -266h-143zM324 1024h176v-1024h-176v1024z" glyph-name="icircumflex" horiz-adv-x="825" unicode="î"/><glyph d="M227 1208q-49 0 -83.5 35t-34.5 84q0 47 34.5 82t83.5 35q47 0 82 -35t35 -82q0 -49 -35 -84t-82 -35zM608 1208q-49 0 -84 35t-35 84q0 47 35 82t84 35q47 0 81 -35t34 -82q0 -49 -34 -84t-81 -35zM328 1024h176v-1024h-176v1024z" glyph-name="idieresis" horiz-adv-x="835" unicode="ï"/><glyph d="M807 1399q174 -141 275.5 -374.5t101.5 -512.5q0 -221 -162 -376.5t-391.5 -155.5t-390 155.5t-160.5 376.5q0 223 160.5 377.5t390.5 154.5q176 0 309 -100q-74 213 -225 338l-109 -137l-61 49l106 131q-145 90 -317 94l31 142q203 0 378 -115l95 117l59 -47zM630.5 135 q155.5 0 266.5 110.5t111 266.5q0 158 -110 267.5t-267 109.5q-156 0 -266.5 -109.5t-110.5 -267.5q0 -156 110.5 -266.5t266 -110.5z" glyph-name="eth" horiz-adv-x="1261" unicode="ð"/><glyph d="M268 1221q-14 115 41.5 188.5t149.5 73.5q121 0 190 -111q39 -61 96 -61q47 0 71 43t13 108h111q16 -113 -39 -186.5t-153 -73.5q-117 0 -189 113q-39 59 -94 59q-47 0 -71.5 -43t-12.5 -110h-113zM684 1139q184 0 295 -112t111 -300v-727h-189v709q0 119 -72.5 190.5 t-193.5 71.5q-131 0 -227.5 -77t-96.5 -194v-700h-188v1126h164l18 -168q59 82 162.5 131.5t216.5 49.5z" glyph-name="ntilde" horiz-adv-x="1204" unicode="ñ"/><glyph d="M281 1536h182l182 -315h-141zM594 -14q-240 0 -394.5 166.5t-154.5 412.5t153.5 413t395.5 167t395.5 -167t153.5 -413t-154.5 -412.5t-394.5 -166.5zM594 156q162 0 261 117.5t99 291.5q0 176 -99 294t-261 118t-261.5 -118t-99.5 -294q0 -174 99.5 -291.5t261.5 -117.5 z" glyph-name="ograve" horiz-adv-x="1187" unicode="ò"/><glyph d="M700 1536h181l-222 -315h-143zM594 -14q-240 0 -394.5 166.5t-154.5 412.5t153.5 413t395.5 167t395.5 -167t153.5 -413t-154.5 -412.5t-394.5 -166.5zM594 156q162 0 261 117.5t99 291.5q0 176 -99 294t-261 118t-261.5 -118t-99.5 -294q0 -174 99.5 -291.5 t261.5 -117.5z" glyph-name="oacute" horiz-adv-x="1187" unicode="ó"/><glyph d="M489 1536h187l209 -350h-144l-157 266l-158 -266h-143zM594 -14q-240 0 -394.5 166.5t-154.5 412.5t153.5 413t395.5 167t395.5 -167t153.5 -413t-154.5 -412.5t-394.5 -166.5zM594 156q162 0 261 117.5t99 291.5q0 176 -99 294t-261 118t-261.5 -118t-99.5 -294 q0 -174 99.5 -291.5t261.5 -117.5z" glyph-name="ocircumflex" horiz-adv-x="1187" unicode="ô"/><glyph d="M727 1202q-117 0 -190 113q-35 59 -95 59q-47 0 -71.5 -43t-12.5 -110h-110q-14 115 41 188.5t149 73.5q121 0 191 -111q35 -61 94 -61q47 0 71.5 43t14.5 108h109q16 -113 -38.5 -186.5t-152.5 -73.5zM594 -14q-240 0 -394.5 166.5t-154.5 412.5t153.5 413t395.5 167 t395.5 -167t153.5 -413t-154.5 -412.5t-394.5 -166.5zM594 156q162 0 261 117.5t99 291.5q0 176 -99 294t-261 118t-261.5 -118t-99.5 -294q0 -174 99.5 -291.5t261.5 -117.5z" glyph-name="otilde" horiz-adv-x="1187" unicode="õ"/><glyph d="M403.5 1208q-47.5 0 -82 35t-34.5 84q0 47 34.5 82t82 35t82 -35t34.5 -82q0 -49 -34.5 -84t-82 -35zM784 1208q-47 0 -81.5 35t-34.5 84q0 47 34.5 82t81.5 35t81 -35t34 -82q0 -49 -34 -84t-81 -35zM594 -14q-240 0 -394.5 166.5t-154.5 412.5t153.5 413t395.5 167 t395.5 -167t153.5 -413t-154.5 -412.5t-394.5 -166.5zM594 156q162 0 261 117.5t99 291.5q0 176 -99 294t-261 118t-261.5 -118t-99.5 -294q0 -174 99.5 -291.5t261.5 -117.5z" glyph-name="odieresis" horiz-adv-x="1187" unicode="ö"/><glyph d="M735 805q-43 0 -75.5 30.5t-32.5 75.5t32.5 77t75.5 32t76 -32t33 -77t-33 -75.5t-76 -30.5zM182 631h1118v-148h-1118v148zM735 109q-43 0 -75.5 30.5t-32.5 75.5t32.5 77t75.5 32t76 -32t33 -77t-33 -75.5t-76 -30.5z" glyph-name="divide" horiz-adv-x="1468" unicode="÷"/><glyph d="M932 1026q190 -172 190 -457q0 -248 -151.5 -416.5t-386.5 -168.5q-158 0 -283 79l-84 -126h-96l117 176q-193 166 -193 456q0 248 151.5 417t387.5 169q160 0 282 -82l86 129h95zM229 569q0 -184 107 -303l436 660q-86 59 -188 59q-158 0 -256.5 -119t-98.5 -297z M584 156q158 0 255 118.5t97 294.5q0 182 -105 303l-434 -661q83 -55 187 -55z" glyph-name="oslash" horiz-adv-x="1167" unicode="ø"/><glyph d="M528 1221l-223 315h180l185 -315h-142zM1096 1126v-1126h-168l-19 170q-59 -82 -162.5 -132t-214.5 -50q-184 0 -301.5 118.5t-117.5 303.5v716h192v-694q0 -123 75 -198.5t198 -75.5q131 0 229 77.5t98 196.5v694h191z" glyph-name="ugrave" horiz-adv-x="1200" unicode="ù"/><glyph d="M682 1221h-141l184 315h180zM1096 1126v-1126h-168l-19 170q-59 -82 -162.5 -132t-214.5 -50q-184 0 -301.5 118.5t-117.5 303.5v716h192v-694q0 -123 75 -198.5t198 -75.5q131 0 229 77.5t98 196.5v694h191z" glyph-name="uacute" horiz-adv-x="1200" unicode="ú"/><glyph d="M449 1186h-142l207 350h186l209 -350h-143l-158 266zM1096 1126v-1126h-168l-19 170q-59 -82 -162.5 -132t-214.5 -50q-184 0 -301.5 118.5t-117.5 303.5v716h192v-694q0 -123 75 -198.5t198 -75.5q131 0 229 77.5t98 196.5v694h191z" glyph-name="ucircumflex" horiz-adv-x="1200" unicode="û"/><glyph d="M418 1208q-49 0 -84 35t-35 84q0 47 35 82t84 35q47 0 82 -35t35 -82q0 -49 -35 -84t-82 -35zM797 1208q-47 0 -82 35t-35 84q0 47 35 82t82 35t81.5 -35t34.5 -82q0 -49 -34.5 -84t-81.5 -35zM1096 1126v-1126h-168l-19 170q-59 -82 -162.5 -132t-214.5 -50 q-184 0 -301.5 118.5t-117.5 303.5v716h192v-694q0 -123 75 -198.5t198 -75.5q131 0 229 77.5t98 196.5v694h191z" glyph-name="udieresis" horiz-adv-x="1200" unicode="ü"/><glyph d="M651 1221h-141l184 315h180zM1122 1126l-669 -1652h-177l244 594h-49l-442 1058h190l369 -880l344 880h190z" glyph-name="yacute" horiz-adv-x="1185" unicode="ý"/><glyph d="M729 1044q217 0 367.5 -154.5t150.5 -377.5q0 -221 -150.5 -376.5t-367.5 -155.5q-125 0 -229.5 57t-169.5 158v-705h-176v2046h176v-707q66 100 170 157.5t229 57.5zM706.5 135q157.5 0 267 110.5t109.5 266.5q0 158 -109.5 267.5t-267 109.5t-267 -109.5t-109.5 -267.5 q0 -156 109.5 -266.5t267 -110.5z" glyph-name="thorn" horiz-adv-x="1327" unicode="þ"/><glyph d="M399 1208q-49 0 -83.5 35t-34.5 84q0 47 34.5 82t83.5 35q47 0 82 -35t35 -82q0 -49 -35 -84t-82 -35zM778 1208q-47 0 -81.5 35t-34.5 84q0 47 34.5 82t81.5 35t82 -35t35 -82q0 -49 -35 -84t-82 -35zM1122 1126l-669 -1652h-177l244 594h-49l-442 1058h190l369 -880 l344 880h190z" glyph-name="ydieresis" horiz-adv-x="1185" unicode="ÿ"/><glyph d="M1073 1743h-635v119h635v-119zM1133 379h-738l-147 -379h-199l617 1536h202l617 -1536h-197zM1079 539l-313 811l-313 -811h626z" glyph-name="Amacron" horiz-adv-x="1533" unicode="Ā"/><glyph d="M807 1231h-635v119h635v-119zM434 -10q-164 0 -268.5 91t-104.5 236q0 154 115 250.5t348 112.5l275 18v37q0 125 -72 188.5t-199 63.5q-113 0 -186.5 -62.5t-85.5 -164.5h-170q16 160 130 270.5t321 110.5q203 0 319.5 -107.5t116.5 -302.5q0 -82 1 -182t1 -170v-78 q0 -86 19.5 -121t64.5 -33v-147q-23 0 -64 4q-152 25 -182 156q-45 -72 -150.5 -121t-228.5 -49zM461 141q125 0 226 74t112 170v172l-258 -20q-303 -25 -303 -215q0 -82 67.5 -131.5t155.5 -49.5z" glyph-name="amacron" horiz-adv-x="1114" unicode="ā"/><glyph d="M753.5 1671q-149.5 0 -244.5 86t-95 232h108q0 -86 65.5 -147.5t166 -61.5t167 61.5t66.5 147.5h107q0 -145 -95.5 -231.5t-245 -86.5zM1133 379h-738l-147 -379h-199l617 1536h202l617 -1536h-197zM1079 539l-313 811l-313 -811h626z" glyph-name="Abreve" horiz-adv-x="1533" unicode="Ă"/><glyph d="M492 1159q-150 0 -244 86t-94 232h108q0 -86 65.5 -147.5t164.5 -61.5q100 0 167.5 61.5t67.5 147.5h107q0 -145 -95 -231.5t-247 -86.5zM434 -10q-164 0 -268.5 91t-104.5 236q0 154 115 250.5t348 112.5l275 18v37q0 125 -72 188.5t-199 63.5q-113 0 -186.5 -62.5 t-85.5 -164.5h-170q16 160 130 270.5t321 110.5q203 0 319.5 -107.5t116.5 -302.5q0 -82 1 -182t1 -170v-78q0 -86 19.5 -121t64.5 -33v-147q-23 0 -64 4q-152 25 -182 156q-45 -72 -150.5 -121t-228.5 -49zM461 141q125 0 226 74t112 170v172l-258 -20q-303 -25 -303 -215 q0 -82 67.5 -131.5t155.5 -49.5z" glyph-name="abreve" horiz-adv-x="1114" unicode="ă"/><glyph d="M1534 -342l59 -84q-117 -113 -280 -106q-104 4 -167 61t-63 154q0 180 234 317h-29l-155 379h-738l-147 -379h-199l617 1536h202l617 -1536h-15q-109 -29 -187.5 -117t-78.5 -184q0 -59 36 -97t99 -38q117 0 195 94zM453 539h626l-313 811z" glyph-name="Aogonek" horiz-adv-x="1642" unicode="Ą"/><glyph d="M1171 -344l60 -84q-113 -113 -281 -107q-104 6 -166.5 62.5t-62.5 155.5q0 84 68.5 173t168.5 156q-117 29 -145 148q-45 -72 -150.5 -121t-228.5 -49q-164 0 -268.5 91t-104.5 236q0 154 115 250.5t348 112.5l275 18v37q0 125 -72 188.5t-199 63.5q-113 0 -186.5 -62.5 t-85.5 -164.5h-170q16 160 130 270.5t321 110.5q203 0 319.5 -107.5t116.5 -302.5q0 -82 1 -182t1 -170v-78q0 -86 19.5 -121t64.5 -33v-133l49 -16q-106 -35 -185 -120t-79 -181q0 -61 34.5 -98t100.5 -37q118 0 192 94zM799 385v172l-258 -20q-303 -25 -303 -215 q0 -82 67.5 -131.5t155.5 -49.5q125 0 226.5 74t111.5 170z" glyph-name="aogonek" horiz-adv-x="1146" unicode="ą"/><glyph d="M969 2048h180l-221 -315h-144zM805 -20q-324 -2 -529.5 226t-205.5 562t205.5 561t529.5 227q150 0 276.5 -48t206.5 -124.5t127 -163.5t58 -176h-187q-12 55 -45 110.5t-87 110t-145 87t-204 32.5q-254 0 -408.5 -176t-154.5 -440q0 -262 154.5 -438t408.5 -176 q197 0 329 100t152 215h187q-10 -78 -60.5 -161t-132.5 -156.5t-207 -121.5t-268 -50z" glyph-name="Cacute" horiz-adv-x="1587" unicode="Ć"/><glyph d="M672 1536h182l-223 -315h-142zM582 -12q-233 0 -380 164.5t-147 414.5t145.5 410t381.5 160q215 0 348 -113t153 -274h-172q-16 98 -105 163.5t-210 65.5q-164 0 -260 -111.5t-96 -300.5q0 -190 97 -303.5t261 -113.5q117 0 201 66.5t112 168.5h168 q-33 -166 -159.5 -281.5t-337.5 -115.5z" glyph-name="cacute" horiz-adv-x="1159" unicode="ć"/><glyph d="M807 1720q-49 0 -84 35t-35 84q0 47 35 82t84 35q47 0 82 -35t35 -82q0 -49 -35 -84t-82 -35zM805 -20q-324 -2 -529.5 226t-205.5 562t205.5 561t529.5 227q150 0 276.5 -48t206.5 -124.5t127 -163.5t58 -176h-187q-12 55 -45 110.5t-87 110t-145 87t-204 32.5 q-254 0 -408.5 -176t-154.5 -440q0 -262 154.5 -438t408.5 -176q197 0 329 100t152 215h187q-10 -78 -60.5 -161t-132.5 -156.5t-207 -121.5t-268 -50z" glyph-name="Cdotaccent" horiz-adv-x="1587" unicode="Ċ"/><glyph d="M571 1208q-49 0 -82.5 35t-33.5 84q0 47 33.5 82t82.5 35q47 0 82 -35t35 -82q0 -49 -35 -84t-82 -35zM582 -12q-233 0 -380 164.5t-147 414.5t145.5 410t381.5 160q215 0 348 -113t153 -274h-172q-16 98 -105 163.5t-210 65.5q-164 0 -260 -111.5t-96 -300.5 q0 -190 97 -303.5t261 -113.5q117 0 201 66.5t112 168.5h168q-33 -166 -159.5 -281.5t-337.5 -115.5z" glyph-name="cdotaccent" horiz-adv-x="1159" unicode="ċ"/><glyph d="M504 2048h137l166 -260l162 260h137l-207 -350h-186zM805 -20q-324 -2 -529.5 226t-205.5 562t205.5 561t529.5 227q150 0 276.5 -48t206.5 -124.5t127 -163.5t58 -176h-187q-12 55 -45 110.5t-87 110t-145 87t-204 32.5q-254 0 -408.5 -176t-154.5 -440 q0 -262 154.5 -438t408.5 -176q197 0 329 100t152 215h187q-10 -78 -60.5 -161t-132.5 -156.5t-207 -121.5t-268 -50z" glyph-name="Ccaron" horiz-adv-x="1587" unicode="Č"/><glyph d="M264 1536h137l164 -260l164 260h137l-209 -350h-186zM582 -12q-233 0 -380 164.5t-147 414.5t145.5 410t381.5 160q215 0 348 -113t153 -274h-172q-16 98 -105 163.5t-210 65.5q-164 0 -260 -111.5t-96 -300.5q0 -190 97 -303.5t261 -113.5q117 0 201 66.5t112 168.5h168 q-33 -166 -159.5 -281.5t-337.5 -115.5z" glyph-name="ccaron" horiz-adv-x="1159" unicode="č"/><glyph d="M281 2048h137l164 -260l163 260h138l-209 -350h-187zM139 1536h469q162 0 299 -46t243.5 -138t166 -245t59.5 -351q0 -348 -219 -552t-549 -204h-469v1536zM606 162q260 0 424 152.5t164 441.5q0 322 -161 471t-427 149h-289v-1214h289z" glyph-name="Dcaron" horiz-adv-x="1476" unicode="Ď"/><glyph d="M1378 1309q-78 33 -78 112q0 47 34 82t83 35q47 0 80 -35t33 -82q0 -55 -48 -139t-79 -123h-76zM1137 1536v-1536h-162l-19 178q-135 -188 -385 -188q-229 0 -372.5 160.5t-143.5 406.5t144.5 413t373.5 167q236 0 377 -191v590h187zM602 147q129 0 223.5 84t124.5 218 v217q-31 133 -125 217t-223 84q-160 0 -260 -117t-100 -293q0 -174 100 -292t260 -118z" glyph-name="dcaron" horiz-adv-x="1638" unicode="ď"/><glyph d="M750 1536q162 0 299 -46t243.5 -138t166 -245t59.5 -351q0 -348 -219.5 -552t-548.5 -204h-469v711h-142v116h142v709h469zM748 162q260 0 424.5 152.5t164.5 441.5q0 322 -160.5 471t-428.5 149h-287v-549h264v-116h-264v-549h287z" glyph-name="Dcroat" horiz-adv-x="1617" unicode="Đ"/><glyph d="M1190 1210h-141v-1210h-156l-10 164q-131 -184 -353 -184q-211 0 -343 153.5t-132 378.5q0 227 132 379.5t343 152.5q219 0 347 -176v342h-293v119h293v207h172v-207h141v-119zM559 135q117 0 203 78t115 201v198q-29 123 -115 200t-203 77q-147 0 -239.5 -107.5 t-92.5 -269.5q0 -160 92.5 -268.5t239.5 -108.5z" glyph-name="dcroat" horiz-adv-x="1300" unicode="đ"/><glyph d="M895 1743h-635v119h635v-119zM287 1376v-526h682v-162h-682v-526h768v-162h-951v1536h951v-160h-768z" glyph-name="Emacron" horiz-adv-x="1171" unicode="Ē"/><glyph d="M893 1241h-635v119h635v-119zM1087 569q0 -18 -4 -67h-843q6 -168 106 -263.5t229 -97.5q123 -2 204 51.5t110 143.5h162q-8 -57 -38 -113.5t-83 -112t-143.5 -88t-202.5 -32.5q-236 2 -380.5 164.5t-144.5 406.5q0 250 140.5 412t382.5 162q231 0 368 -156t137 -410z M582 979q-145 0 -232.5 -91t-105.5 -245h667q-16 154 -101 245t-228 91z" glyph-name="emacron" horiz-adv-x="1155" unicode="ē"/><glyph d="M577.5 1720q-47.5 0 -82 35t-34.5 84q0 47 34.5 82t82 35t83 -35t35.5 -82q0 -49 -35.5 -84t-83 -35zM287 1376v-526h682v-162h-682v-526h768v-162h-951v1536h951v-160h-768z" glyph-name="Edotaccent" horiz-adv-x="1171" unicode="Ė"/><glyph d="M575.5 1219q-47.5 0 -82 34.5t-34.5 81.5q0 49 34.5 84t82 35t83 -35t35.5 -84q0 -47 -35.5 -81.5t-83 -34.5zM1087 569q0 -18 -4 -67h-843q6 -168 106 -263.5t229 -97.5q123 -2 204 51.5t110 143.5h162q-8 -57 -38 -113.5t-83 -112t-143.5 -88t-202.5 -32.5 q-236 2 -380.5 164.5t-144.5 406.5q0 250 140.5 412t382.5 162q231 0 368 -156t137 -410zM582 979q-145 0 -232.5 -91t-105.5 -245h667q-16 154 -101 245t-228 91z" glyph-name="edotaccent" horiz-adv-x="1155" unicode="ė"/><glyph d="M1063 -342l59 -84q-113 -113 -280 -106q-104 4 -167 61t-63 154q0 178 236 317h-744v1536h951v-160h-768v-526h682v-162h-682v-526h768v-162h-54q-104 -29 -185 -117t-81 -184q0 -61 35 -98t100 -37q119 0 193 94z" glyph-name="Eogonek" horiz-adv-x="1241" unicode="Ę"/><glyph d="M1087 569q0 -18 -4 -67h-843q6 -168 106 -263.5t229 -97.5q123 -2 204 51.5t110 143.5h162q-14 -102 -96.5 -199.5t-227.5 -130.5q-4 -4 -12 -8q-59 -80 -60 -158q0 -61 35 -98t101 -37q117 0 194 92l57 -82q-113 -113 -280 -106q-104 4 -167 60.5t-63 154.5q0 80 54 160 q0 4 2 6h-4q-236 2 -380.5 164.5t-144.5 406.5q0 250 140.5 412t382.5 162q231 0 368 -156t137 -410zM244 643h667q-16 154 -101 245t-228 91q-145 0 -232.5 -91t-105.5 -245z" glyph-name="eogonek" horiz-adv-x="1128" unicode="ę"/><glyph d="M483 1698l-207 350h138l164 -260l163 260h138l-209 -350h-187zM287 1376v-526h682v-162h-682v-526h768v-162h-951v1536h951v-160h-768z" glyph-name="Ecaron" horiz-adv-x="1171" unicode="Ě"/><glyph d="M481 1196l-207 350h138l163 -260l164 260h138l-209 -350h-187zM1087 569q0 -18 -4 -67h-843q6 -168 106 -263.5t229 -97.5q123 -2 204 51.5t110 143.5h162q-8 -57 -38 -113.5t-83 -112t-143.5 -88t-202.5 -32.5q-236 2 -380.5 164.5t-144.5 406.5q0 250 140.5 412 t382.5 162q231 0 368 -156t137 -410zM582 979q-145 0 -232.5 -91t-105.5 -245h667q-16 154 -101 245t-228 91z" glyph-name="ecaron" horiz-adv-x="1155" unicode="ě"/><glyph d="M765.5 1671q-149.5 0 -244.5 86t-95 232h109q0 -86 65.5 -147.5t165.5 -61.5t166.5 61.5t66.5 147.5h107q0 -145 -95.5 -231.5t-245 -86.5zM1436 784v-166v-618h-121l-37 244q-82 -131 -203 -192.5t-313 -61.5q-324 0 -517.5 225t-193.5 549q0 348 195.5 568t509.5 220 q258 0 435 -128t212 -361h-174q-41 156 -170 238.5t-291 82.5q-252 0 -400.5 -170t-148.5 -450q0 -270 156.5 -439t384.5 -169q246 0 373 128t127 343h-420v157h596z" glyph-name="Gbreve" horiz-adv-x="1546" unicode="Ğ"/><glyph d="M600 1159q-150 0 -244 86t-94 232h109q0 -86 65.5 -147.5t163.5 -61.5q100 0 168 61.5t68 147.5h106q0 -145 -95 -231.5t-247 -86.5zM549 -498q-217 -2 -357.5 89.5t-146.5 238.5q-4 78 35 150.5t115 111.5q-125 78 -125 174q0 63 35.5 107.5t105.5 89.5 q-113 109 -113 282q0 164 121 277t307 113q150 0 258 -70q25 63 94.5 101t141.5 34v-145q-45 4 -83 -16.5t-52 -61.5q84 -109 84 -238q0 -176 -122 -285.5t-317 -111.5q-147 -4 -225 49q-39 -14 -57.5 -45t-7.5 -63q31 -90 182 -93l225 -2q358 -6 397 -262 q25 -178 -108 -300t-387 -124zM791 741q0 102 -75 169t-190 67q-111 0 -184.5 -67.5t-73.5 -170.5q0 -100 74 -168.5t184 -68.5q117 0 191 67.5t74 171.5zM870 -90q-12 72 -83.5 101.5t-206.5 29.5h-224q-66 -16 -100.5 -67.5t-34.5 -114.5q0 -92 92.5 -146.5t218.5 -54.5 q176 0 266 70.5t72 181.5z" glyph-name="gbreve" horiz-adv-x="1097" unicode="ğ"/><glyph d="M870 1720q-49 0 -83.5 35t-34.5 84q0 47 34.5 82t83.5 35q47 0 82 -35t35 -82q0 -49 -35 -84t-82 -35zM1436 784v-166v-618h-121l-37 244q-82 -131 -203 -192.5t-313 -61.5q-324 0 -517.5 225t-193.5 549q0 348 195.5 568t509.5 220q258 0 435 -128t212 -361h-174 q-41 156 -170 238.5t-291 82.5q-252 0 -400.5 -170t-148.5 -450q0 -270 156.5 -439t384.5 -169q246 0 373 128t127 343h-420v157h596z" glyph-name="Gdotaccent" horiz-adv-x="1546" unicode="Ġ"/><glyph d="M592 1208q-47 0 -82 35t-35 84q0 47 35 82t82 35t83 -35t36 -82q0 -49 -36 -84t-83 -35zM549 -498q-217 -2 -357.5 89.5t-146.5 238.5q-4 78 35 150.5t115 111.5q-125 78 -125 174q0 63 35.5 107.5t105.5 89.5q-113 109 -113 282q0 164 121 277t307 113q150 0 258 -70 q25 63 94.5 101t141.5 34v-145q-45 4 -83 -16.5t-52 -61.5q84 -109 84 -238q0 -176 -122 -285.5t-317 -111.5q-147 -4 -225 49q-39 -14 -57.5 -45t-7.5 -63q31 -90 182 -93l225 -2q358 -6 397 -262q25 -178 -108 -300t-387 -124zM791 741q0 102 -75 169t-190 67 q-111 0 -184.5 -67.5t-73.5 -170.5q0 -100 74 -168.5t184 -68.5q117 0 191 67.5t74 171.5zM870 -90q-12 72 -83.5 101.5t-206.5 29.5h-224q-66 -16 -100.5 -67.5t-34.5 -114.5q0 -92 92.5 -146.5t218.5 -54.5q176 0 266 70.5t72 181.5z" glyph-name="gdotaccent" horiz-adv-x="1097" unicode="ġ"/><glyph d="M1436 784v-166v-618h-121l-37 244q-82 -131 -203 -192.5t-313 -61.5q-324 0 -517.5 225t-193.5 549q0 348 195.5 568t509.5 220q258 0 435 -128t212 -361h-174q-41 156 -170 238.5t-291 82.5q-252 0 -400.5 -170t-148.5 -450q0 -270 156.5 -439t384.5 -169q246 0 373 128 t127 343h-420v157h596zM821 -311q-35 12 -56.5 42.5t-21.5 69.5q0 47 34 82t83 35q47 0 80 -35t33 -82q0 -98 -127 -264h-76z" glyph-name="Gcommaaccent" horiz-adv-x="1546" unicode="Ģ"/><glyph d="M635 1403q78 -29 78 -111q0 -47 -34 -81.5t-83 -34.5q-47 0 -80 33.5t-33 82.5q0 96 127 262h76zM549 -498q-217 -2 -357.5 89.5t-146.5 238.5q-4 78 35 150.5t115 111.5q-125 78 -125 174q0 63 35.5 107.5t105.5 89.5q-113 109 -113 282q0 164 121 277t307 113 q150 0 258 -70q25 63 94.5 101t141.5 34v-145q-45 4 -83 -16.5t-52 -61.5q84 -109 84 -238q0 -176 -122 -285.5t-317 -111.5q-147 -4 -225 49q-39 -14 -57.5 -45t-7.5 -63q31 -90 182 -93l225 -2q358 -6 397 -262q25 -178 -108 -300t-387 -124zM791 741q0 102 -75 169 t-190 67q-111 0 -184.5 -67.5t-73.5 -170.5q0 -100 74 -168.5t184 -68.5q117 0 191 67.5t74 171.5zM870 -90q-12 72 -83.5 101.5t-206.5 29.5h-224q-66 -16 -100.5 -67.5t-34.5 -114.5q0 -92 92.5 -146.5t218.5 -54.5q176 0 266 70.5t72 181.5z" glyph-name="gcommaaccent" horiz-adv-x="1097" unicode="ģ"/><glyph d="M1620 1161h-139v-1161h-181v688h-823v-688h-182v1161h-141v78h141v297h182v-297h823v297h181v-297h139v-78zM1300 1161h-823v-311h823v311z" glyph-name="Hbar" horiz-adv-x="1773" unicode="Ħ"/><glyph d="M784 1139q186 0 299 -112t113 -298v-729h-192v707q0 121 -73 191.5t-198 70.5q-131 0 -229 -77t-98 -194v-698h-191v1219h-86v116h86v199h191v-199h329v-116h-329v-252q61 78 163 125t215 47z" glyph-name="hbar" horiz-adv-x="1284" unicode="ħ"/><glyph d="M387 1714q-117 0 -190 113q-35 59 -95 59q-47 0 -71.5 -43t-14.5 -110h-110q-14 115 41 188.5t151 73.5q121 0 191 -111q35 -61 94 -61q47 0 71.5 43t14.5 108h109q16 -113 -38.5 -186.5t-152.5 -73.5zM154 1536h182v-1536h-182v1536z" glyph-name="Itilde" horiz-adv-x="489" unicode="Ĩ"/><glyph d="M385 1202q-117 0 -188 113q-39 59 -95 59q-47 0 -71.5 -43t-14.5 -110h-112q-14 113 42 187.5t150 74.5q121 0 191 -111q39 -61 96 -61q47 0 70.5 43t13.5 108h111q16 -113 -39.5 -186.5t-153.5 -73.5zM154 1024h176v-1024h-176v1024z" glyph-name="itilde" horiz-adv-x="483" unicode="ĩ"/><glyph d="M-76 1862h637v-119h-637v119zM154 1536h182v-1536h-182v1536z" glyph-name="Imacron" horiz-adv-x="489" unicode="Ī"/><glyph d="M-78 1350h637v-119h-637v119zM154 1024h176v-1024h-176v1024z" glyph-name="imacron" horiz-adv-x="483" unicode="ī"/><glyph d="M438 -426q-113 -113 -280 -106q-104 4 -168 61t-64 154q0 178 238 317h-10v1536h182v-1536h-19q-104 -29 -186 -117t-82 -184q0 -59 36 -97t101 -38q119 0 193 94z" glyph-name="Iogonek" horiz-adv-x="489" unicode="Į"/><glyph d="M242 1208q-47 0 -82 35t-35 84q0 47 35 82t82 35t81.5 -35t34.5 -82q0 -49 -34.5 -84t-81.5 -35zM436 -426q-117 -113 -280 -106q-104 4 -169 61t-65 154q0 176 238 317h-6v1024h176v-1024h-15q-104 -29 -186 -117t-82 -184q0 -59 36 -97t99 -38q117 0 195 94z" glyph-name="iogonek" horiz-adv-x="483" unicode="į"/><glyph d="M244 1720q-47 0 -82 35t-35 84q0 47 35 82t82 35t82.5 -35t35.5 -82q0 -49 -35.5 -84t-82.5 -35zM154 1536h182v-1536h-182v1536z" glyph-name="Idotaccent" horiz-adv-x="489" unicode="İ"/><glyph d="M154 1024h176v-1024h-176v1024z" glyph-name="dotlessi" horiz-adv-x="483" unicode="ı"/><glyph d="M262 1536h182v-1536h-182v1536zM952 -20q-92 0 -155 18v186q63 -23 151 -22q72 0 123 51t51 123v1200h181v-1206q0 -150 -102 -250t-249 -100z" glyph-name="IJ" horiz-adv-x="1490" unicode="Ĳ"/><glyph d="M1030 1305q-47 0 -82 34.5t-35 81.5t35 82t82 35t82 -35t35 -82t-35 -81.5t-82 -34.5zM342 1214q-47 0 -82 35t-35 82q0 49 35 83t82 34t82 -34t35 -83q0 -47 -35 -82t-82 -35zM735 -508v162h45q90 0 124 43t34 123v1306h178v-1327q0 -307 -336 -307h-45zM254 1024h176 v-1024h-176v1024z" glyph-name="ij" horiz-adv-x="1341" unicode="ĳ"/><glyph d="M1030 0l-725 709v-709h-182v1536h182v-727l649 725h224l-689 -768l775 -766h-234zM590 -354q-35 12 -56.5 42.5t-21.5 69.5q0 47 34 82t83 35q47 0 79.5 -35t32.5 -82q0 -98 -127 -264h-75z" glyph-name="Kcommaaccent" horiz-adv-x="1263" unicode="Ķ"/><glyph d="M121 0v1536h190v-893l410 483h221l-467 -530l535 -596h-222l-477 530v-530h-190zM502 -354q-78 31 -78 112q0 49 34 83t83 34q47 0 79.5 -35t32.5 -82q0 -55 -49 -142t-80 -120h-73z" glyph-name="kcommaaccent" horiz-adv-x="1026" unicode="ķ"/><glyph d="M360 2048h183l-224 -315h-141zM154 1536h182v-1374h563v-162h-745v1536z" glyph-name="Lacute" horiz-adv-x="952" unicode="Ĺ"/><glyph d="M352 2048h183l-224 -315h-141zM180 0v1536h178v-1536h-178z" glyph-name="lacute" horiz-adv-x="655" unicode="ĺ"/><glyph d="M154 1536h182v-1374h563v-162h-745v1536zM485 -367q-78 27 -77 111q0 49 33.5 83t82.5 34q47 0 80 -34t33 -83q0 -55 -48 -139t-81 -123h-74z" glyph-name="Lcommaaccent" horiz-adv-x="952" unicode="Ļ"/><glyph d="M180 0v1536h178v-1536h-178zM244 -362q-78 27 -78 110q0 49 33.5 83t83.5 34q47 0 79.5 -34t32.5 -83q0 -55 -48 -139t-81 -123h-73z" glyph-name="lcommaaccent" horiz-adv-x="655" unicode="ļ"/><glyph d="M154 1536h182v-1374h563v-162h-745v1536zM778 1309q-78 29 -78 110q0 47 34 82t83 35q47 0 80 -34t33 -83q0 -96 -127 -262h-76z" glyph-name="Lcaron" horiz-adv-x="976" unicode="Ľ"/><glyph d="M625 1317q-78 27 -78 110q0 49 33.5 83t83.5 34q47 0 79.5 -33.5t32.5 -83.5q0 -55 -48 -139t-81 -123h-74zM180 0v1536h178v-1536h-178z" glyph-name="lcaron" horiz-adv-x="847" unicode="ľ"/><glyph d="M180 0v1536h178v-1536h-178zM598 643q-37 0 -64.5 27.5t-27.5 66.5t27.5 66.5t64.5 27.5q39 0 66.5 -27.5t27.5 -66.5t-27.5 -66.5t-66.5 -27.5z" glyph-name="ldot" horiz-adv-x="774" unicode="ŀ"/><glyph d="M899 162v-162h-745v608l-105 -110h-127l232 247v791h182v-600l100 111h133l-233 -248v-637h563z" glyph-name="Lslash" horiz-adv-x="952" unicode="Ł"/><glyph d="M596 1024l-229 -242l-9 -8v-774h-178v586l-104 -109h-127l231 244v815h178v-625l9 9l98 104h131z" glyph-name="lslash" horiz-adv-x="655" unicode="ł"/><glyph d="M866 1733h-141l184 315h181zM1436 1536v-1536h-172l-928 1245v-1245h-182v1536h172l929 -1243v1243h181z" glyph-name="Nacute" horiz-adv-x="1589" unicode="Ń"/><glyph d="M680 1221h-141l184 315h180zM684 1139q184 0 295 -112t111 -300v-727h-189v709q0 119 -72.5 190.5t-193.5 71.5q-131 0 -227.5 -77t-96.5 -194v-700h-188v1126h164l18 -168q59 82 162.5 131.5t216.5 49.5z" glyph-name="nacute" horiz-adv-x="1204" unicode="ń"/><glyph d="M1436 1536v-1536h-172l-928 1245v-1245h-182v1536h172l929 -1243v1243h181zM774 -354q-78 29 -78 110q0 47 34 82t83 35q47 0 80 -34t33 -83q0 -96 -127 -262h-76z" glyph-name="Ncommaaccent" horiz-adv-x="1589" unicode="Ņ"/><glyph d="M684 1139q184 0 295 -112t111 -300v-727h-189v709q0 119 -72.5 190.5t-193.5 71.5q-131 0 -227.5 -77t-96.5 -194v-700h-188v1126h164l18 -168q59 82 162.5 131.5t216.5 49.5zM561 -367q-78 27 -78 111q0 49 34 83t83 34q47 0 80 -34t33 -83q0 -55 -48.5 -139t-80.5 -123 h-74z" glyph-name="ncommaaccent" horiz-adv-x="1204" unicode="ņ"/><glyph d="M698 1698l-209 350h138l166 -260l161 260h138l-207 -350h-187zM1436 1536v-1536h-172l-928 1245v-1245h-182v1536h172l929 -1243v1243h181z" glyph-name="Ncaron" horiz-adv-x="1589" unicode="Ň"/><glyph d="M512 1186l-207 350h137l164 -260l164 260h137l-209 -350h-186zM684 1139q184 0 295 -112t111 -300v-727h-189v709q0 119 -72.5 190.5t-193.5 71.5q-131 0 -227.5 -77t-96.5 -194v-700h-188v1126h164l18 -168q59 82 162.5 131.5t216.5 49.5z" glyph-name="ncaron" horiz-adv-x="1204" unicode="ň"/><glyph d="M1456 1536v-1692q0 -131 -89 -195.5t-228 -60.5v123q137 -12 137 133v176l-920 1215v-1235h-174v1536h166l934 -1235v1235h174z" glyph-name="Eng" horiz-adv-x="1638" unicode="Ŋ"/><glyph d="M1090 727v-727h-35v-166q0 -131 -90.5 -195.5t-229.5 -60.5v121q143 -4 144 135v178l22 2v695q0 119 -72.5 190.5t-193.5 71.5q-131 0 -227.5 -77t-96.5 -194v-700h-188v1126h164l18 -168q59 82 162.5 131.5t216.5 49.5q184 0 295 -112t111 -300z" glyph-name="eng" horiz-adv-x="1243" unicode="ŋ"/><glyph d="M535 1862h634v-119h-634v119zM850 -20q-326 0 -538 228t-212 560t212 560t538 228t537.5 -228t211.5 -560t-211.5 -560t-537.5 -228zM850 154q256 0 415.5 176t159.5 438t-159.5 439t-415.5 177q-254 0 -416 -177t-162 -439q0 -260 162 -437t416 -177z" glyph-name="Omacron" horiz-adv-x="1699" unicode="Ō"/><glyph d="M266 1350h635v-119h-635v119zM584 -20q-221 0 -362.5 153.5t-141.5 378.5t141 378.5t363 153.5q219 0 361 -153.5t142 -378.5t-142 -378.5t-361 -153.5zM583.5 135q147.5 0 238.5 108.5t91 268.5q0 162 -91 269.5t-238.5 107.5t-239.5 -107.5t-92 -269.5 q0 -160 92 -268.5t239.5 -108.5z" glyph-name="omacron" horiz-adv-x="1167" unicode="ō"/><glyph d="M913 2048h172l-340 -356h-133zM1262 2048h170l-340 -356h-134zM850 -20q-326 0 -538 228t-212 560t212 560t538 228t537.5 -228t211.5 -560t-211.5 -560t-537.5 -228zM850 154q256 0 415.5 176t159.5 438t-159.5 439t-415.5 177q-254 0 -416 -177t-162 -439 q0 -260 162 -437t416 -177z" glyph-name="Ohungarumlaut" horiz-adv-x="1699" unicode="Ő"/><glyph d="M645 1536h172l-340 -356h-131zM993 1536h170l-338 -356h-133zM584 -20q-221 0 -362.5 153.5t-141.5 378.5t141 378.5t363 153.5q219 0 361 -153.5t142 -378.5t-142 -378.5t-361 -153.5zM583.5 135q147.5 0 238.5 108.5t91 268.5q0 162 -91 269.5t-238.5 107.5 t-239.5 -107.5t-92 -269.5q0 -160 92 -268.5t239.5 -108.5z" glyph-name="ohungarumlaut" horiz-adv-x="1167" unicode="ő"/><glyph d="M2413 1376h-771v-526h685v-162h-685v-526h771v-162h-951v248q-233 -266 -583 -266q-328 0 -558.5 230t-230.5 558t230.5 558.5t558.5 230.5q352 0 583 -265v242h951v-160zM879 156q203 0 362.5 117.5t220.5 304.5v387q-61 184 -221 301.5t-362 117.5q-256 0 -435.5 -179 t-179.5 -435t179.5 -435t435.5 -179z" glyph-name="OE" horiz-adv-x="2652" unicode="Œ"/><glyph d="M1972 569q0 -18 -4 -67h-844q6 -168 106.5 -263.5t229.5 -97.5q123 -2 204 51.5t110 143.5h161q-8 -57 -37.5 -113.5t-83 -112t-143.5 -88t-203 -32.5q-145 2 -257.5 66.5t-180.5 176.5v-4q-70 -117 -184.5 -183t-257.5 -66q-236 0 -387.5 169.5t-151.5 415.5 q0 248 151.5 417t387.5 169q143 0 258 -66.5t186 -183.5q139 233 434 234q231 0 368.5 -156t137.5 -410zM588 152q160 0 256 118.5t96 294.5q0 178 -96 296t-256 118q-158 0 -255 -119t-97 -295t97 -294.5t255 -118.5zM1128 643h668q-16 154 -101 245t-229 91 q-145 0 -232.5 -91t-105.5 -245z" glyph-name="oe" horiz-adv-x="2035" unicode="œ"/><glyph d="M692 1733h-141l184 315h180zM1219 0h-203l-389 637h-353v-637h-182v1536h637q176 0 303 -138t127 -321q0 -156 -100.5 -281.5t-247.5 -148.5zM723 784q113 0 191.5 89.5t78.5 208t-79.5 206.5t-190.5 88h-449v-592h449z" glyph-name="Racute" horiz-adv-x="1204" unicode="Ŕ"/><glyph d="M475 1221h-141l182 315h182zM727 1137l-2 -162q-182 10 -295 -83t-113 -282v-610h-192v1126h172l20 -204q101 229 410 215z" glyph-name="racute" horiz-adv-x="806" unicode="ŕ"/><glyph d="M1219 0h-203l-389 637h-353v-637h-182v1536h637q176 0 303 -138t127 -321q0 -156 -100.5 -281.5t-247.5 -148.5zM723 784q113 0 191.5 89.5t78.5 208t-79.5 206.5t-190.5 88h-449v-592h449zM588 -350q-78 27 -78 110q0 49 34 83t83 34q47 0 79.5 -33.5t32.5 -83.5 q0 -55 -48 -139t-81 -123h-73z" glyph-name="Rcommaaccent" horiz-adv-x="1204" unicode="Ŗ"/><glyph d="M727 1137l-2 -162q-182 10 -295 -83t-113 -282v-610h-192v1126h172l20 -204q101 229 410 215zM199 -360q-78 31 -78 112q0 49 33.5 83t83.5 34q47 0 79.5 -35t32.5 -82q0 -55 -49 -142t-80 -120h-74z" glyph-name="rcommaaccent" horiz-adv-x="806" unicode="ŗ"/><glyph d="M524 1698l-207 350h138l163 -260l164 260h138l-209 -350h-187zM1219 0h-203l-389 637h-353v-637h-182v1536h637q176 0 303 -138t127 -321q0 -156 -100.5 -281.5t-247.5 -148.5zM723 784q113 0 191.5 89.5t78.5 208t-79.5 206.5t-190.5 88h-449v-592h449z" glyph-name="Rcaron" horiz-adv-x="1204" unicode="Ř"/><glyph d="M322 1186l-207 350h137l164 -260l164 260h137l-209 -350h-186zM727 1137l-2 -162q-182 10 -295 -83t-113 -282v-610h-192v1126h172l20 -204q101 229 410 215z" glyph-name="rcaron" horiz-adv-x="806" unicode="ř"/><glyph d="M831 2046h181l-224 -315h-141zM612 -20q-233 0 -384.5 131t-170.5 325h179q20 -119 115 -201.5t265 -82.5q162 0 263.5 68.5t103.5 199.5q0 29 -7 55.5t-16.5 46t-31 41l-34.5 34.5t-46 31.5t-48.5 27t-56.5 24.5t-56 21.5t-61 21.5t-59 20q-88 31 -137 50.5t-120.5 57.5 t-109.5 76t-67 97t-29 131q0 188 153 294.5t359 106.5q242 0 374 -111.5t167 -309.5h-164q-14 109 -112.5 187.5t-262.5 78.5q-129 0 -228 -61.5t-99 -174.5q0 -43 21.5 -79.5t45 -60.5t80 -53.5t86 -41.5t101.5 -39q25 -10 37 -14q18 -6 74.5 -28t80 -32t73.5 -31.5 t74.5 -38t63.5 -43t58.5 -54t41 -61.5t30.5 -75t9 -88q0 -209 -162 -327.5t-393 -118.5z" glyph-name="Sacute" horiz-adv-x="1286" unicode="Ś"/><glyph d="M612 1536h181l-222 -315h-143zM506 -18q-209 0 -323.5 108.5t-125.5 241.5h166q12 -80 94 -143.5t186.5 -61.5t170 55.5t65.5 136.5q0 86 -73.5 130.5t-210.5 68.5q-164 33 -262.5 98.5t-98.5 202.5q0 147 118 235.5t286 88.5q176 0 285.5 -82t125.5 -238h-161 q-16 86 -86 126t-144 44q-94 4 -161.5 -34.5t-67.5 -116.5q0 -82 68.5 -119t201.5 -61q373 -72 373 -330q0 -152 -121 -251t-305 -99z" glyph-name="sacute" horiz-adv-x="974" unicode="ś"/><glyph d="M1167 426q0 -197 -145 -314.5t-360 -129.5l-56 -119q106 20 181 -34t75 -151q0 -88 -60.5 -148t-148.5 -60q-70 0 -137 36.5t-98 90.5l82 36q23 -33 67.5 -54t85.5 -21q51 0 85 34.5t34 85.5q0 72 -59.5 99.5t-147.5 -4.5l-73 49l77 160q-215 12 -355 141t-157 313h179 q20 -119 115 -201.5t265 -82.5q162 0 263.5 68.5t103.5 199.5q0 29 -7 55.5t-16.5 46t-31 41l-34.5 34.5t-46 31.5t-48.5 27t-56.5 24.5t-56 21.5t-61 21.5t-59 20q-88 31 -137 50.5t-120.5 57.5t-109.5 76t-67 97t-29 131q0 188 153 294.5t359 106.5q242 0 374 -111.5 t167 -309.5h-164q-14 109 -112.5 187.5t-262.5 78.5q-129 0 -228 -61.5t-99 -174.5q0 -43 21.5 -79.5t45 -60.5t80 -53.5t86 -41.5t101.5 -39q25 -10 37 -14q18 -6 74.5 -28t80 -32t73.5 -31.5t74.5 -38t63.5 -43t58.5 -54t41 -61.5t30.5 -75t9 -88z" glyph-name="Scedilla" horiz-adv-x="1286" unicode="Ş"/><glyph d="M506 -18q-209 0 -323.5 108.5t-125.5 241.5h166q12 -80 94 -143.5t186.5 -61.5t170 55.5t65.5 136.5q0 86 -73.5 130.5t-210.5 68.5q-164 33 -262.5 98.5t-98.5 202.5q0 147 118 235.5t286 88.5q176 0 285.5 -82t125.5 -238h-161q-16 86 -86 126t-144 44 q-94 4 -161.5 -34.5t-67.5 -116.5q0 -82 68.5 -119t201.5 -61q373 -72 373 -330q0 -152 -121 -251t-305 -99zM543 -18l-58 -121q106 23 181 -31.5t75 -153.5q0 -88 -60 -148t-149 -60q-70 0 -137 37.5t-98 91.5l82 34q23 -33 68 -54t85 -21q51 0 85 34.5t34 85.5 q0 72 -60.5 99.5t-146.5 -4.5l-73 49l80 162h92z" glyph-name="scedilla" horiz-adv-x="974" unicode="ş"/><glyph d="M412 2046h137l166 -258l162 258h137l-207 -350h-186zM612 -20q-233 0 -384.5 131t-170.5 325h179q20 -119 115 -201.5t265 -82.5q162 0 263.5 68.5t103.5 199.5q0 29 -7 55.5t-16.5 46t-31 41l-34.5 34.5t-46 31.5t-48.5 27t-56.5 24.5t-56 21.5t-61 21.5t-59 20 q-88 31 -137 50.5t-120.5 57.5t-109.5 76t-67 97t-29 131q0 188 153 294.5t359 106.5q242 0 374 -111.5t167 -309.5h-164q-14 109 -112.5 187.5t-262.5 78.5q-129 0 -228 -61.5t-99 -174.5q0 -43 21.5 -79.5t45 -60.5t80 -53.5t86 -41.5t101.5 -39q25 -10 37 -14 q18 -6 74.5 -28t80 -32t73.5 -31.5t74.5 -38t63.5 -43t58.5 -54t41 -61.5t30.5 -75t9 -88q0 -209 -162 -327.5t-393 -118.5z" glyph-name="Scaron" horiz-adv-x="1286" unicode="Š"/><glyph d="M195 1536h137l164 -260l163 260h138l-209 -350h-187zM506 -18q-209 0 -323.5 108.5t-125.5 241.5h166q12 -80 94 -143.5t186.5 -61.5t170 55.5t65.5 136.5q0 86 -73.5 130.5t-210.5 68.5q-164 33 -262.5 98.5t-98.5 202.5q0 147 118 235.5t286 88.5q176 0 285.5 -82 t125.5 -238h-161q-16 86 -86 126t-144 44q-94 4 -161.5 -34.5t-67.5 -116.5q0 -82 68.5 -119t201.5 -61q373 -72 373 -330q0 -152 -121 -251t-305 -99z" glyph-name="scaron" horiz-adv-x="974" unicode="š"/><glyph d="M1122 1376h-463v-1374h-178v1374h-463v162h1104v-162zM657 -532q-70 0 -138 37.5t-97 91.5l82 34q23 -33 67.5 -54t85.5 -21q51 0 84 34.5t33 85.5q0 72 -59.5 99.5t-145.5 -4.5l-75 49l90 180h92l-68 -139q109 20 183.5 -33t74.5 -152q0 -88 -60.5 -148t-148.5 -60z" glyph-name="Tcommaaccent" horiz-adv-x="1112" unicode="Ţ"/><glyph d="M559 -2q-162 0 -250 65.5t-88 241.5v676h-176v149h176v406h182v-406h267v-151l-271 2v-655q0 -84 32 -125t128 -41h123v-162h-123zM442 -139q106 20 181 -33t75 -152q0 -88 -60 -148t-149 -60q-70 0 -137 37.5t-98 91.5l82 34q23 -33 68 -54t85 -21q51 0 85 34.5t34 85.5 q0 72 -59.5 99.5t-147.5 -4.5l-73 49l84 170l88 -8z" glyph-name="tcommaaccent" horiz-adv-x="692" unicode="ţ"/><glyph d="M539 1698l-209 350h137l166 -260l162 260h137l-207 -350h-186zM1122 1376h-463v-1374h-178v1374h-463v162h1104v-162z" glyph-name="Tcaron" horiz-adv-x="1105" unicode="Ť"/><glyph d="M590 1350q-80 29 -80 112q0 47 34 82t83 35t80.5 -34t31.5 -83q0 -98 -127 -264h-73zM559 -2q-162 0 -250 65.5t-88 241.5v676h-176v149h176v406h182v-406h267v-151l-271 2v-655q0 -84 32 -125t128 -41h123v-162h-123z" glyph-name="tcaron" horiz-adv-x="753" unicode="ť"/><glyph d="M1122 1376h-463v-549h226l49 -75l-268 -41h-7v-709h-178v709h-28l-125 75l153 39v551h-463v162h1104v-162z" glyph-name="Tbar" horiz-adv-x="1087" unicode="Ŧ"/><glyph d="M559 160h123v-162h-123q-162 0 -250 65.5t-88 241.5v148h-170v116h170v412h-176v149h176v406h182v-406h267v-151l-271 2v-412h260v-116h-260v-127q0 -84 32 -125t128 -41z" glyph-name="tbar" horiz-adv-x="692" unicode="ŧ"/><glyph d="M887 1714q-119 0 -191 113q-39 59 -94 59q-47 0 -71.5 -43t-12.5 -110h-110q-16 115 39 188.5t151 73.5q117 0 190 -111q35 -61 95 -61q47 0 71.5 43t12.5 108h110q16 -113 -38 -186.5t-152 -73.5zM680 -20q-244 0 -415 152.5t-171 371.5v1032h182v-1004 q0 -162 119 -276.5t285 -114.5q170 0 294 115t124 276v1004h180v-1032q0 -219 -176 -371.5t-422 -152.5z" glyph-name="Utilde" horiz-adv-x="1484" unicode="Ũ"/><glyph d="M426 1862h635v-119h-635v119zM680 -20q-244 0 -415 152.5t-171 371.5v1032h182v-1004q0 -162 119 -276.5t285 -114.5q170 0 294 115t124 276v1004h180v-1032q0 -219 -176 -371.5t-422 -152.5z" glyph-name="Umacron" horiz-adv-x="1484" unicode="Ū"/><glyph d="M926 1231h-635v119h635v-119zM1096 1126v-1126h-168l-19 170q-59 -82 -162.5 -132t-214.5 -50q-184 0 -301.5 118.5t-117.5 303.5v716h192v-694q0 -123 75 -198.5t198 -75.5q131 0 229 77.5t98 196.5v694h191z" glyph-name="umacron" horiz-adv-x="1210" unicode="ū"/><glyph d="M743 1657q-88 0 -148 60.5t-60 146.5t60 147.5t148 61.5q84 0 144.5 -61.5t60.5 -147.5q0 -84 -60.5 -145.5t-144.5 -61.5zM743.5 1739q53.5 0 89 35.5t35.5 89t-36.5 91.5t-88 38t-88.5 -38t-37 -91.5t36 -89t89.5 -35.5zM680 -20q-244 0 -415 152.5t-171 371.5v1032 h182v-1004q0 -162 119 -276.5t285 -114.5q170 0 294 115t124 276v1004h180v-1032q0 -219 -176 -371.5t-422 -152.5z" glyph-name="Uring" horiz-adv-x="1484" unicode="Ů"/><glyph d="M608 1145q-88 0 -148.5 60.5t-60.5 146.5t60.5 147.5t148.5 61.5q84 0 144.5 -61.5t60.5 -147.5q0 -84 -60.5 -145.5t-144.5 -61.5zM608 1481q-51 0 -88 -38t-37 -91.5t36 -89t89 -35.5q51 0 88 35.5t37 89t-37 91.5t-88 38zM1096 1126v-1126h-168l-19 170 q-59 -82 -162.5 -132t-214.5 -50q-184 0 -301.5 118.5t-117.5 303.5v716h192v-694q0 -123 75 -198.5t198 -75.5q131 0 229 77.5t98 196.5v694h191z" glyph-name="uring" horiz-adv-x="1210" unicode="ů"/><glyph d="M805 2048h172l-340 -356h-133zM1153 2048h170l-340 -356h-133zM680 -20q-244 0 -415 152.5t-171 371.5v1032h182v-1004q0 -162 119 -276.5t285 -114.5q170 0 294 115t124 276v1004h180v-1032q0 -219 -176 -371.5t-422 -152.5z" glyph-name="Uhungarumlaut" horiz-adv-x="1484" unicode="Ű"/><glyph d="M500 1180h-131l301 356h170zM715 1180l301 356h170l-338 -356h-133zM1096 1126v-1126h-168l-19 170q-59 -82 -162.5 -132t-214.5 -50q-184 0 -301.5 118.5t-117.5 303.5v716h192v-694q0 -123 75 -198.5t198 -75.5q131 0 229 77.5t98 196.5v694h191z" glyph-name="uhungarumlaut" horiz-adv-x="1210" unicode="ű"/><glyph d="M1098 1536h180v-1032q0 -190 -137 -334.5t-344 -179.5l73 6q-86 -43 -148.5 -122t-62.5 -163q0 -61 35 -98t101 -37q117 0 192 92l60 -82q-113 -113 -281 -106q-104 4 -166.5 60.5t-62.5 154.5q0 162 186 287q-14 -2 -43 -2q-244 0 -415 152.5t-171 371.5v1032h182v-1004 q0 -162 119 -276.5t285 -114.5q170 0 294 115t124 276v1004z" glyph-name="Uogonek" horiz-adv-x="1484" unicode="Ų"/><glyph d="M1120 -342l58 -84q-113 -113 -281 -106q-104 4 -166.5 61t-62.5 154q0 186 229 317h31l-19 170q-59 -82 -162.5 -132t-214.5 -50q-184 0 -301.5 118.5t-117.5 303.5v716h192v-694q0 -123 75 -198.5t198 -75.5q131 0 229 77.5t98 196.5v694h191v-1126h-39 q-104 -29 -185 -117t-81 -184q0 -59 35.5 -97t99.5 -38q116 0 194 94z" glyph-name="uogonek" horiz-adv-x="1210" unicode="ų"/><glyph d="M946 1698h-143l207 350h186l209 -350h-143l-158 266zM2083 1536l-469 -1536h-211l-342 1204l-338 -1204h-211l-481 1536h194l391 -1327l357 1327h184l352 -1329l379 1329h195z" glyph-name="Wcircumflex" horiz-adv-x="2205" unicode="Ŵ"/><glyph d="M604 1186h-141l207 350h186l209 -350h-143l-158 266zM1630 1118l-342 -1118h-215l-225 827l-223 -827h-213l-344 1118h215l245 -891l234 891h184l232 -895l241 895h211z" glyph-name="wcircumflex" horiz-adv-x="1480" unicode="ŵ"/><glyph d="M506 1698h-144l207 350h187l209 -350h-144l-157 266zM754 729v-729h-181v725l-536 811h203l422 -653l425 653h201z" glyph-name="Ycircumflex" horiz-adv-x="1325" unicode="Ŷ"/><glyph d="M403 1186h-143l207 350h186l209 -350h-143l-158 266zM1122 1126l-669 -1652h-177l244 594h-49l-442 1058h190l369 -880l344 880h190z" glyph-name="ycircumflex" horiz-adv-x="1212" unicode="ŷ"/><glyph d="M475 1720q-49 0 -83 35t-34 84q0 47 34 82t83 35q47 0 82 -35t35 -82q0 -49 -35 -84t-82 -35zM856 1720q-49 0 -84 35t-35 84q0 47 35 82t84 35q47 0 81 -35t34 -82q0 -49 -34 -84t-81 -35zM754 729v-729h-181v725l-536 811h203l422 -653l425 653h201z" glyph-name="Ydieresis" horiz-adv-x="1325" unicode="Ÿ"/><glyph d="M756 1733h-144l185 315h180zM1251 162v-162h-1163v94l889 1282h-866v160h1114v-94l-889 -1280h915z" glyph-name="Zacute" horiz-adv-x="1343" unicode="Ź"/><glyph d="M666 1536h180l-221 -315h-144zM86 123l637 754h-623v147h856v-117l-637 -760h654v-147h-887v123z" glyph-name="zacute" horiz-adv-x="1058" unicode="ź"/><glyph d="M680 1720q-47 0 -82 35t-35 84q0 47 35 82t82 35t83 -35t36 -82q0 -49 -36 -84t-83 -35zM1251 162v-162h-1163v94l889 1282h-866v160h1114v-94l-889 -1280h915z" glyph-name="Zdotaccent" horiz-adv-x="1343" unicode="Ż"/><glyph d="M549 1208q-47 0 -82 35t-35 84q0 47 35 82t82 35t82 -35t35 -82q0 -49 -35 -84t-82 -35zM86 123l637 754h-623v147h856v-117l-637 -760h654v-147h-887v123z" glyph-name="zdotaccent" horiz-adv-x="1058" unicode="ż"/><glyph d="M586 1698l-207 350h137l164 -260l164 260h137l-209 -350h-186zM1251 162v-162h-1163v94l889 1282h-866v160h1114v-94l-889 -1280h915z" glyph-name="Zcaron" horiz-adv-x="1343" unicode="Ž"/><glyph d="M248 1536h137l164 -260l164 260h137l-209 -350h-186zM86 123l637 754h-623v147h856v-117l-637 -760h654v-147h-887v123z" glyph-name="zcaron" horiz-adv-x="1058" unicode="ž"/><glyph d="M727 1427q-76 0 -132 -51t-71 -135l-35 -217h287l-20 -135h-289l-221 -1401h-160l221 1401h-170l21 135h172l37 240q20 125 120.5 208.5t227.5 83.5q88 0 131 -34l-15 -131q-41 36 -104 36z" glyph-name="florin" horiz-adv-x="886" unicode="ƒ"/><glyph d="M659 1698l-206 350h137l164 -260l164 260h137l-209 -350h-187zM1133 379h-738l-147 -379h-199l617 1536h202l617 -1536h-197zM1079 539l-313 811l-313 -811h626z" glyph-name="uni01CD" horiz-adv-x="1507" unicode="Ǎ"/><glyph d="M420 1186l-207 350h137l164 -260l164 260h137l-209 -350h-186zM434 -10q-164 0 -268.5 91t-104.5 236q0 154 115 250.5t348 112.5l275 18v37q0 125 -72 188.5t-199 63.5q-113 0 -186.5 -62.5t-85.5 -164.5h-170q16 160 130 270.5t321 110.5q203 0 319.5 -107.5 t116.5 -302.5q0 -82 1 -182t1 -170v-78q0 -86 19.5 -121t64.5 -33v-147q-23 0 -64 4q-152 25 -182 156q-45 -72 -150.5 -121t-228.5 -49zM461 141q125 0 226 74t112 170v172l-258 -20q-303 -25 -303 -215q0 -82 67.5 -131.5t155.5 -49.5z" glyph-name="uni01CE" horiz-adv-x="1110" unicode="ǎ"/><glyph d="M-59 2048h139l164 -260l164 260h137l-209 -350h-186zM154 1536h182v-1536h-182v1536z" glyph-name="uni01CF" horiz-adv-x="489" unicode="Ǐ"/><glyph d="M-61 1536h139l164 -260l164 260h137l-209 -350h-187zM154 1024h176v-1024h-176v1024z" glyph-name="uni01D0" horiz-adv-x="483" unicode="ǐ"/><glyph d="M551 2048h137l164 -260l164 260h137l-209 -350h-186zM850 -20q-326 0 -538 228t-212 560t212 560t538 228t537.5 -228t211.5 -560t-211.5 -560t-537.5 -228zM850 154q256 0 415.5 176t159.5 438t-159.5 439t-415.5 177q-254 0 -416 -177t-162 -439q0 -260 162 -437 t416 -177z" glyph-name="uni01D1" horiz-adv-x="1699" unicode="Ǒ"/><glyph d="M283 1536h137l164 -260l164 260h137l-209 -350h-187zM584 -20q-221 0 -362.5 153.5t-141.5 378.5t141 378.5t363 153.5q219 0 361 -153.5t142 -378.5t-142 -378.5t-361 -153.5zM583.5 135q147.5 0 238.5 108.5t91 268.5q0 162 -91 269.5t-238.5 107.5t-239.5 -107.5 t-92 -269.5q0 -160 92 -268.5t239.5 -108.5z" glyph-name="uni01D2" horiz-adv-x="1167" unicode="ǒ"/><glyph d="M442 2048h138l163 -260l164 260h137l-208 -350h-187zM741.5 -20q-243.5 0 -412.5 152.5t-169 371.5v1032h182v-1004q0 -162 116.5 -276.5t282.5 -114.5q168 0 286 114t118 277v1004h180v-1032q0 -219 -170 -371.5t-413.5 -152.5z" glyph-name="uni01D3" horiz-adv-x="1484" unicode="Ǔ"/><glyph d="M514 1186l-207 350h137l164 -260l164 260h137l-209 -350h-186zM1096 1126v-1126h-168l-19 170q-59 -82 -162.5 -132t-214.5 -50q-184 0 -301.5 118.5t-117.5 303.5v716h192v-694q0 -123 75 -198.5t198 -75.5q131 0 229 77.5t98 196.5v694h191z" glyph-name="uni01D4" horiz-adv-x="1210" unicode="ǔ"/><glyph d="M766 1698l-209 350h137l166 -260l162 260h137l-207 -350h-186zM1436 784v-166v-618h-121l-37 244q-82 -131 -203 -192.5t-313 -61.5q-324 0 -517.5 225t-193.5 549q0 348 195.5 568t509.5 220q258 0 435 -128t212 -361h-174q-41 156 -170 238.5t-291 82.5 q-252 0 -400.5 -170t-148.5 -450q0 -270 156.5 -439t384.5 -169q246 0 373 128t127 343h-420v157h596z" glyph-name="Gcaron" horiz-adv-x="1507" unicode="Ǧ"/><glyph d="M498 1186l-207 350h137l164 -260l164 260h137l-209 -350h-186zM549 -498q-217 -2 -357.5 89.5t-146.5 238.5q-4 78 35 150.5t115 111.5q-125 78 -125 174q0 63 35.5 107.5t105.5 89.5q-113 109 -113 282q0 164 121 277t307 113q150 0 258 -70q25 63 94.5 101t141.5 34 v-145q-45 4 -83 -16.5t-52 -61.5q84 -109 84 -238q0 -176 -122 -285.5t-317 -111.5q-147 -4 -225 49q-39 -14 -57.5 -45t-7.5 -63q31 -90 182 -93l225 -2q358 -6 397 -262q25 -178 -108 -300t-387 -124zM791 741q0 102 -75 169t-190 67q-111 0 -184.5 -67.5t-73.5 -170.5 q0 -100 74 -168.5t184 -68.5q117 0 191 67.5t74 171.5zM870 -90q-12 72 -83.5 101.5t-206.5 29.5h-224q-66 -16 -100.5 -67.5t-34.5 -114.5q0 -92 92.5 -146.5t218.5 -54.5q176 0 266 70.5t72 181.5z" glyph-name="gcaron" horiz-adv-x="1228" unicode="ǧ"/><glyph d="M928 1733h-144l185 315h180zM1329 1384q127 -111 198.5 -271.5t71.5 -344.5q0 -332 -211.5 -560t-537.5 -228q-215 0 -391 110l-80 -119h-125l121 181q-129 109 -202 269.5t-73 346.5q0 332 212 560t538 228q221 0 397 -112l80 119h123zM272 768q0 -297 199 -473 l680 1005q-135 84 -301 84q-254 0 -416 -177t-162 -439zM850 154q256 0 415.5 176t159.5 438q0 295 -192 471l-678 -1006q131 -79 295 -79z" glyph-name="Oslashacute" horiz-adv-x="1699" unicode="Ǿ"/><glyph d="M659 1221h-143l184 315h181zM909 928q178 -158 178 -416q0 -225 -142 -378.5t-361 -153.5q-150 0 -265 73l-77 -116h-90l108 159q-180 154 -180 416q0 225 141 378.5t363 153.5q145 0 264 -73l80 114h88zM252 512q0 -170 100 -276l406 600q-76 53 -174 53 q-147 0 -239.5 -107.5t-92.5 -269.5zM584 135q147 0 238 108.5t91 268.5q0 166 -98 276l-405 -602q74 -51 174 -51z" glyph-name="oslashacute" horiz-adv-x="1167" unicode="ǿ"/><glyph d="M612 -20q-233 0 -384.5 131t-170.5 325h179q20 -119 115 -201.5t265 -82.5q162 0 263.5 68.5t103.5 199.5q0 29 -7 55.5t-16.5 46t-31 41l-34.5 34.5t-46 31.5t-48.5 27t-56.5 24.5t-56 21.5t-61 21.5t-59 20q-88 31 -137 50.5t-120.5 57.5t-109.5 76t-67 97t-29 131 q0 188 153 294.5t359 106.5q242 0 374 -111.5t167 -309.5h-164q-14 109 -112.5 187.5t-262.5 78.5q-129 0 -228 -61.5t-99 -174.5q0 -43 21.5 -79.5t45 -60.5t80 -53.5t86 -41.5t101.5 -39q25 -10 37 -14q18 -6 74.5 -28t80 -32t73.5 -31.5t74.5 -38t63.5 -43t58.5 -54 t41 -61.5t30.5 -75t9 -88q0 -209 -162 -327.5t-393 -118.5zM627 -381q-78 29 -78 111q0 47 33.5 81.5t83.5 34.5q47 0 79.5 -33.5t32.5 -82.5q0 -96 -127 -262h-76z" glyph-name="Scommaaccent" horiz-adv-x="1286" unicode="Ș"/><glyph d="M506 -18q-209 0 -323.5 108.5t-125.5 241.5h166q12 -80 94 -143.5t186.5 -61.5t170 55.5t65.5 136.5q0 86 -73.5 130.5t-210.5 68.5q-164 33 -262.5 98.5t-98.5 202.5q0 147 118 235.5t286 88.5q176 0 285.5 -82t125.5 -238h-161q-16 86 -86 126t-144 44 q-94 4 -161.5 -34.5t-67.5 -116.5q0 -82 68.5 -119t201.5 -61q373 -72 373 -330q0 -152 -121 -251t-305 -99zM463 -375q-78 29 -78 111q0 47 34 82t83 35q47 0 79.5 -34t32.5 -83q0 -96 -127 -262h-75z" glyph-name="scommaaccent" horiz-adv-x="974" unicode="ș"/><glyph d="M1122 1376h-463v-1374h-178v1374h-463v162h1104v-162zM580 -369q-78 27 -78 111q0 49 33.5 83t82.5 34q47 0 80 -34t33 -83q0 -55 -48 -139t-81 -123h-74z" glyph-name="uni021A" horiz-adv-x="1087" unicode="Ț"/><glyph d="M559 -2q-162 0 -250 65.5t-88 241.5v676h-176v149h176v406h182v-406h267v-151l-271 2v-655q0 -84 32 -125t128 -41h123v-162h-123zM379 -371q-78 31 -78 113q0 49 34 83t83 34q47 0 79.5 -35t32.5 -82q0 -55 -49 -142t-80 -120h-73z" glyph-name="uni021B" horiz-adv-x="692" unicode="ț"/><glyph d="M1055 1376h-768v-526h682v-162h-682v-526h768v-162h-432l-66 -139q106 23 181 -31.5t75 -153.5q0 -88 -60.5 -148t-148.5 -60q-70 0 -137.5 37.5t-97.5 91.5l82 34q23 -33 67.5 -54t85.5 -21q51 0 85 34.5t34 85.5q0 72 -60.5 99.5t-146.5 -4.5l-74 49l90 180h-428v1536 h951v-160z" glyph-name="uni0228" horiz-adv-x="1107" unicode="Ȩ"/><glyph d="M1087 569q0 -18 -4 -67h-843q6 -168 106 -263.5t229 -97.5q123 -2 204 51.5t110 143.5h162q-12 -76 -55.5 -146.5t-141.5 -131t-231 -68.5q-2 -2 -7 -10l-59 -119q106 20 182 -34t76 -151q0 -88 -61.5 -148t-149.5 -60q-68 0 -136.5 36.5t-96.5 89.5l80 37 q25 -33 68.5 -54t84.5 -21q51 0 85 34.5t34 85.5q0 72 -59.5 99.5t-147.5 -4.5l-74 49l82 162q-12 8 -16 14q-205 27 -327 184.5t-122 380.5q0 250 140.5 412t382.5 162q231 0 368 -156t137 -410zM244 643h667q-16 154 -101 245t-228 91q-145 0 -232.5 -91t-105.5 -245z" glyph-name="uni0229" horiz-adv-x="1124" unicode="ȩ"/><glyph d="M86 -532q-86 0 -133 32v154q49 -39 114.5 -39t109.5 46t44 116v1247h176v-1257q0 -125 -91 -212t-220 -87z" glyph-name="uni0237" horiz-adv-x="583" unicode="ȷ"/><glyph d="M266 1536h187l209 -350h-144l-158 266l-157 -266h-144z" glyph-name="circumflex" horiz-adv-x="94" unicode="ˆ"/><glyph d="M59 1536h138l163 -260l164 260h138l-209 -350h-187z" glyph-name="caron" horiz-adv-x="94" unicode="ˇ"/><glyph d="M590 1159q-150 0 -244 86t-94 232h108q0 -86 66 -147.5t164 -61.5q100 0 167.5 61.5t67.5 147.5h107q0 -145 -95 -231.5t-247 -86.5z" glyph-name="breve" horiz-adv-x="94" unicode="˘"/><glyph d="M299 1208q-47 0 -82 35t-35 84q0 47 35 82t82 35t83 -35t36 -82q0 -49 -36 -84t-83 -35z" glyph-name="dotaccent" horiz-adv-x="94" unicode="˙"/><glyph d="M182 1145q-88 0 -150.5 61.5t-62.5 145.5q0 86 62.5 147.5t150.5 61.5q84 0 144.5 -61.5t60.5 -147.5q0 -84 -60.5 -145.5t-144.5 -61.5zM182 1227q51 0 87 35.5t36 89t-36 91.5t-87 38q-53 0 -90 -38t-37 -91.5t37 -89t90 -35.5z" glyph-name="ring" horiz-adv-x="94" unicode="˚"/><glyph d="M266 -532q-104 4 -167.5 61t-63.5 154q0 209 299 346l92 -29q-104 -29 -186 -117t-82 -184q0 -59 35.5 -97t99.5 -38q117 0 194 94l60 -84q-117 -112 -281 -106z" glyph-name="ogonek" horiz-adv-x="94" unicode="˛"/><glyph d="M543 1264q-119 0 -191 112q-39 59 -94 60q-47 0 -71.5 -43t-12.5 -111h-111q-16 115 39.5 188.5t151.5 73.5q117 0 190 -110q35 -61 95 -62q47 0 71.5 43t12.5 109h110q16 -113 -38 -186.5t-152 -73.5z" glyph-name="tilde" horiz-adv-x="98" unicode="˜"/><glyph d="M360 1536h170l-340 -356h-131zM707 1536h170l-338 -356h-133z" glyph-name="hungarumlaut" horiz-adv-x="94" unicode="˝"/><glyph d="M-424 1536h180l185 -315h-142z" glyph-name="gravecomb" unicode="̀"/><glyph d="M-240 1536h181l-224 -315h-141z" glyph-name="acutecomb" unicode="́"/><glyph d="M-455 1536h187l209 -350h-144l-157 266l-158 -266h-144z" glyph-name="uni0302" unicode="̂"/><glyph d="M-256 1264q-117 0 -190 112q-35 59 -93 60q-49 0 -73.5 -43t-12.5 -111h-110q-14 115 41 188.5t149 73.5q121 0 191 -110q35 -61 96 -62q47 0 70.5 43t13.5 109h108q16 -113 -38 -186.5t-152 -73.5z" glyph-name="tildecomb" unicode="̃"/><glyph d="M-692 1350h635v-119h-635v119z" glyph-name="uni0304" unicode="̄"/><glyph d="M-692 1159q-150 0 -244 86t-94 232h108q0 -86 65.5 -147.5t164.5 -61.5q100 0 167.5 61.5t67.5 147.5h107q0 -145 -95 -231.5t-247 -86.5z" glyph-name="uni0306" unicode="̆"/><glyph d="M-299 1208q-47 0 -82 35t-35 84q0 47 35 82t82 35t83 -35t36 -82q0 -49 -36 -84t-83 -35z" glyph-name="uni0307" unicode="̇"/><glyph d="M-621 1208q-49 0 -82.5 35t-33.5 84q0 47 33.5 82t82.5 35q47 0 82 -35t35 -82q0 -49 -35 -84t-82 -35zM-240 1208q-49 0 -83.5 35t-34.5 84q0 47 34.5 82t83.5 35q47 0 81 -35t34 -82q0 -49 -34 -84t-81 -35z" glyph-name="uni0308" unicode="̈"/><glyph d="M-178 1145q-86 0 -148.5 61.5t-62.5 145.5q0 86 62.5 147.5t148.5 61.5q84 0 145.5 -61.5t61.5 -147.5q0 -84 -61.5 -145.5t-145.5 -61.5zM-178 1227q53 0 89 35.5t36 89t-37 91.5t-88 38t-88 -38t-37 -91.5t36 -89t89 -35.5z" glyph-name="uni030A" unicode="̊"/><glyph d="M-578 1536h172l-339 -356h-132zM-229 1536h170l-338 -356h-133z" glyph-name="uni030B" unicode="̋"/><glyph d="M-662 1536h138l164 -260l163 260h138l-209 -350h-187z" glyph-name="uni030C" unicode="̌"/><glyph d="M-227 1370q78 -27 77 -110q0 -49 -33.5 -83t-82.5 -34q-47 0 -80 33.5t-33 83.5q0 55 48 139t81 123h74z" glyph-name="uni0312" unicode="̒"/><glyph d="M-176 -512q-47 0 -82 35t-35 82t35 81.5t82 34.5t83 -34.5t36 -81.5t-36 -82t-83 -35z" glyph-name="dotbelowcomb" unicode="̣"/><glyph d="M-211 -2q-78 31 -78 113q0 49 34 82.5t83 33.5q47 0 80 -33.5t33 -82.5q0 -55 -49.5 -142.5t-79.5 -120.5h-74z" glyph-name="uni0326" unicode="̦"/><glyph d="M-266 -532q-70 0 -138.5 37.5t-97.5 91.5l82 34q23 -33 68 -54t86 -21q51 0 83.5 34.5t32.5 85.5q0 72 -59 99.5t-145 -4.5l-76 49l90 180h92l-67 -139q106 20 182 -33t76 -152q0 -88 -60.5 -148t-148.5 -60z" glyph-name="uni0327" unicode="̧"/><glyph d="M-338 -532q-104 4 -166.5 61t-62.5 154q0 106 80.5 195t218.5 151l90 -29q-104 -29 -186 -117t-82 -184q0 -59 35.5 -97t101.5 -38q119 0 192 94l60 -84q-113 -112 -281 -106z" glyph-name="uni0328" unicode="̨"/><glyph d="M-952 592h606v-117h-606v117z" glyph-name="uni0335" unicode="̵"/><glyph d="M-1526 573h1467v-79h-1467v79z" glyph-name="uni0336" unicode="̶"/><glyph d="M-362 795h133l-523 -547h-122z" glyph-name="uni0337" unicode="̷"/><glyph d="M-164 1565h125l-1073 -1592h-125z" glyph-name="uni0338" unicode="̸"/><glyph d="M72 111l635 1443h202l625 -1441v-113h-1462v111zM1350 143l-369 836q-14 37 -54 131t-72 171t-44 118h-23q-8 -29 -35.5 -96.5t-64.5 -153.5t-53 -129l-387 -877h1102z" glyph-name="Delta" horiz-adv-x="1605" unicode="Δ"/><glyph d="M1274 0l-520 1331l-521 -1331h-196l616 1536h201l616 -1536h-196z" glyph-name="Lambda" horiz-adv-x="1507" unicode="Λ"/><glyph d="M145 1536h879v-160h-879v160zM250 850h672v-162h-672v162zM145 162h879v-162h-879v162z" glyph-name="Xi" horiz-adv-x="1208" unicode="Ξ"/><glyph d="M121 131h344v14q-131 102 -221 276.5t-90 381.5q0 315 215 526t542 211q330 0 538 -217t208 -514q0 -209 -92 -388t-222 -276v-14h349v-131h-598v96q164 84 277.5 265.5t113.5 420.5q0 156 -63.5 296.5t-197.5 235.5t-311 95q-260 0 -423.5 -182.5t-163.5 -448.5 q0 -233 115.5 -417.5t275.5 -264.5v-96h-596v131z" glyph-name="Omega" horiz-adv-x="1812" unicode="Ω"/><glyph d="M905 1126h191v-1126h-168l-19 170q-59 -82 -162.5 -132t-214.5 -50q-133 0 -237 65v-565h-133v711q-49 98 -49 211v716h192v-694q0 -123 75 -198.5t198 -75.5q131 0 229 77.5t98 196.5v694z" glyph-name="mu" horiz-adv-x="1257" unicode="μ"/><glyph d="M152 0q66 170 118 459t62 526q-197 0 -293 -31q4 12 10 33q31 100 54.5 116.5t134.5 12.5q78 -2 129 -2h995l-14 -129h-207v-651q0 -225 35 -334h-164q-37 61 -37 313v672h-477q-12 -229 -65.5 -536.5t-117.5 -448.5h-163z" glyph-name="pi" horiz-adv-x="1406" unicode="π"/><glyph d="M889 805q139 -31 225 -139.5t86 -257.5q0 -178 -122 -293t-302 -115h-692v1536h604q182 0 305 -113.5t123 -292.5q0 -127 -62.5 -213.5t-164.5 -111.5zM934 1110q0 111 -78 188.5t-186 77.5h-406v-512h406q113 0 188.5 68.5t75.5 177.5zM754 162q111 0 187.5 77.5 t76.5 188.5t-78 199t-186 88h-490v-553h490zM637 -141q47 0 82 -35t35 -82t-35 -82t-82 -35q-49 0 -84 35t-35 82t35 82t84 35z" glyph-name="uni1E04" horiz-adv-x="1323" unicode="Ḅ"/><glyph d="M678 1137q229 0 373.5 -166t144.5 -412t-143.5 -409.5t-370.5 -163.5q-250 0 -389 196l-21 -182h-157v1536h188v-588q139 189 375 189zM651 150q162 0 260.5 117.5t98.5 291.5q0 176 -98.5 294t-260.5 118q-129 0 -223 -85t-125 -218v-215q31 -135 125 -219t223 -84z M637 -141q47 0 82 -35t35 -82t-35 -82t-82 -35q-49 0 -84 35t-35 82t35 82t84 35z" glyph-name="uni1E05" horiz-adv-x="1226" unicode="ḅ"/><glyph d="M1339 1536v-1536h-180v688h-823v-688h-182v1536h182v-686h823v686h180zM754 -141q47 0 81.5 -35t34.5 -82t-34.5 -82t-81.5 -35q-49 0 -83 35t-34 82t34 82t83 35z" glyph-name="uni1E24" horiz-adv-x="1492" unicode="Ḥ"/><glyph d="M698 1139q186 0 299 -112t113 -298v-729h-192v707q0 121 -73 191.5t-198 70.5q-131 0 -229.5 -77t-98.5 -194v-698h-190v1534h190v-567q61 78 163.5 125t215.5 47zM592 -141q47 0 83 -35t36 -82t-36 -82t-83 -35t-82 35t-35 82t35 82t82 35z" glyph-name="uni1E25" horiz-adv-x="1204" unicode="ḥ"/><glyph d="M154 1536h182v-1374h563v-162h-745v1536zM528 -375q-49 0 -82.5 35t-33.5 82t33.5 82t82.5 35q47 0 82 -35t35 -82t-35 -82t-82 -35z" glyph-name="uni1E36" horiz-adv-x="952" unicode="Ḷ"/><glyph d="M180 0v1536h178v-1536h-178zM281 -375q-49 0 -84 35t-35 82t34.5 82t84.5 35q47 0 81.5 -35t34.5 -82t-34.5 -82t-81.5 -35z" glyph-name="uni1E37" horiz-adv-x="655" unicode="ḷ"/><glyph d="M793 1720q-49 0 -83 35t-34 84q0 47 33.5 82t83.5 35q47 0 81.5 -35t34.5 -82q0 -49 -34.5 -84t-81.5 -35zM1436 1536v-1536h-172l-928 1245v-1245h-182v1536h172l929 -1243v1243h181z" glyph-name="uni1E44" horiz-adv-x="1589" unicode="Ṅ"/><glyph d="M606 1208q-49 0 -83 35t-34 84q0 47 34 82t83 35q47 0 82 -35t35 -82q0 -49 -35 -84t-82 -35zM684 1139q184 0 295 -112t111 -300v-727h-189v709q0 119 -72.5 190.5t-193.5 71.5q-131 0 -227.5 -77t-96.5 -194v-700h-188v1126h164l18 -168q59 82 162.5 131.5t216.5 49.5z " glyph-name="uni1E45" horiz-adv-x="1204" unicode="ṅ"/><glyph d="M1436 1536v-1536h-172l-928 1245v-1245h-182v1536h172l929 -1243v1243h181zM801 -141q47 0 82 -35t35 -82t-35 -82t-82 -35t-82 35t-35 82t35 82t82 35z" glyph-name="uni1E46" horiz-adv-x="1589" unicode="Ṇ"/><glyph d="M684 1139q184 0 295 -112t111 -300v-727h-189v709q0 119 -72.5 190.5t-193.5 71.5q-131 0 -227.5 -77t-96.5 -194v-700h-188v1126h164l18 -168q59 82 162.5 131.5t216.5 49.5zM606 -141q47 0 82 -35t35 -82t-35 -82t-82 -35q-49 0 -83 35t-34 82t34 82t83 35z" glyph-name="uni1E47" horiz-adv-x="1204" unicode="ṇ"/><glyph d="M612 -20q-233 0 -384.5 131t-170.5 325h179q20 -119 115 -201.5t265 -82.5q162 0 263.5 68.5t103.5 199.5q0 29 -7 55.5t-16.5 46t-31 41l-34.5 34.5t-46 31.5t-48.5 27t-56.5 24.5t-56 21.5t-61 21.5t-59 20q-88 31 -137 50.5t-120.5 57.5t-109.5 76t-67 97t-29 131 q0 188 153 294.5t359 106.5q242 0 374 -111.5t167 -309.5h-164q-14 109 -112.5 187.5t-262.5 78.5q-129 0 -228 -61.5t-99 -174.5q0 -43 21.5 -79.5t45 -60.5t80 -53.5t86 -41.5t101.5 -39q25 -10 37 -14q18 -6 74.5 -28t80 -32t73.5 -31.5t74.5 -38t63.5 -43t58.5 -54 t41 -61.5t30.5 -75t9 -88q0 -209 -162 -327.5t-393 -118.5zM688 -373q-47 0 -82 34t-35 83q0 47 35 82t82 35t83 -35t36 -82q0 -49 -35 -83t-84 -34z" glyph-name="uni1E62" horiz-adv-x="1286" unicode="Ṣ"/><glyph d="M506 -18q-209 0 -323.5 108.5t-125.5 241.5h166q12 -80 94 -143.5t186.5 -61.5t170 55.5t65.5 136.5q0 86 -73.5 130.5t-210.5 68.5q-164 33 -262.5 98.5t-98.5 202.5q0 147 118 235.5t286 88.5q176 0 285.5 -82t125.5 -238h-161q-16 86 -86 126t-144 44 q-94 4 -161.5 -34.5t-67.5 -116.5q0 -82 68.5 -119t201.5 -61q373 -72 373 -330q0 -152 -121 -251t-305 -99zM506 -375q-47 0 -82 35t-35 82t35 82t82 35t83 -35t36 -82t-36 -82t-83 -35z" glyph-name="uni1E63" horiz-adv-x="974" unicode="ṣ"/><glyph d="M1122 1376h-463v-1374h-178v1374h-463v162h1104v-162zM614.5 -141q47.5 0 83 -35t35.5 -82t-35.5 -82t-83 -35t-82 35t-34.5 82t34.5 82t82 35z" glyph-name="uni1E6C" horiz-adv-x="1087" unicode="Ṭ"/><glyph d="M559 -2q-162 0 -250 65.5t-88 241.5v676h-176v149h176v406h182v-406h267v-151l-271 2v-655q0 -84 32 -125t128 -41h123v-162h-123zM418 -141q47 0 82 -35t35 -82t-35 -82t-82 -35t-82 35t-35 82t35 82t82 35z" glyph-name="uni1E6D" horiz-adv-x="692" unicode="ṭ"/><glyph d="M1024 1733l-221 315h180l184 -315h-143zM2083 1536l-469 -1536h-211l-342 1204l-338 -1204h-211l-481 1536h194l391 -1327l357 1327h184l352 -1329l379 1329h195z" glyph-name="Wgrave" horiz-adv-x="2205" unicode="Ẁ"/><glyph d="M670 1221l-221 315h180l184 -315h-143zM1630 1118l-342 -1118h-215l-225 827l-223 -827h-213l-344 1118h215l245 -891l234 891h184l232 -895l241 895h211z" glyph-name="wgrave" horiz-adv-x="1480" unicode="ẁ"/><glyph d="M1180 1733h-142l183 315h182zM2083 1536l-469 -1536h-211l-342 1204l-338 -1204h-211l-481 1536h194l391 -1327l357 1327h184l352 -1329l379 1329h195z" glyph-name="Wacute" horiz-adv-x="2205" unicode="Ẃ"/><glyph d="M844 1221h-142l185 315h180zM1630 1118l-342 -1118h-215l-225 827l-223 -827h-213l-344 1118h215l245 -891l234 891h184l232 -895l241 895h211z" glyph-name="wacute" horiz-adv-x="1480" unicode="ẃ"/><glyph d="M913.5 1720q-47.5 0 -82 35t-34.5 84q0 47 34.5 82t82 35t82 -35t34.5 -82q0 -49 -34.5 -84t-82 -35zM1294 1720q-47 0 -81.5 35t-34.5 84q0 47 34.5 82t81.5 35t81 -35t34 -82q0 -49 -34 -84t-81 -35zM2083 1536l-469 -1536h-211l-342 1204l-338 -1204h-211l-481 1536 h194l391 -1327l357 1327h184l352 -1329l379 1329h195z" glyph-name="Wdieresis" horiz-adv-x="2205" unicode="Ẅ"/><glyph d="M579.5 1208q-47.5 0 -82 35t-34.5 84q0 47 34.5 82t82 35t82 -35t34.5 -82q0 -49 -34.5 -84t-82 -35zM960.5 1208q-47.5 0 -82 35t-34.5 84q0 47 34.5 82t82 35t81 -35t33.5 -82q0 -49 -33.5 -84t-81 -35zM1630 1118l-342 -1118h-215l-225 827l-223 -827h-213l-344 1118 h215l245 -891l234 891h184l232 -895l241 895h211z" glyph-name="wdieresis" horiz-adv-x="1480" unicode="ẅ"/><glyph d="M1251 162v-162h-1163v94l889 1282h-866v160h1114v-94l-889 -1280h915zM666 -141q47 0 81.5 -35t34.5 -82t-34.5 -82t-81.5 -35q-49 0 -83 35t-34 82t34 82t83 35z" glyph-name="uni1E92" horiz-adv-x="1343" unicode="Ẓ"/><glyph d="M86 123l637 754h-623v147h856v-117l-637 -760h654v-147h-887v123zM530.5 -375q-47.5 0 -82 35t-34.5 82t34.5 82t82 35t82 -35t34.5 -82t-34.5 -82t-82 -35z" glyph-name="uni1E93" horiz-adv-x="1058" unicode="ẓ"/><glyph d="M1133 379h-738l-147 -379h-199l617 1536h202l617 -1536h-197zM1079 539l-313 811l-313 -811h626zM756 -141q47 0 81.5 -35t34.5 -82t-34.5 -82t-81.5 -35q-49 0 -84 35t-35 82t35 82t84 35z" glyph-name="uni1EA0" horiz-adv-x="1507" unicode="Ạ"/><glyph d="M434 -10q-164 0 -268.5 91t-104.5 236q0 154 115 250.5t348 112.5l275 18v37q0 125 -72 188.5t-199 63.5q-113 0 -186.5 -62.5t-85.5 -164.5h-170q16 160 130 270.5t321 110.5q203 0 319.5 -107.5t116.5 -302.5q0 -82 1 -182t1 -170v-78q0 -86 19.5 -121t64.5 -33v-147 q-23 0 -64 4q-152 25 -182 156q-45 -72 -150.5 -121t-228.5 -49zM461 141q125 0 226 74t112 170v172l-258 -20q-303 -25 -303 -215q0 -82 67.5 -131.5t155.5 -49.5zM528 -141q47 0 82 -35t35 -82t-35 -82t-82 -35q-49 0 -83.5 35t-34.5 82t34.5 82t83.5 35z" glyph-name="uni1EA1" horiz-adv-x="1110" unicode="ạ"/><glyph d="M287 1376v-526h682v-162h-682v-526h768v-162h-951v1536h951v-160h-768zM577.5 -141q47.5 0 83 -35t35.5 -82t-35.5 -82t-83 -35t-82 35t-34.5 82t34.5 82t82 35z" glyph-name="uni1EB8" horiz-adv-x="1107" unicode="Ẹ"/><glyph d="M1087 569q0 -18 -4 -67h-843q6 -168 106 -263.5t229 -97.5q123 -2 204 51.5t110 143.5h162q-8 -57 -38 -113.5t-83 -112t-143.5 -88t-202.5 -32.5q-236 2 -380.5 164.5t-144.5 406.5q0 250 140.5 412t382.5 162q231 0 368 -156t137 -410zM582 979q-145 0 -232.5 -91 t-105.5 -245h667q-16 154 -101 245t-228 91zM580 -141q47 0 81.5 -35t34.5 -82t-34.5 -82t-81.5 -35q-49 0 -83 35t-34 82t34 82t83 35z" glyph-name="uni1EB9" horiz-adv-x="1124" unicode="ẹ"/><glyph d="M244 1733q-16 115 39 188.5t151 73.5q117 0 191 -111q35 -61 94 -61q47 0 71.5 43t12.5 108h110q16 -113 -38 -186.5t-152 -73.5q-119 0 -191 113q-39 59 -94 59q-47 0 -71.5 -43t-12.5 -110h-110zM287 1376v-526h682v-162h-682v-526h768v-162h-951v1536h951v-160h-768z " glyph-name="uni1EBC" horiz-adv-x="1107" unicode="Ẽ"/><glyph d="M240 1229q-14 115 41 188.5t149 73.5q121 0 191 -111q35 -61 94 -61q47 0 71.5 42t14.5 109h108q16 -113 -38 -186.5t-152 -73.5q-117 0 -191 111q-35 61 -94 61q-47 0 -71.5 -43t-12.5 -110h-110zM1087 569q0 -18 -4 -67h-843q6 -168 106 -263.5t229 -97.5 q123 -2 204 51.5t110 143.5h162q-8 -57 -38 -113.5t-83 -112t-143.5 -88t-202.5 -32.5q-236 2 -380.5 164.5t-144.5 406.5q0 250 140.5 412t382.5 162q231 0 368 -156t137 -410zM582 979q-145 0 -232.5 -91t-105.5 -245h667q-16 154 -101 245t-228 91z" glyph-name="uni1EBD" horiz-adv-x="1124" unicode="ẽ"/><glyph d="M154 1536h182v-1536h-182v1536zM244 -375q-47 0 -82 35t-35 82t35 82t82 35t82.5 -35t35.5 -82t-35.5 -82t-82.5 -35z" glyph-name="uni1ECA" horiz-adv-x="489" unicode="Ị"/><glyph d="M274 1214q-47 0 -81.5 35t-34.5 82q0 49 34.5 83t81.5 34q49 0 84 -34t35 -83q0 -47 -35 -82t-84 -35zM186 1024h176v-1024h-176v1024zM287 -401q-49 0 -84 33.5t-35 82.5q0 47 35 82t84 35q47 0 81.5 -35t34.5 -82q0 -49 -34.5 -82.5t-81.5 -33.5z" glyph-name="uni1ECB" horiz-adv-x="550" unicode="ị"/><glyph d="M850 -20q-326 0 -538 228t-212 560t212 560t538 228t537.5 -228t211.5 -560t-211.5 -560t-537.5 -228zM850 154q256 0 415.5 176t159.5 438t-159.5 439t-415.5 177q-254 0 -416 -177t-162 -439q0 -260 162 -437t416 -177zM852 -375q-47 0 -82 35t-35 82t35 82t82 35 t82 -35t35 -82t-35 -82t-82 -35z" glyph-name="uni1ECC" horiz-adv-x="1699" unicode="Ọ"/><glyph d="M584 -20q-221 0 -362.5 153.5t-141.5 378.5t141 378.5t363 153.5q219 0 361 -153.5t142 -378.5t-142 -378.5t-361 -153.5zM583.5 135q147.5 0 238.5 108.5t91 268.5q0 162 -91 269.5t-238.5 107.5t-239.5 -107.5t-92 -269.5q0 -160 92 -268.5t239.5 -108.5zM584 -375 q-47 0 -82 35t-35 82t35 82t82 35t82.5 -35t35.5 -82t-35.5 -82t-82.5 -35z" glyph-name="uni1ECD" horiz-adv-x="1167" unicode="ọ"/><glyph d="M741.5 -20q-243.5 0 -412.5 152.5t-169 371.5v1032h182v-1004q0 -162 116.5 -276.5t282.5 -114.5q168 0 286 114t118 277v1004h180v-1032q0 -219 -170 -371.5t-413.5 -152.5zM743.5 -375q-47.5 0 -82 35t-34.5 82t34.5 82t82 35t82 -35t34.5 -82t-34.5 -82t-82 -35z" glyph-name="uni1EE4" horiz-adv-x="1484" unicode="Ụ"/><glyph d="M586 1733l-224 315h183l182 -315h-141zM754 729v-729h-181v725l-536 811h203l422 -653l425 653h201z" glyph-name="Ygrave" horiz-adv-x="1325" unicode="Ỳ"/><glyph d="M498 1221l-224 315h181l184 -315h-141zM1122 1126l-669 -1652h-177l244 594h-49l-442 1058h190l369 -880l344 880h190z" glyph-name="ygrave" horiz-adv-x="1212" unicode="ỳ"/><glyph d="M573 725l-536 811h203l422 -653l425 653h201l-534 -807v-729h-181v725zM666 -141q47 0 81.5 -35t34.5 -82t-34.5 -82t-81.5 -35q-49 0 -84 35t-35 82t35 82t84 35z" glyph-name="uni1EF4" horiz-adv-x="1325" unicode="Ỵ"/><glyph d="M330 1733q-14 115 41 188.5t149 73.5q121 0 191 -111q35 -61 94 -61q47 0 71.5 43t14.5 108h108q16 -113 -38 -186.5t-152 -73.5q-117 0 -191 113q-35 59 -94 59q-47 0 -71.5 -43t-12.5 -110h-110zM754 729v-729h-181v725l-536 811h203l422 -653l425 653h201z" glyph-name="uni1EF8" horiz-adv-x="1325" unicode="Ỹ"/><glyph d="M182 594h1024v-123h-1024v123z" glyph-name="endash" horiz-adv-x="1386" unicode="–"/><glyph d="M14 594h2050v-123h-2050v123z" glyph-name="emdash" horiz-adv-x="2076" unicode="—"/><glyph d="M145 1157q-47 0 -79.5 34t-32.5 83q0 55 48 139t81 123h74l-37 -160q63 -33 63 -102q0 -49 -34 -83t-83 -34z" glyph-name="quoteleft" horiz-adv-x="296" unicode="‘"/><glyph d="M113 1309q-80 29 -80 110q0 47 33.5 82t83 35t81 -34t31.5 -83q0 -96 -127 -262h-74z" glyph-name="quoteright" horiz-adv-x="296" unicode="’"/><glyph d="M113 -2q-80 31 -80 113q0 47 33.5 81.5t83 34.5t81 -33.5t31.5 -82.5q0 -55 -48 -139.5t-79 -123.5h-74z" glyph-name="quotesinglbase" horiz-adv-x="296" unicode="‚"/><glyph d="M145 1157q-47 0 -79.5 34t-32.5 83q0 55 48 139t81 123h74l-37 -160q63 -33 63 -102q0 -47 -34 -82t-83 -35zM463 1157q-47 0 -80 34t-33 83q0 96 127 262h76l-37 -160q63 -33 64 -102q0 -47 -34 -82t-83 -35z" glyph-name="quotedblleft" horiz-adv-x="614" unicode="“"/><glyph d="M98 1317q-66 31 -65 102q0 47 33.5 82t83 35t81 -34t31.5 -83q0 -96 -127 -262h-74zM414 1317q-63 31 -64 102q0 47 34 82t83 35t81 -34t32 -83q0 -96 -127 -262h-74z" glyph-name="quotedblright" horiz-adv-x="614" unicode="”"/><glyph d="M98 0q-66 31 -65 102q0 47 33.5 82t83 35t81 -33.5t31.5 -83.5q0 -55 -48 -139t-79 -123h-74zM414 0q-63 33 -64 102q0 47 34 82t83 35t81 -33.5t32 -83.5q0 -55 -48.5 -139t-78.5 -123h-74z" glyph-name="quotedblbase" horiz-adv-x="614" unicode="„"/><glyph d="M1090 854h-359v-1202h-119v1202h-348v117h348v401h119v-401h359v-117z" glyph-name="dagger" horiz-adv-x="1353" unicode="†"/><glyph d="M731 854v-672h359v-119h-359v-411h-119v411h-348v119h348v672h-348v117h348v401h119v-401h359v-117h-359z" glyph-name="daggerdbl" horiz-adv-x="1353" unicode="‡"/><glyph d="M479 412q-104 0 -180 73.5t-76 180.5q0 102 77 178t179.5 76t178 -76t75.5 -178q0 -106 -76 -180t-178 -74z" glyph-name="bullet" horiz-adv-x="954" unicode="•"/><glyph d="M268 -14q-47 0 -80.5 33.5t-33.5 80.5q0 49 33.5 84t80.5 35q49 0 83 -34.5t34 -84.5q0 -47 -34 -80.5t-83 -33.5zM780 -14q-47 0 -81.5 33.5t-34.5 80.5q0 49 34.5 84t81.5 35t82 -34.5t35 -84.5q0 -47 -35 -80.5t-82 -33.5zM1290 -14q-47 0 -80.5 33.5t-33.5 80.5 q0 49 33.5 84t80.5 35t82 -34.5t35 -84.5q0 -47 -35 -80.5t-82 -33.5z" glyph-name="ellipsis" horiz-adv-x="1548" unicode="…"/><glyph d="M393 909q-117 0 -198.5 95.5t-81.5 228.5t81.5 228t198.5 95t199 -95t82 -228t-82 -228.5t-199 -95.5zM1196 1536h182l-1050 -1536h-183zM393.5 1044q59.5 0 102.5 55.5t43 133.5t-43 133t-102.5 55t-101.5 -55t-42 -133t42 -133.5t101.5 -55.5zM1132.5 -20 q-116.5 0 -198.5 95t-82 230q0 133 82 228.5t198.5 95.5t198.5 -95.5t82 -228.5q0 -135 -82 -230t-198.5 -95zM1796 -20q-117 0 -198.5 95t-81.5 230q0 133 81.5 228.5t198.5 95.5t199 -95.5t82 -228.5q0 -135 -82 -230t-199 -95zM1132.5 117q59.5 0 101.5 54t42 134 q0 78 -42 132.5t-101.5 54.5t-102.5 -54.5t-43 -132.5q0 -80 43 -134t102.5 -54zM1796 117q59 0 101 54t42 134q0 78 -42 132.5t-101 54.5t-102 -54.5t-43 -132.5q0 -80 43 -134t102 -54z" glyph-name="perthousand" horiz-adv-x="2177" unicode="‰"/><glyph d="M102 571l312 377h147l-311 -377l311 -376h-147z" glyph-name="guilsinglleft" horiz-adv-x="702" unicode="‹"/><glyph d="M453 571l-312 377h148l311 -377l-311 -376h-148z" glyph-name="guilsinglright" horiz-adv-x="702" unicode="›"/><glyph d="M1032 1536h180l-1071 -1536h-182z" glyph-name="fraction" horiz-adv-x="1202" unicode="⁄"/><glyph d="M59 924h142q23 252 165 404.5t375 152.5q215 0 344 -120t148 -331h-141q-20 158 -108.5 241t-242.5 83q-172 0 -274 -115t-119 -315h506l-20 -109h-490v-164h457l-21 -112h-432q16 -203 117.5 -314.5t277.5 -111.5q160 0 253.5 91t113.5 261h141q-23 -227 -155.5 -355 t-352.5 -128q-233 0 -376.5 151.5t-165.5 405.5h-142v112h138v164h-138v109z" glyph-name="Euro" horiz-adv-x="1335" unicode="€"/><glyph d="M668 -12q-188 0 -292 112.5t-118 280.5v25q-20 -14 -67.5 -51.5t-73.5 -55.5l-56 102q14 10 87 65.5t108 86.5v594q0 281 110.5 407.5t270.5 126.5q152 0 231.5 -104t79.5 -258q0 -199 -133 -394.5t-387 -416.5l2 -59q2 -154 82 -236t193 -82q111 0 201.5 68.5 t146.5 165.5l84 -76q-168 -301 -469 -301zM428 674q186 182 287.5 335.5t101.5 301.5q0 244 -180 243q-82 0 -145.5 -92t-63.5 -291v-497z" glyph-name="afii61289" horiz-adv-x="1234" unicode="ℓ"/><glyph d="M37 1536h487v-82h-198v-637h-93v637h-196v82zM1378 1532v-717h-84v596l-241 -596h-70l-238 596v-596h-88v717h117l244 -610l246 610h114z" glyph-name="trademark" horiz-adv-x="1478" unicode="™"/><glyph d="M938 -18q-362 0 -618.5 230t-256.5 554q0 328 256 559t619 231q365 0 621 -231t256 -559v-21h-1418q-12 0 -12 -8v-430q0 -23 18 -49q227 -233 537 -233q166 0 313.5 69.5t251.5 192.5h125q-119 -141 -301 -223t-391 -82zM1485 788q8 0 8 15v430q0 33 -20 51 q-229 225 -532.5 225t-534.5 -231q-20 -25 -21 -53v-422q0 -14 12 -15h1088z" glyph-name="estimated" horiz-adv-x="1880" unicode="℮"/><glyph d="M1546 598h-1100l62 -260l-498 385l498 385l-62 -262h1100v-248z" glyph-name="arrowleft" horiz-adv-x="1720" unicode="←"/><glyph d="M375 1100l-262 -62l385 498l385 -498l-260 62v-1100h-248v1100z" glyph-name="arrowup" horiz-adv-x="1044" unicode="↑"/><glyph d="M1274 846l-62 262l498 -385l-498 -385l62 260h-1100v248h1100z" glyph-name="arrowright" horiz-adv-x="1720" unicode="→"/><glyph d="M623 1536v-1100l260 62l-385 -498l-385 498l262 -62v1100h248z" glyph-name="arrowdown" horiz-adv-x="995" unicode="↓"/><glyph d="M-133 682l498 385l-64 -260l1149 -2l-61 260l497 -385l-495 -385l61 262l-1151 2l59 -264z" glyph-name="arrowboth" horiz-adv-x="1753" unicode="↔"/><glyph d="M113 350l262 -61v798l-262 -61l385 496l385 -498l-260 61v-794l260 61l-385 -497z" glyph-name="arrowupdn" horiz-adv-x="995" unicode="↕"/><glyph d="M1055 137l-779 776l-141 -227l-80 625l625 -80l-229 -141l778 -779z" glyph-name="uni2196" horiz-adv-x="1095" unicode="↖"/><glyph d="M645 1090l-229 141l624 80l-79 -625l-142 227l-778 -776l-174 174z" glyph-name="uni2197" horiz-adv-x="1095" unicode="↗"/><glyph d="M43 1399l778 -776l142 227l79 -625l-624 80l229 141l-778 779z" glyph-name="uni2198" horiz-adv-x="1097" unicode="↘"/><glyph d="M451 446l229 -141l-625 -80l80 625l141 -227l779 776l174 -174z" glyph-name="uni2199" horiz-adv-x="1097" unicode="↙"/><glyph d="M348 1446q270 39 456.5 -187.5t182.5 -586.5q-2 -279 -143.5 -468.5t-347.5 -189.5q-242 0 -341.5 174t-2.5 430q88 231 270 320.5t377 5.5q-53 203 -175 307.5t-276 67.5v127zM831 672q0 74 -8 129q-158 102 -304 41.5t-222 -264.5q-68 -182 -9.5 -313.5t208.5 -131.5 q137 0 235 158t100 381z" glyph-name="partialdiff" horiz-adv-x="1087" unicode="∂"/><glyph d="M1294 1001q154 -174 154 -405q0 -254 -179 -433t-433 -179q-231 0 -406 151l-88 -86l-55 55l88 86q-152 170 -152 406q0 254 179.5 433t433.5 179q229 0 403 -151l88 88l55 -55zM365 596q0 -170 110 -303l664 661q-133 113 -303 113q-197 0 -334 -137t-137 -334zM836 127 q197 0 333 137t136 332q0 170 -111 303l-664 -661q132 -111 306 -111z" glyph-name="emptyset" horiz-adv-x="1669" unicode="∅"/><glyph glyph-name="product" horiz-adv-x="1513" unicode="∏"/><glyph d="M182 -145l752 743l-752 743v99h1172v-135h-942l706 -707l-706 -707h942v-135h-1172v99z" glyph-name="summation" horiz-adv-x="1536" unicode="∑"/><glyph d="M121 659h1229v-120h-1229v120z" glyph-name="minus" horiz-adv-x="1468" unicode="−"/><glyph d="M276 563h-135v119h219l211 -641l727 1520l109 -45l-803 -1676h-92z" glyph-name="radical" horiz-adv-x="1486" unicode="√"/><glyph d="M406 297q-119 0 -200 85t-85 214q4 129 85 214t200 85q180 0 374 -211q188 211 375 211q121 0 200 -83t83 -216q-4 -133 -83 -216t-200 -83q-182 0 -375 211q-198 -211 -374 -211zM406 416q131 0 294 180q-162 180 -294 180q-68 0 -117 -52t-51 -128q4 -76 52 -128 t116 -52zM1155 416q68 0 116 51t50 129q-2 80 -50 130t-116 50q-139 0 -297 -180q162 -180 297 -180z" glyph-name="infinity" horiz-adv-x="1558" unicode="∞"/><glyph d="M348 -387q-78 0 -126 56.5t-36 142.5h95q0 -100 67 -101q27 0 46.5 18.5t19.5 51.5v1569q0 76 48 122t118 46q76 0 124 -56.5t35 -142.5h-94q0 100 -67 100q-27 0 -46.5 -18.5t-19.5 -50.5v-1569q0 -74 -48 -121t-116 -47z" glyph-name="integral" horiz-adv-x="923" unicode="∫"/><glyph d="M809 655q-59 0 -113.5 28t-80 52.5t-68.5 73.5q-88 102 -172 102q-82 0 -132 -66.5t-46 -164.5h-99q-8 145 72 237.5t207 92.5q78 0 134 -37t120 -113q84 -106 172 -106q82 0 133 64.5t43 164.5h100q10 -139 -68.5 -233.5t-201.5 -94.5zM809 258q-59 0 -114.5 28.5 t-80 51t-67.5 72.5q-86 104 -172 104q-82 0 -132 -66.5t-46 -164.5h-99q-8 147 72 239t207 92q78 0 134 -37.5t120 -113.5q82 -109 172 -109q82 0 133 65.5t43 166.5h100q10 -139 -67.5 -233.5t-202.5 -94.5z" glyph-name="approxequal" horiz-adv-x="1175" unicode="≈"/><glyph d="M926 680l-234 -272h658v-117h-758l-240 -281h-112l239 281h-358v117h459l233 272h-692v117h792l203 237h113l-205 -237h326v-117h-424z" glyph-name="notequal" horiz-adv-x="1468" unicode="≠"/><glyph d="M1374 1266l-985 -459l985 -463v-149l-1130 532v160l1130 528v-149zM244 109h1130v-109h-1130v109z" glyph-name="lessequal" horiz-adv-x="1615" unicode="≤"/><glyph d="M1374 887v-160l-1130 -532v149l983 463l-983 459v149zM244 109h1130v-109h-1130v109z" glyph-name="greaterequal" horiz-adv-x="1615" unicode="≥"/><glyph d="M182 723l619 618l616 -616l-616 -619zM1219 725l-418 420l-420 -422l420 -418z" glyph-name="lozenge" horiz-adv-x="1599" unicode="◊"/><glyph glyph-name="glyph432"/><glyph d="M375 1100l-262 -62l385 498l385 -498l-260 62v-1100h-248v1100z" glyph-name="glyph433" horiz-adv-x="995"/><glyph d="M256 1214q-47 0 -82 35t-35 82q0 49 35 83t82 34q49 0 84 -34t35 -83q0 -47 -35 -82t-84 -35zM168 1024h176v-1024h-176v1024z" glyph-name="i.locl" horiz-adv-x="589"/><glyph d="M1133 379h-738l-147 -379h-199l617 1536h202l617 -1536h-197zM1079 539l-313 811l-313 -811h626z" glyph-name="glyph435" horiz-adv-x="1533"/><glyph d="M829 1733h-141l182 315h183zM1133 379h-738l-147 -379h-199l617 1536h202l617 -1536h-197zM1079 539l-313 811l-313 -811h626z" glyph-name="glyph436" horiz-adv-x="1533"/><glyph d="M753.5 1671q-149.5 0 -244.5 86t-95 232h108q0 -86 65.5 -147.5t166 -61.5t167 61.5t66.5 147.5h107q0 -145 -95.5 -231.5t-245 -86.5zM1133 379h-738l-147 -379h-199l617 1536h202l617 -1536h-197zM1079 539l-313 811l-313 -811h626z" glyph-name="glyph437" horiz-adv-x="1533"/><glyph d="M659 1698l-206 350h137l164 -260l164 260h137l-209 -350h-187zM1133 379h-738l-147 -379h-199l617 1536h202l617 -1536h-197zM1079 539l-313 811l-313 -811h626z" glyph-name="glyph438" horiz-adv-x="1533"/><glyph d="M596 1698h-143l206 350h187l209 -350h-144l-157 266zM1133 379h-738l-147 -379h-199l617 1536h202l617 -1536h-197zM1079 539l-313 811l-313 -811h626z" glyph-name="glyph439" horiz-adv-x="1533"/><glyph d="M565 1720q-49 0 -82.5 35t-33.5 84q0 47 33.5 82t82.5 35q47 0 82 -35t35 -82q0 -49 -35 -84t-82 -35zM946 1720q-49 0 -84 35t-35 84q0 47 35 82t84 35q47 0 81 -35t34 -82q0 -49 -34 -84t-81 -35zM1133 379h-738l-147 -379h-199l617 1536h202l617 -1536h-197zM1079 539 l-313 811l-313 -811h626z" glyph-name="glyph440" horiz-adv-x="1533"/><glyph d="M1133 379h-738l-147 -379h-199l617 1536h202l617 -1536h-197zM1079 539l-313 811l-313 -811h626zM756 -141q47 0 81.5 -35t34.5 -82t-34.5 -82t-81.5 -35q-49 0 -84 35t-35 82t35 82t84 35z" glyph-name="glyph441" horiz-adv-x="1533"/><glyph d="M676 1733l-223 315h182l182 -315h-141zM1133 379h-738l-147 -379h-199l617 1536h202l617 -1536h-197zM1079 539l-313 811l-313 -811h626z" glyph-name="glyph442" horiz-adv-x="1533"/><glyph d="M1073 1743h-635v119h635v-119zM1133 379h-738l-147 -379h-199l617 1536h202l617 -1536h-197zM1079 539l-313 811l-313 -811h626z" glyph-name="glyph443" horiz-adv-x="1533"/><glyph d="M1534 -342l59 -84q-117 -113 -280 -106q-104 4 -167 61t-63 154q0 180 234 317h-29l-155 379h-738l-147 -379h-199l617 1536h202l617 -1536h-15q-109 -29 -187.5 -117t-78.5 -184q0 -59 36 -97t99 -38q117 0 195 94zM453 539h626l-313 811z" glyph-name="glyph444" horiz-adv-x="1507"/><glyph d="M881 1505l604 -1505h-197l-155 379h-738l-147 -379h-199l602 1499h-14q-90 59 -90 168q0 84 61.5 145.5t147.5 61.5q84 0 145.5 -61.5t61.5 -145.5q0 -101 -82 -162zM631 1667q0 -55 35.5 -91t89 -36t89.5 36t36 91q0 53 -37 90t-88 37t-88 -37t-37 -90zM453 539h626 l-313 811z" glyph-name="glyph445" horiz-adv-x="1533"/><glyph d="M420 1733q-14 115 41 188.5t149 73.5q121 0 191 -111q35 -61 94 -61q47 0 71.5 43t14.5 108h109q16 -113 -38.5 -186.5t-152.5 -73.5q-117 0 -190 113q-35 59 -95 59q-47 0 -71.5 -43t-12.5 -110h-110zM1133 379h-738l-147 -379h-199l617 1536h202l617 -1536h-197z M1079 539l-313 811l-313 -811h626z" glyph-name="glyph446" horiz-adv-x="1533"/><glyph d="M666 1536h1067v-156h-670v-540h584v-142h-584v-542h670v-156h-846v338h-508l-125 -338h-205zM887 479v901h-94l-355 -901h449z" glyph-name="glyph447" horiz-adv-x="1837"/><glyph d="M801 805q139 -31 225 -139.5t86 -257.5q0 -178 -122 -293t-300 -115h-606v1536h518q180 0 303 -113.5t123 -292.5q0 -127 -62.5 -213.5t-164.5 -111.5zM848 1110q0 111 -78 188.5t-186 77.5h-320v-512h320q113 0 188.5 68.5t75.5 177.5zM666 162q111 0 187.5 77.5 t76.5 188.5t-78 199t-186 88h-402v-553h402z" glyph-name="glyph448" horiz-adv-x="1171"/><glyph d="M889 805q139 -31 225 -139.5t86 -257.5q0 -178 -122 -293t-302 -115h-692v1536h604q182 0 305 -113.5t123 -292.5q0 -127 -62.5 -213.5t-164.5 -111.5zM934 1110q0 111 -78 188.5t-186 77.5h-406v-512h406q113 0 188.5 68.5t75.5 177.5zM754 162q111 0 187.5 77.5 t76.5 188.5t-78 199t-186 88h-490v-553h490zM637 -141q47 0 82 -35t35 -82t-35 -82t-82 -35q-49 0 -84 35t-35 82t35 82t84 35z" glyph-name="glyph449" horiz-adv-x="1257"/><glyph d="M805 -20q-324 -2 -529.5 226t-205.5 562t205.5 561t529.5 227q150 0 276.5 -48t206.5 -124.5t127 -163.5t58 -176h-187q-12 55 -45 110.5t-87 110t-145 87t-204 32.5q-254 0 -408.5 -176t-154.5 -440q0 -262 154.5 -438t408.5 -176q197 0 329 100t152 215h187 q-10 -78 -60.5 -161t-132.5 -156.5t-207 -121.5t-268 -50z" glyph-name="glyph450" horiz-adv-x="1587"/><glyph d="M969 2048h180l-221 -315h-144zM805 -20q-324 -2 -529.5 226t-205.5 562t205.5 561t529.5 227q150 0 276.5 -48t206.5 -124.5t127 -163.5t58 -176h-187q-12 55 -45 110.5t-87 110t-145 87t-204 32.5q-254 0 -408.5 -176t-154.5 -440q0 -262 154.5 -438t408.5 -176 q197 0 329 100t152 215h187q-10 -78 -60.5 -161t-132.5 -156.5t-207 -121.5t-268 -50z" glyph-name="glyph451" horiz-adv-x="1587"/><glyph d="M504 2048h137l166 -260l162 260h137l-207 -350h-186zM805 -20q-324 -2 -529.5 226t-205.5 562t205.5 561t529.5 227q150 0 276.5 -48t206.5 -124.5t127 -163.5t58 -176h-187q-12 55 -45 110.5t-87 110t-145 87t-204 32.5q-254 0 -408.5 -176t-154.5 -440 q0 -262 154.5 -438t408.5 -176q197 0 329 100t152 215h187q-10 -78 -60.5 -161t-132.5 -156.5t-207 -121.5t-268 -50z" glyph-name="glyph452" horiz-adv-x="1587"/><glyph d="M805 154q197 0 329 100t152 215h187q-18 -156 -180.5 -306.5t-405.5 -178.5q2 0 2 -4l-58 -119q106 23 181 -31.5t75 -153.5q0 -88 -60 -148t-148 -60q-70 0 -137.5 37.5t-98.5 91.5l82 34q23 -33 68 -54t86 -21q51 0 84.5 34.5t33.5 85.5q0 72 -60 99.5t-146 -4.5 l-74 49l78 160q-317 0 -521 228t-204 560q0 334 205.5 561t529.5 227q150 0 276.5 -48t206.5 -124.5t127 -163.5t58 -176h-187q-12 55 -45 110.5t-87 110t-145 87t-204 32.5q-254 0 -408.5 -176t-154.5 -440q0 -262 154.5 -438t408.5 -176z" glyph-name="glyph453" horiz-adv-x="1587"/><glyph d="M807 1720q-49 0 -84 35t-35 84q0 47 35 82t84 35q47 0 82 -35t35 -82q0 -49 -35 -84t-82 -35zM805 -20q-324 -2 -529.5 226t-205.5 562t205.5 561t529.5 227q150 0 276.5 -48t206.5 -124.5t127 -163.5t58 -176h-187q-12 55 -45 110.5t-87 110t-145 87t-204 32.5 q-254 0 -408.5 -176t-154.5 -440q0 -262 154.5 -438t408.5 -176q197 0 329 100t152 215h187q-10 -78 -60.5 -161t-132.5 -156.5t-207 -121.5t-268 -50z" glyph-name="glyph454" horiz-adv-x="1587"/><glyph d="M139 1536h428q162 0 299.5 -46t244 -138t165.5 -245t59 -351q0 -348 -219 -552t-549 -204h-428v1536zM565 162q260 0 424 152.5t164 441.5q0 322 -161 471t-427 149h-248v-1214h248z" glyph-name="glyph455" horiz-adv-x="1435"/><glyph d="M725 1536q334 0 551 -201.5t217 -566.5t-217 -566.5t-551 -201.5h-430v711h-156v116h156v709h430zM723 162q258 0 423 157.5t165 448.5q0 289 -166 448.5t-422 159.5h-248v-549h270v-116h-270v-549h248z" glyph-name="glyph456" horiz-adv-x="1593"/><glyph d="M281 2048h137l164 -260l163 260h138l-209 -350h-187zM139 1536h469q162 0 299 -46t243.5 -138t166 -245t59.5 -351q0 -348 -219 -552t-549 -204h-469v1536zM606 162q260 0 424 152.5t164 441.5q0 322 -161 471t-427 149h-289v-1214h289z" glyph-name="glyph457" horiz-adv-x="1476"/><glyph d="M750 1536q162 0 299 -46t243.5 -138t166 -245t59.5 -351q0 -348 -219.5 -552t-548.5 -204h-469v711h-142v116h142v709h469zM748 162q260 0 424.5 152.5t164.5 441.5q0 322 -160.5 471t-428.5 149h-287v-549h264v-116h-264v-549h287z" glyph-name="glyph458" horiz-adv-x="1617"/><glyph d="M287 1376v-526h620v-162h-620v-526h706v-162h-889v1536h889v-160h-706z" glyph-name="glyph459" horiz-adv-x="1110"/><glyph d="M653 1733h-143l184 315h180zM287 1376v-526h682v-162h-682v-526h768v-162h-951v1536h951v-160h-768z" glyph-name="glyph460" horiz-adv-x="1171"/><glyph d="M483 1698l-207 350h138l164 -260l163 260h138l-209 -350h-187zM287 1376v-526h682v-162h-682v-526h768v-162h-951v1536h951v-160h-768z" glyph-name="glyph461" horiz-adv-x="1171"/><glyph d="M1055 1376h-768v-526h682v-162h-682v-526h768v-162h-432l-66 -139q106 23 181 -31.5t75 -153.5q0 -88 -60.5 -148t-148.5 -60q-70 0 -137.5 37.5t-97.5 91.5l82 34q23 -33 67.5 -54t85.5 -21q51 0 85 34.5t34 85.5q0 72 -60.5 99.5t-146.5 -4.5l-74 49l90 180h-428v1536 h951v-160z" glyph-name="glyph462" horiz-adv-x="1171"/><glyph d="M418 1698h-142l207 350h187l209 -350h-144l-157 266zM287 1376v-526h682v-162h-682v-526h768v-162h-951v1536h951v-160h-768z" glyph-name="glyph463" horiz-adv-x="1171"/><glyph d="M389 1720q-49 0 -84 35t-35 84q0 47 35 82t84 35q47 0 82 -35t35 -82q0 -49 -35 -84t-82 -35zM768 1720q-47 0 -82 35t-35 84q0 47 35 82t82 35t82 -35t35 -82q0 -49 -35 -84t-82 -35zM287 1376v-526h682v-162h-682v-526h768v-162h-951v1536h951v-160h-768z" glyph-name="glyph464" horiz-adv-x="1171"/><glyph d="M577.5 1720q-47.5 0 -82 35t-34.5 84q0 47 34.5 82t82 35t83 -35t35.5 -82q0 -49 -35.5 -84t-83 -35zM287 1376v-526h682v-162h-682v-526h768v-162h-951v1536h951v-160h-768z" glyph-name="glyph465" horiz-adv-x="1171"/><glyph d="M287 1376v-526h682v-162h-682v-526h768v-162h-951v1536h951v-160h-768zM577.5 -141q47.5 0 83 -35t35.5 -82t-35.5 -82t-83 -35t-82 35t-34.5 82t34.5 82t82 35z" glyph-name="glyph466" horiz-adv-x="1171"/><glyph d="M500 1733l-224 315h181l184 -315h-141zM287 1376v-526h682v-162h-682v-526h768v-162h-951v1536h951v-160h-768z" glyph-name="glyph467" horiz-adv-x="1171"/><glyph d="M895 1743h-635v119h635v-119zM287 1376v-526h682v-162h-682v-526h768v-162h-951v1536h951v-160h-768z" glyph-name="glyph468" horiz-adv-x="1171"/><glyph d="M1063 -342l59 -84q-113 -113 -280 -106q-104 4 -167 61t-63 154q0 178 236 317h-744v1536h951v-160h-768v-526h682v-162h-682v-526h768v-162h-54q-104 -29 -185 -117t-81 -184q0 -61 35 -98t100 -37q119 0 193 94z" glyph-name="glyph469" horiz-adv-x="1241"/><glyph d="M244 1733q-16 115 39 188.5t151 73.5q117 0 191 -111q35 -61 94 -61q47 0 71.5 43t12.5 108h110q16 -113 -38 -186.5t-152 -73.5q-119 0 -191 113q-39 59 -94 59q-47 0 -71.5 -43t-12.5 -110h-110zM287 1376v-526h682v-162h-682v-526h768v-162h-951v1536h951v-160h-768z " glyph-name="glyph470" horiz-adv-x="1171"/><glyph d="M289 1376v-526h622v-162h-622v-688h-180v1536h888v-160h-708z" glyph-name="glyph471" horiz-adv-x="1085"/><glyph d="M768 1386q-254 0 -402.5 -171t-148.5 -451q0 -274 155.5 -446.5t387.5 -172.5q236 0 364.5 132.5t137.5 347.5h-422v159h600q12 -391 -160 -595.5t-518 -204.5q-330 0 -522.5 227t-192.5 553q0 350 196.5 571t512.5 221q260 0 437 -130t212 -363h-174q-41 158 -170 240.5 t-293 82.5z" glyph-name="glyph472" horiz-adv-x="1548"/><glyph d="M842 1671q-150 0 -244 86t-94 232h108q0 -86 65.5 -147.5t164.5 -61.5q100 0 166.5 61.5t66.5 147.5h109q0 -145 -95 -231.5t-247 -86.5zM1436 784v-166v-618h-121l-37 244q-82 -131 -203 -192.5t-313 -61.5q-324 0 -517.5 225t-193.5 549q0 348 195.5 568t509.5 220 q258 0 435 -128t212 -361h-174q-41 156 -170 238.5t-291 82.5q-252 0 -400.5 -170t-148.5 -450q0 -270 156.5 -439t384.5 -169q246 0 373 128t127 343h-420v157h596z" glyph-name="glyph473" horiz-adv-x="1546"/><glyph d="M766 1698l-209 350h137l166 -260l162 260h137l-207 -350h-186zM1436 784v-166v-618h-121l-37 244q-82 -131 -203 -192.5t-313 -61.5q-324 0 -517.5 225t-193.5 549q0 348 195.5 568t509.5 220q258 0 435 -128t212 -361h-174q-41 156 -170 238.5t-291 82.5 q-252 0 -400.5 -170t-148.5 -450q0 -270 156.5 -439t384.5 -169q246 0 373 128t127 343h-420v157h596z" glyph-name="glyph474" horiz-adv-x="1546"/><glyph d="M1436 784v-166v-618h-121l-37 244q-82 -131 -203 -192.5t-313 -61.5q-324 0 -517.5 225t-193.5 549q0 348 195.5 568t509.5 220q258 0 435 -128t212 -361h-174q-41 156 -170 238.5t-291 82.5q-252 0 -400.5 -170t-148.5 -450q0 -270 156.5 -439t384.5 -169q246 0 373 128 t127 343h-420v157h596zM821 -311q-35 12 -56.5 42.5t-21.5 69.5q0 47 34 82t83 35q47 0 80 -35t33 -82q0 -98 -127 -264h-76z" glyph-name="glyph475" horiz-adv-x="1546"/><glyph d="M870 1720q-49 0 -83.5 35t-34.5 84q0 47 34.5 82t83.5 35q47 0 82 -35t35 -82q0 -49 -35 -84t-82 -35zM1436 784v-166v-618h-121l-37 244q-82 -131 -203 -192.5t-313 -61.5q-324 0 -517.5 225t-193.5 549q0 348 195.5 568t509.5 220q258 0 435 -128t212 -361h-174 q-41 156 -170 238.5t-291 82.5q-252 0 -400.5 -170t-148.5 -450q0 -270 156.5 -439t384.5 -169q246 0 373 128t127 343h-420v157h596z" glyph-name="glyph476" horiz-adv-x="1546"/><glyph d="M1339 1536v-1536h-180v688h-823v-688h-182v1536h182v-686h823v686h180z" glyph-name="glyph477" horiz-adv-x="1492"/><glyph d="M1620 1161h-139v-1161h-181v688h-823v-688h-182v1161h-141v78h141v297h182v-297h823v297h181v-297h139v-78zM1300 1161h-823v-311h823v311z" glyph-name="glyph478" horiz-adv-x="1773"/><glyph d="M1339 1536v-1536h-180v688h-823v-688h-182v1536h182v-686h823v686h180zM754 -141q47 0 81.5 -35t34.5 -82t-34.5 -82t-81.5 -35q-49 0 -83 35t-34 82t34 82t83 35z" glyph-name="glyph479" horiz-adv-x="1492"/><glyph d="M154 1536h182v-1536h-182v1536z" glyph-name="glyph480" horiz-adv-x="489"/><glyph d="M262 1536h182v-1536h-182v1536zM952 -20q-92 0 -155 18v186q63 -23 151 -22q72 0 123 51t51 123v1200h181v-1206q0 -150 -102 -250t-249 -100z" glyph-name="glyph481" horiz-adv-x="1490"/><glyph d="M360 2048h181l-222 -315h-143zM154 1536h182v-1536h-182v1536z" glyph-name="glyph482" horiz-adv-x="489"/><glyph d="M-59 2048h139l164 -260l164 260h137l-209 -350h-186zM154 1536h182v-1536h-182v1536z" glyph-name="glyph483" horiz-adv-x="489"/><glyph d="M150 2048h186l209 -350h-144l-157 266l-160 -266h-143zM154 1536h182v-1536h-182v1536z" glyph-name="glyph484" horiz-adv-x="489"/><glyph d="M53 1720q-49 0 -85 35t-36 84q0 47 36 82t85 35q47 0 82 -35t35 -82q0 -49 -35 -84t-82 -35zM434 1720q-49 0 -84 35t-35 84q0 47 35 82t84 35q47 0 81 -35t34 -82q0 -49 -34 -84t-81 -35zM154 1536h182v-1536h-182v1536z" glyph-name="glyph485" horiz-adv-x="489"/><glyph d="M244 1720q-47 0 -82 35t-35 84q0 47 35 82t82 35t82.5 -35t35.5 -82q0 -49 -35.5 -84t-82.5 -35zM154 1536h182v-1536h-182v1536z" glyph-name="glyph486" horiz-adv-x="489"/><glyph d="M154 1536h182v-1536h-182v1536zM244 -375q-47 0 -82 35t-35 82t35 82t82 35t82.5 -35t35.5 -82t-35.5 -82t-82.5 -35z" glyph-name="glyph487" horiz-adv-x="489"/><glyph d="M-61 2048h184l182 -315h-141zM154 1536h182v-1536h-182v1536z" glyph-name="glyph488" horiz-adv-x="489"/><glyph d="M-76 1862h637v-119h-637v119zM154 1536h182v-1536h-182v1536z" glyph-name="glyph489" horiz-adv-x="489"/><glyph d="M438 -426q-113 -113 -280 -106q-104 4 -168 61t-64 154q0 178 238 317h-10v1536h182v-1536h-19q-104 -29 -186 -117t-82 -184q0 -59 36 -97t101 -38q119 0 193 94z" glyph-name="glyph490" horiz-adv-x="489"/><glyph d="M387 1714q-117 0 -190 113q-35 59 -95 59q-47 0 -71.5 -43t-14.5 -110h-110q-14 115 41 188.5t151 73.5q121 0 191 -111q35 -61 94 -61q47 0 71.5 43t14.5 108h109q16 -113 -38.5 -186.5t-152.5 -73.5zM154 1536h182v-1536h-182v1536z" glyph-name="glyph491" horiz-adv-x="489"/><glyph d="M242 -20q-94 0 -158 18v186q68 -23 152 -22q72 0 124 51t52 123v1200h178v-1206q0 -150 -100.5 -250t-247.5 -100z" glyph-name="glyph492" horiz-adv-x="749"/><glyph d="M969 0l-664 709v-709h-182v1536h182v-727l588 725h223l-627 -768l713 -766h-233z" glyph-name="glyph493" horiz-adv-x="1241"/><glyph d="M1030 0l-725 709v-709h-182v1536h182v-727l649 725h224l-689 -768l775 -766h-234zM590 -354q-35 12 -56.5 42.5t-21.5 69.5q0 47 34 82t83 35q47 0 79.5 -35t32.5 -82q0 -98 -127 -264h-75z" glyph-name="glyph494" horiz-adv-x="1302"/><glyph d="M109 1536h180v-1374h565v-162h-745v1536z" glyph-name="glyph495" horiz-adv-x="944"/><glyph d="M315 2048h181l-222 -315h-143zM109 1536h180v-1374h565v-162h-745v1536z" glyph-name="glyph496" horiz-adv-x="944"/><glyph d="M109 1536h180v-1374h565v-162h-745v1536zM733 1309q-78 27 -78 110q0 49 34 83t83 34q47 0 80 -34t33 -83q0 -55 -48.5 -139t-80.5 -123h-74z" glyph-name="glyph497" horiz-adv-x="974"/><glyph d="M109 1536h180v-1374h565v-162h-745v1536zM438 -367q-78 29 -78 111q0 47 34 82t83 35q47 0 80 -34t33 -83q0 -96 -127 -262h-76z" glyph-name="glyph498" horiz-adv-x="944"/><glyph d="M109 1536h180v-1374h565v-162h-745v1536zM481 -375q-47 0 -81.5 35t-34.5 82t34.5 82t81.5 35t83 -35t36 -82t-36 -82t-83 -35z" glyph-name="glyph499" horiz-adv-x="944"/><glyph d="M1085 162v-162h-745v608l-107 -110h-124l231 247v791h180v-600l103 111h131l-234 -248v-637h565z" glyph-name="glyph500" horiz-adv-x="1175"/><glyph d="M1698 1536v-1536h-180v1272l-519 -1272h-147l-516 1272v-1272h-182v1536h247l525 -1307l526 1307h246z" glyph-name="glyph501" horiz-adv-x="1851"/><glyph d="M1374 1536v-1536h-172l-928 1245v-1245h-182v1536h172l930 -1243v1243h180z" glyph-name="glyph502" horiz-adv-x="1511"/><glyph d="M805 1733h-141l184 315h180zM1374 1536v-1536h-172l-928 1245v-1245h-182v1536h172l930 -1243v1243h180z" glyph-name="glyph503" horiz-adv-x="1511"/><glyph d="M637 1698l-209 350h137l166 -260l162 260h137l-207 -350h-186zM1374 1536v-1536h-172l-928 1245v-1245h-182v1536h172l930 -1243v1243h180z" glyph-name="glyph504" horiz-adv-x="1511"/><glyph d="M1374 1536v-1536h-172l-928 1245v-1245h-182v1536h172l930 -1243v1243h180zM713 -354q-78 29 -78 110q0 47 33.5 82t83.5 35q47 0 79.5 -34t32.5 -83q0 -96 -127 -262h-75z" glyph-name="glyph505" horiz-adv-x="1511"/><glyph d="M731 1720q-49 0 -83 35t-34 84q0 47 34 82t83 35q47 0 82 -35t35 -82q0 -49 -35 -84t-82 -35zM1374 1536v-1536h-172l-928 1245v-1245h-182v1536h172l930 -1243v1243h180z" glyph-name="glyph506" horiz-adv-x="1511"/><glyph d="M1374 1536v-1536h-172l-928 1245v-1245h-182v1536h172l930 -1243v1243h180zM739 -141q47 0 82 -35t35 -82t-35 -82t-82 -35t-81.5 35t-34.5 82t34.5 82t81.5 35z" glyph-name="glyph507" horiz-adv-x="1511"/><glyph d="M1366 1536v-1692q0 -131 -89 -195.5t-228 -60.5v123q137 -12 137 133v176l-920 1215v-1235h-174v1536h166l934 -1235v1235h174z" glyph-name="glyph508" horiz-adv-x="1505"/><glyph d="M455 1733q-14 115 41 188.5t149 73.5q121 0 191 -111q39 -61 96 -61q47 0 70.5 43t13.5 108h110q16 -113 -39 -186.5t-153 -73.5q-117 0 -189 113q-39 59 -94 59q-47 0 -71.5 -43t-12.5 -110h-112zM1374 1536v-1536h-172l-928 1245v-1245h-182v1536h172l930 -1243v1243 h180z" glyph-name="glyph509" horiz-adv-x="1511"/><glyph d="M805 -20q-326 0 -538 228t-212 560t212 560t538 228q324 0 536.5 -228t212.5 -560t-212.5 -560t-536.5 -228zM805 154q254 0 414.5 177t160.5 437q0 262 -160.5 439t-414.5 177q-256 0 -417 -177t-161 -439t161 -438t417 -176z" glyph-name="glyph510" horiz-adv-x="1636"/><glyph d="M922 2048h182l-223 -315h-142zM805 -20q-326 0 -538 228t-212 560t212 560t538 228q324 0 536.5 -228t212.5 -560t-212.5 -560t-536.5 -228zM805 154q254 0 414.5 177t160.5 437q0 262 -160.5 439t-414.5 177q-256 0 -417 -177t-161 -439t161 -438t417 -176z" glyph-name="glyph511" horiz-adv-x="1636"/><glyph d="M504 2048h137l166 -260l162 260h137l-207 -350h-186zM805 -20q-326 0 -538 228t-212 560t212 560t538 228q324 0 536.5 -228t212.5 -560t-212.5 -560t-536.5 -228zM805 154q254 0 414.5 177t160.5 437q0 262 -160.5 439t-414.5 177q-256 0 -417 -177t-161 -439t161 -438 t417 -176z" glyph-name="glyph512" horiz-adv-x="1636"/><glyph d="M713 2048h186l207 -350h-141l-158 266l-160 -266h-143zM805 -20q-326 0 -538 228t-212 560t212 560t538 228q324 0 536.5 -228t212.5 -560t-212.5 -560t-536.5 -228zM805 154q254 0 414.5 177t160.5 437q0 262 -160.5 439t-414.5 177q-256 0 -417 -177t-161 -439 t161 -438t417 -176z" glyph-name="glyph513" horiz-adv-x="1636"/><glyph d="M614.5 1720q-47.5 0 -82 35t-34.5 84q0 47 34.5 82t82 35t83 -35t35.5 -82q0 -49 -35.5 -84t-83 -35zM995 1720q-47 0 -81.5 35t-34.5 84q0 47 34.5 82t81.5 35t82 -35t35 -82q0 -49 -35 -84t-82 -35zM805 -20q-326 0 -538 228t-212 560t212 560t538 228 q324 0 536.5 -228t212.5 -560t-212.5 -560t-536.5 -228zM805 154q254 0 414.5 177t160.5 437q0 262 -160.5 439t-414.5 177q-256 0 -417 -177t-161 -439t161 -438t417 -176z" glyph-name="glyph514" horiz-adv-x="1636"/><glyph d="M805 -20q-326 0 -538 228t-212 560t212 560t538 228q324 0 536.5 -228t212.5 -560t-212.5 -560t-536.5 -228zM805 154q254 0 414.5 177t160.5 437q0 262 -160.5 439t-414.5 177q-256 0 -417 -177t-161 -439t161 -438t417 -176zM807 -375q-49 0 -84 35t-35 82t35 82t84 35 q47 0 82 -35t35 -82t-35 -82t-82 -35z" glyph-name="glyph515" horiz-adv-x="1636"/><glyph d="M504 2048h180l184 -315h-143zM805 -20q-326 0 -538 228t-212 560t212 560t538 228q324 0 536.5 -228t212.5 -560t-212.5 -560t-536.5 -228zM805 154q254 0 414.5 177t160.5 437q0 262 -160.5 439t-414.5 177q-256 0 -417 -177t-161 -439t161 -438t417 -176z" glyph-name="glyph516" horiz-adv-x="1636"/><glyph d="M868 2048h170l-340 -356h-131zM1214 2048h170l-337 -356h-134zM805 -20q-326 0 -538 228t-212 560t212 560t538 228q324 0 536.5 -228t212.5 -560t-212.5 -560t-536.5 -228zM805 154q254 0 414.5 177t160.5 437q0 262 -160.5 439t-414.5 177q-256 0 -417 -177t-161 -439 t161 -438t417 -176z" glyph-name="glyph517" horiz-adv-x="1636"/><glyph d="M489 1862h635v-119h-635v119zM805 -20q-326 0 -538 228t-212 560t212 560t538 228q324 0 536.5 -228t212.5 -560t-212.5 -560t-536.5 -228zM805 154q254 0 414.5 177t160.5 437q0 262 -160.5 439t-414.5 177q-256 0 -417 -177t-161 -439t161 -438t417 -176z" glyph-name="glyph518" horiz-adv-x="1636"/><glyph d="M1284 1384q127 -111 198.5 -271.5t71.5 -344.5q0 -332 -213 -560t-536 -228q-215 0 -393 110l-80 -119h-125l121 181q-129 109 -201 269.5t-72 346.5q0 332 212 560t538 228q219 0 395 -112l80 119h125zM227 768q0 -299 197 -473l680 1005q-133 84 -299 84 q-256 0 -417 -177t-161 -439zM805 154q254 0 414.5 177t160.5 437q0 291 -192 471l-678 -1006q127 -79 295 -79z" glyph-name="glyph519" horiz-adv-x="1636"/><glyph d="M881 1733h-142l183 315h182zM1284 1384q127 -111 198.5 -271.5t71.5 -344.5q0 -332 -213 -560t-536 -228q-215 0 -393 110l-80 -119h-125l121 181q-129 109 -201 269.5t-72 346.5q0 332 212 560t538 228q219 0 395 -112l80 119h125zM227 768q0 -299 197 -473l680 1005 q-133 84 -299 84q-256 0 -417 -177t-161 -439zM805 154q254 0 414.5 177t160.5 437q0 291 -192 471l-678 -1006q127 -79 295 -79z" glyph-name="glyph520" horiz-adv-x="1636"/><glyph d="M948 1714q-117 0 -190 113q-35 59 -92 59q-49 0 -74 -43t-12 -110h-111q-14 115 41 188.5t149 73.5q121 0 191 -111q35 -61 96 -61q47 0 70.5 43t13.5 108h109q16 -113 -38.5 -186.5t-152.5 -73.5zM805 -20q-326 0 -538 228t-212 560t212 560t538 228q324 0 536.5 -228 t212.5 -560t-212.5 -560t-536.5 -228zM805 154q254 0 414.5 177t160.5 437q0 262 -160.5 439t-414.5 177q-256 0 -417 -177t-161 -439t161 -438t417 -176z" glyph-name="glyph521" horiz-adv-x="1636"/><glyph d="M2378 1376h-770v-526h684v-162h-684v-526h770v-162h-951v248q-233 -266 -583 -266q-328 0 -558.5 230t-230.5 558t230.5 558.5t558.5 230.5q352 0 583 -265v242h951v-160zM844 156q203 0 362.5 117.5t220.5 304.5v387q-61 184 -220.5 301.5t-362.5 117.5 q-256 0 -435.5 -179t-179.5 -435t179.5 -435t435.5 -179z" glyph-name="glyph522" horiz-adv-x="2492"/><glyph d="M668 1536q178 0 304 -137t126 -319.5t-126 -317.5t-304 -135h-379v-627h-180v1536h559zM653 778q115 0 197 89t82 210q0 119 -82 209t-197 90h-364v-598h364z" glyph-name="glyph523" horiz-adv-x="1167"/><glyph d="M666 1323q178 0 303 -127t125 -307q0 -176 -125 -300t-303 -124h-381v-465h-176v1530h176v-207h381zM659 623q115 0 194 79.5t79 192.5t-79 191.5t-194 78.5h-374v-542h374z" glyph-name="glyph524" horiz-adv-x="1163"/><glyph d="M1610 147v-147h-39q-137 0 -242 106l-47 48q-203 -174 -477 -174q-326 0 -538 228t-212 560t212 560t538 228q324 0 536.5 -228t212.5 -560q0 -287 -163 -500l57 -59q59 -61 137 -62h25zM805 154q211 0 358 125l-254 268l109 110l252 -262q111 162 110 373 q0 262 -160.5 439t-414.5 177q-256 0 -417 -177t-161 -439t161 -438t417 -176z" glyph-name="glyph525" horiz-adv-x="1656"/><glyph d="M1143 0h-205l-387 637h-277v-637h-182v1536h559q178 0 304 -137t126 -322q0 -156 -100 -281.5t-248 -148.5zM645 784q113 0 193 89.5t80 208t-81 206.5t-192 88h-371v-592h371z" glyph-name="glyph526" horiz-adv-x="1212"/><glyph d="M692 1733h-141l184 315h180zM1219 0h-203l-389 637h-353v-637h-182v1536h637q176 0 303 -138t127 -321q0 -156 -100.5 -281.5t-247.5 -148.5zM723 784q113 0 191.5 89.5t78.5 208t-79.5 206.5t-190.5 88h-449v-592h449z" glyph-name="glyph527" horiz-adv-x="1290"/><glyph d="M524 1698l-207 350h138l163 -260l164 260h138l-209 -350h-187zM1219 0h-203l-389 637h-353v-637h-182v1536h637q176 0 303 -138t127 -321q0 -156 -100.5 -281.5t-247.5 -148.5zM723 784q113 0 191.5 89.5t78.5 208t-79.5 206.5t-190.5 88h-449v-592h449z" glyph-name="glyph528" horiz-adv-x="1290"/><glyph d="M1219 0h-203l-389 637h-353v-637h-182v1536h637q176 0 303 -138t127 -321q0 -156 -100.5 -281.5t-247.5 -148.5zM723 784q113 0 191.5 89.5t78.5 208t-79.5 206.5t-190.5 88h-449v-592h449zM588 -350q-78 27 -78 110q0 49 34 83t83 34q47 0 79.5 -33.5t32.5 -83.5 q0 -55 -48 -139t-81 -123h-73z" glyph-name="glyph529" horiz-adv-x="1290"/><glyph d="M598 -20q-231 0 -376.5 131t-164.5 325h179q20 -121 108 -202.5t258 -81.5q160 0 254 68.5t96 199.5q0 33 -6 60.5t-22.5 51t-30.5 42t-44 38t-48.5 30.5t-58.5 28.5t-59 24.5l-66.5 24.5t-63.5 23.5q-61 23 -92 35.5t-88.5 38t-87 45t-69.5 52t-60.5 65.5t-36 79 t-15.5 97q0 188 145.5 294.5t350.5 106.5q467 0 543 -436h-166q-16 115 -107.5 198t-267.5 83q-127 0 -219 -60.5t-92 -175.5q0 -39 11 -70.5t44 -60t51.5 -45t79 -43t77.5 -34t91 -35.5q12 -4 67.5 -26t71 -28t64.5 -27.5t67.5 -32.5t58.5 -36t55 -44t42 -49t37 -59.5 t19.5 -67.5t9.5 -81q0 -209 -156 -327.5t-383 -118.5z" glyph-name="glyph530" horiz-adv-x="1191"/><glyph d="M831 2046h181l-224 -315h-141zM612 -20q-233 0 -384.5 131t-170.5 325h179q20 -119 115 -201.5t265 -82.5q162 0 263.5 68.5t103.5 199.5q0 29 -7 55.5t-16.5 46t-31 41l-34.5 34.5t-46 31.5t-48.5 27t-56.5 24.5t-56 21.5t-61 21.5t-59 20q-88 31 -137 50.5t-120.5 57.5 t-109.5 76t-67 97t-29 131q0 188 153 294.5t359 106.5q242 0 374 -111.5t167 -309.5h-164q-14 109 -112.5 187.5t-262.5 78.5q-129 0 -228 -61.5t-99 -174.5q0 -43 21.5 -79.5t45 -60.5t80 -53.5t86 -41.5t101.5 -39q25 -10 37 -14q18 -6 74.5 -28t80 -32t73.5 -31.5 t74.5 -38t63.5 -43t58.5 -54t41 -61.5t30.5 -75t9 -88q0 -209 -162 -327.5t-393 -118.5z" glyph-name="glyph531" horiz-adv-x="1218"/><glyph d="M412 2046h137l166 -258l162 258h137l-207 -350h-186zM612 -20q-233 0 -384.5 131t-170.5 325h179q20 -119 115 -201.5t265 -82.5q162 0 263.5 68.5t103.5 199.5q0 29 -7 55.5t-16.5 46t-31 41l-34.5 34.5t-46 31.5t-48.5 27t-56.5 24.5t-56 21.5t-61 21.5t-59 20 q-88 31 -137 50.5t-120.5 57.5t-109.5 76t-67 97t-29 131q0 188 153 294.5t359 106.5q242 0 374 -111.5t167 -309.5h-164q-14 109 -112.5 187.5t-262.5 78.5q-129 0 -228 -61.5t-99 -174.5q0 -43 21.5 -79.5t45 -60.5t80 -53.5t86 -41.5t101.5 -39q25 -10 37 -14 q18 -6 74.5 -28t80 -32t73.5 -31.5t74.5 -38t63.5 -43t58.5 -54t41 -61.5t30.5 -75t9 -88q0 -209 -162 -327.5t-393 -118.5z" glyph-name="glyph532" horiz-adv-x="1218"/><glyph d="M1167 426q0 -197 -145 -314.5t-360 -129.5l-56 -119q106 20 181 -34t75 -151q0 -88 -60.5 -148t-148.5 -60q-70 0 -137 36.5t-98 90.5l82 36q23 -33 67.5 -54t85.5 -21q51 0 85 34.5t34 85.5q0 72 -59.5 99.5t-147.5 -4.5l-73 49l77 160q-215 12 -355 141t-157 313h179 q20 -119 115 -201.5t265 -82.5q162 0 263.5 68.5t103.5 199.5q0 29 -7 55.5t-16.5 46t-31 41l-34.5 34.5t-46 31.5t-48.5 27t-56.5 24.5t-56 21.5t-61 21.5t-59 20q-88 31 -137 50.5t-120.5 57.5t-109.5 76t-67 97t-29 131q0 188 153 294.5t359 106.5q242 0 374 -111.5 t167 -309.5h-164q-14 109 -112.5 187.5t-262.5 78.5q-129 0 -228 -61.5t-99 -174.5q0 -43 21.5 -79.5t45 -60.5t80 -53.5t86 -41.5t101.5 -39q25 -10 37 -14q18 -6 74.5 -28t80 -32t73.5 -31.5t74.5 -38t63.5 -43t58.5 -54t41 -61.5t30.5 -75t9 -88z" glyph-name="glyph533" horiz-adv-x="1218"/><glyph d="M612 -20q-233 0 -384.5 131t-170.5 325h179q20 -119 115 -201.5t265 -82.5q162 0 263.5 68.5t103.5 199.5q0 29 -7 55.5t-16.5 46t-31 41l-34.5 34.5t-46 31.5t-48.5 27t-56.5 24.5t-56 21.5t-61 21.5t-59 20q-88 31 -137 50.5t-120.5 57.5t-109.5 76t-67 97t-29 131 q0 188 153 294.5t359 106.5q242 0 374 -111.5t167 -309.5h-164q-14 109 -112.5 187.5t-262.5 78.5q-129 0 -228 -61.5t-99 -174.5q0 -43 21.5 -79.5t45 -60.5t80 -53.5t86 -41.5t101.5 -39q25 -10 37 -14q18 -6 74.5 -28t80 -32t73.5 -31.5t74.5 -38t63.5 -43t58.5 -54 t41 -61.5t30.5 -75t9 -88q0 -209 -162 -327.5t-393 -118.5zM627 -381q-78 29 -78 111q0 47 33.5 81.5t83.5 34.5q47 0 79.5 -33.5t32.5 -82.5q0 -96 -127 -262h-76z" glyph-name="glyph534" horiz-adv-x="1218"/><glyph d="M612 -20q-233 0 -384.5 131t-170.5 325h179q20 -119 115 -201.5t265 -82.5q162 0 263.5 68.5t103.5 199.5q0 29 -7 55.5t-16.5 46t-31 41l-34.5 34.5t-46 31.5t-48.5 27t-56.5 24.5t-56 21.5t-61 21.5t-59 20q-88 31 -137 50.5t-120.5 57.5t-109.5 76t-67 97t-29 131 q0 188 153 294.5t359 106.5q242 0 374 -111.5t167 -309.5h-164q-14 109 -112.5 187.5t-262.5 78.5q-129 0 -228 -61.5t-99 -174.5q0 -43 21.5 -79.5t45 -60.5t80 -53.5t86 -41.5t101.5 -39q25 -10 37 -14q18 -6 74.5 -28t80 -32t73.5 -31.5t74.5 -38t63.5 -43t58.5 -54 t41 -61.5t30.5 -75t9 -88q0 -209 -162 -327.5t-393 -118.5zM688 -373q-47 0 -82 34t-35 83q0 47 35 82t82 35t83 -35t36 -82q0 -49 -35 -83t-84 -34z" glyph-name="glyph535" horiz-adv-x="1218"/><glyph d="M1122 1376h-463v-1374h-178v1374h-463v162h1104v-162z" glyph-name="glyph536" horiz-adv-x="1183"/><glyph d="M1122 1376h-463v-549h226l49 -75l-268 -41h-7v-709h-178v709h-28l-125 75l153 39v551h-463v162h1104v-162z" glyph-name="glyph537" horiz-adv-x="1183"/><glyph d="M539 1698l-209 350h137l166 -260l162 260h137l-207 -350h-186zM1122 1376h-463v-1374h-178v1374h-463v162h1104v-162z" glyph-name="glyph538" horiz-adv-x="1183"/><glyph d="M659 2h-51l-61 -125q109 20 183.5 -34t74.5 -150q0 -88 -60.5 -149.5t-148.5 -61.5q-70 0 -138.5 38t-97.5 91l82 37q23 -33 68 -54.5t86 -21.5q51 0 84 35t33 86q0 72 -59.5 99.5t-145.5 -5.5l-76 49l84 166h-35v1374h-463v162h1104v-162h-463v-1374z" glyph-name="glyph539" horiz-adv-x="1183"/><glyph d="M1122 1376h-463v-1374h-178v1374h-463v162h1104v-162zM532 -369q-78 29 -77 111q0 47 33.5 82t82.5 35q47 0 80 -34t33 -83q0 -96 -127 -262h-76z" glyph-name="glyph540" horiz-adv-x="1183"/><glyph d="M1122 1376h-463v-1374h-178v1374h-463v162h1104v-162zM571 -141q47 0 83 -35t36 -82t-36 -82t-83 -35t-81.5 35t-34.5 82t34.5 82t81.5 35z" glyph-name="glyph541" horiz-adv-x="1183"/><glyph d="M678 -20q-244 0 -414 152.5t-170 371.5v1032h182v-1004q0 -164 117 -277.5t285 -113.5t284.5 114t116.5 277v1004h181v-1032q0 -219 -169 -371.5t-413 -152.5z" glyph-name="glyph542" horiz-adv-x="1404"/><glyph d="M860 2048h180l-221 -315h-143zM680 -20q-244 0 -415 152.5t-171 371.5v1032h182v-1004q0 -162 119 -276.5t285 -114.5q170 0 294 115t124 276v1004h180v-1032q0 -219 -176 -371.5t-422 -152.5z" glyph-name="glyph543" horiz-adv-x="1423"/><glyph d="M377 2048h137l166 -260l162 260h137l-207 -350h-186zM678 -20q-244 0 -414 152.5t-170 371.5v1032h182v-1004q0 -164 117 -277.5t285 -113.5t284.5 114t116.5 277v1004h181v-1032q0 -219 -169 -371.5t-413 -152.5z" glyph-name="glyph544" horiz-adv-x="1404"/><glyph d="M649 2048h187l208 -350h-143l-158 266l-159 -266h-142zM680 -20q-244 0 -415 152.5t-171 371.5v1032h182v-1004q0 -162 119 -276.5t285 -114.5q170 0 294 115t124 276v1004h180v-1032q0 -219 -176 -371.5t-422 -152.5z" glyph-name="glyph545" horiz-adv-x="1423"/><glyph d="M553 1720q-49 0 -83 35t-34 84q0 47 34 82t83 35q47 0 82 -35t35 -82q0 -49 -35 -84t-82 -35zM934 1720q-49 0 -84 35t-35 84q0 47 35 82t84 35q47 0 81 -35t34 -82q0 -49 -34 -84t-81 -35zM680 -20q-244 0 -415 152.5t-171 371.5v1032h182v-1004q0 -162 119 -276.5 t285 -114.5q170 0 294 115t124 276v1004h180v-1032q0 -219 -176 -371.5t-422 -152.5z" glyph-name="glyph546" horiz-adv-x="1423"/><glyph d="M678 -20q-244 0 -414 152.5t-170 371.5v1032h182v-1004q0 -164 117 -277.5t285 -113.5t284.5 114t116.5 277v1004h181v-1032q0 -219 -169 -371.5t-413 -152.5zM680 -375q-49 0 -84 35t-35 82t35 82t84 35q47 0 82 -35t35 -82t-35 -82t-82 -35z" glyph-name="glyph547" horiz-adv-x="1404"/><glyph d="M440 2048h181l184 -315h-141zM680 -20q-244 0 -415 152.5t-171 371.5v1032h182v-1004q0 -162 119 -276.5t285 -114.5q170 0 294 115t124 276v1004h180v-1032q0 -219 -176 -371.5t-422 -152.5z" glyph-name="glyph548" horiz-adv-x="1423"/><glyph d="M805 2048h172l-340 -356h-133zM1153 2048h170l-340 -356h-133zM680 -20q-244 0 -415 152.5t-171 371.5v1032h182v-1004q0 -162 119 -276.5t285 -114.5q170 0 294 115t124 276v1004h180v-1032q0 -219 -176 -371.5t-422 -152.5z" glyph-name="glyph549" horiz-adv-x="1466"/><glyph d="M426 1862h635v-119h-635v119zM680 -20q-244 0 -415 152.5t-171 371.5v1032h182v-1004q0 -162 119 -276.5t285 -114.5q170 0 294 115t124 276v1004h180v-1032q0 -219 -176 -371.5t-422 -152.5z" glyph-name="glyph550" horiz-adv-x="1423"/><glyph d="M1098 1536h180v-1032q0 -190 -137 -334.5t-344 -179.5l73 6q-86 -43 -148.5 -122t-62.5 -163q0 -61 35 -98t101 -37q117 0 192 92l60 -82q-113 -113 -281 -106q-104 4 -166.5 60.5t-62.5 154.5q0 162 186 287q-14 -2 -43 -2q-244 0 -415 152.5t-171 371.5v1032h182v-1004 q0 -162 119 -276.5t285 -114.5q170 0 294 115t124 276v1004z" glyph-name="glyph551" horiz-adv-x="1423"/><glyph d="M743 1657q-88 0 -148 60.5t-60 146.5t60 147.5t148 61.5q84 0 144.5 -61.5t60.5 -147.5q0 -84 -60.5 -145.5t-144.5 -61.5zM743.5 1739q53.5 0 89 35.5t35.5 89t-36.5 91.5t-88 38t-88.5 -38t-37 -91.5t36 -89t89.5 -35.5zM680 -20q-244 0 -415 152.5t-171 371.5v1032 h182v-1004q0 -162 119 -276.5t285 -114.5q170 0 294 115t124 276v1004h180v-1032q0 -219 -176 -371.5t-422 -152.5z" glyph-name="glyph552" horiz-adv-x="1423"/><glyph d="M887 1714q-119 0 -191 113q-39 59 -94 59q-47 0 -71.5 -43t-12.5 -110h-110q-16 115 39 188.5t151 73.5q117 0 190 -111q35 -61 95 -61q47 0 71.5 43t12.5 108h110q16 -113 -38 -186.5t-152 -73.5zM680 -20q-244 0 -415 152.5t-171 371.5v1032h182v-1004 q0 -162 119 -276.5t285 -114.5q170 0 294 115t124 276v1004h180v-1032q0 -219 -176 -371.5t-422 -152.5z" glyph-name="glyph553" horiz-adv-x="1423"/><glyph d="M1432 1536l-617 -1536h-201l-618 1536h205l514 -1325l514 1325h203z" glyph-name="glyph554" horiz-adv-x="1429"/><glyph d="M2083 1536l-469 -1536h-211l-342 1204l-338 -1204h-211l-481 1536h194l391 -1327l357 1327h184l352 -1329l379 1329h195z" glyph-name="glyph555" horiz-adv-x="2129"/><glyph d="M1180 1733h-142l183 315h182zM2083 1536l-469 -1536h-211l-342 1204l-338 -1204h-211l-481 1536h194l391 -1327l357 1327h184l352 -1329l379 1329h195z" glyph-name="glyph556" horiz-adv-x="2129"/><glyph d="M946 1698h-143l207 350h186l209 -350h-143l-158 266zM2083 1536l-469 -1536h-211l-342 1204l-338 -1204h-211l-481 1536h194l391 -1327l357 1327h184l352 -1329l379 1329h195z" glyph-name="glyph557" horiz-adv-x="2129"/><glyph d="M913.5 1720q-47.5 0 -82 35t-34.5 84q0 47 34.5 82t82 35t82 -35t34.5 -82q0 -49 -34.5 -84t-82 -35zM1294 1720q-47 0 -81.5 35t-34.5 84q0 47 34.5 82t81.5 35t81 -35t34 -82q0 -49 -34 -84t-81 -35zM2083 1536l-469 -1536h-211l-342 1204l-338 -1204h-211l-481 1536 h194l391 -1327l357 1327h184l352 -1329l379 1329h195z" glyph-name="glyph558" horiz-adv-x="2129"/><glyph d="M1024 1733l-221 315h180l184 -315h-143zM2083 1536l-469 -1536h-211l-342 1204l-338 -1204h-211l-481 1536h194l391 -1327l357 1327h184l352 -1329l379 1329h195z" glyph-name="glyph559" horiz-adv-x="2129"/><glyph d="M1071 0l-414 631l-413 -631h-207l522 780l-508 756h205l401 -606l402 606h207l-510 -756l526 -780h-211z" glyph-name="glyph560" horiz-adv-x="1316"/><glyph d="M754 729v-729h-181v725l-536 811h203l422 -653l425 653h201z" glyph-name="glyph561" horiz-adv-x="1325"/><glyph d="M739 1733h-141l182 315h183zM754 729v-729h-181v725l-536 811h203l422 -653l425 653h201z" glyph-name="glyph562" horiz-adv-x="1325"/><glyph d="M506 1698h-144l207 350h187l209 -350h-144l-157 266zM754 729v-729h-181v725l-536 811h203l422 -653l425 653h201z" glyph-name="glyph563" horiz-adv-x="1325"/><glyph d="M475 1720q-49 0 -83 35t-34 84q0 47 34 82t83 35q47 0 82 -35t35 -82q0 -49 -35 -84t-82 -35zM856 1720q-49 0 -84 35t-35 84q0 47 35 82t84 35q47 0 81 -35t34 -82q0 -49 -34 -84t-81 -35zM754 729v-729h-181v725l-536 811h203l422 -653l425 653h201z" glyph-name="glyph564" horiz-adv-x="1325"/><glyph d="M573 725l-536 811h203l422 -653l425 653h201l-534 -807v-729h-181v725zM666 -141q47 0 81.5 -35t34.5 -82t-34.5 -82t-81.5 -35q-49 0 -84 35t-35 82t35 82t84 35z" glyph-name="glyph565" horiz-adv-x="1325"/><glyph d="M586 1733l-224 315h183l182 -315h-141zM754 729v-729h-181v725l-536 811h203l422 -653l425 653h201z" glyph-name="glyph566" horiz-adv-x="1325"/><glyph d="M330 1733q-14 115 41 188.5t149 73.5q121 0 191 -111q35 -61 94 -61q47 0 71.5 43t14.5 108h108q16 -113 -38 -186.5t-152 -73.5q-117 0 -191 113q-35 59 -94 59q-47 0 -71.5 -43t-12.5 -110h-110zM754 729v-729h-181v725l-536 811h203l422 -653l425 653h201z" glyph-name="glyph567" horiz-adv-x="1325"/><glyph d="M1251 162v-162h-1163v94l889 1282h-866v160h1114v-94l-889 -1280h915z" glyph-name="glyph568" horiz-adv-x="1343"/><glyph d="M756 1733h-144l185 315h180zM1251 162v-162h-1163v94l889 1282h-866v160h1114v-94l-889 -1280h915z" glyph-name="glyph569" horiz-adv-x="1343"/><glyph d="M586 1698l-207 350h137l164 -260l164 260h137l-209 -350h-186zM1251 162v-162h-1163v94l889 1282h-866v160h1114v-94l-889 -1280h915z" glyph-name="glyph570" horiz-adv-x="1343"/><glyph d="M680 1720q-47 0 -82 35t-35 84q0 47 35 82t82 35t83 -35t36 -82q0 -49 -36 -84t-83 -35zM1251 162v-162h-1163v94l889 1282h-866v160h1114v-94l-889 -1280h915z" glyph-name="glyph571" horiz-adv-x="1343"/><glyph d="M1251 162v-162h-1163v94l889 1282h-866v160h1114v-94l-889 -1280h915zM666 -141q47 0 81.5 -35t34.5 -82t-34.5 -82t-81.5 -35q-49 0 -83 35t-34 82t34 82t83 35z" glyph-name="glyph572" horiz-adv-x="1343"/><glyph d="M387 -20q-141 4 -233.5 85.5t-92.5 217.5q0 133 115 220t332 87h240v80q0 229 -236 229q-244 0 -264 -182h-150q14 143 116.5 233t303.5 90q182 0 289.5 -94t107.5 -280v-666h-151l-12 143q-125 -165 -365 -163zM412 117q100 0 200.5 50t135.5 140v166l-224 -2 q-154 0 -223.5 -52t-69.5 -132q0 -76 51.5 -123t129.5 -47z" glyph-name="glyph573" horiz-adv-x="970"/><glyph d="M858 1536l-223 -315h-141l184 315h180zM975 301q0 -86 19.5 -121t64.5 -33v-147q-23 0 -64 4q-152 25 -182 156q-45 -72 -150.5 -121t-228.5 -49q-164 0 -268.5 91t-104.5 236q0 154 115 250.5t348 112.5l275 18v37q0 125 -72 188.5t-199 63.5q-113 0 -186.5 -62.5 t-85.5 -164.5h-170q16 160 130 270.5t321 110.5q203 0 319.5 -107.5t116.5 -302.5q0 -82 1 -182t1 -170v-78zM799 385v172l-258 -20q-303 -25 -303 -215q0 -82 67.5 -131.5t155.5 -49.5q125 0 226.5 74t111.5 170z" glyph-name="glyph574" horiz-adv-x="1114"/><glyph d="M492 1159q-150 0 -244 86t-94 232h108q0 -86 65.5 -147.5t164.5 -61.5q100 0 167.5 61.5t67.5 147.5h107q0 -145 -95 -231.5t-247 -86.5zM434 -10q-164 0 -268.5 91t-104.5 236q0 154 115 250.5t348 112.5l275 18v37q0 125 -72 188.5t-199 63.5q-113 0 -186.5 -62.5 t-85.5 -164.5h-170q16 160 130 270.5t321 110.5q203 0 319.5 -107.5t116.5 -302.5q0 -82 1 -182t1 -170v-78q0 -86 19.5 -121t64.5 -33v-147q-23 0 -64 4q-152 25 -182 156q-45 -72 -150.5 -121t-228.5 -49zM461 141q125 0 226 74t112 170v172l-258 -20q-303 -25 -303 -215 q0 -82 67.5 -131.5t155.5 -49.5z" glyph-name="glyph575" horiz-adv-x="1114"/><glyph d="M420 1186l-207 350h137l164 -260l164 260h137l-209 -350h-186zM434 -10q-164 0 -268.5 91t-104.5 236q0 154 115 250.5t348 112.5l275 18v37q0 125 -72 188.5t-199 63.5q-113 0 -186.5 -62.5t-85.5 -164.5h-170q16 160 130 270.5t321 110.5q203 0 319.5 -107.5 t116.5 -302.5q0 -82 1 -182t1 -170v-78q0 -86 19.5 -121t64.5 -33v-147q-23 0 -64 4q-152 25 -182 156q-45 -72 -150.5 -121t-228.5 -49zM461 141q125 0 226 74t112 170v172l-258 -20q-303 -25 -303 -215q0 -82 67.5 -131.5t155.5 -49.5z" glyph-name="glyph576" horiz-adv-x="1114"/><glyph d="M506 1452l-158 -266h-143l207 350h186l209 -350h-143zM975 301q0 -86 19.5 -121t64.5 -33v-147q-23 0 -64 4q-152 25 -182 156q-45 -72 -150.5 -121t-228.5 -49q-164 0 -268.5 91t-104.5 236q0 154 115 250.5t348 112.5l275 18v37q0 125 -72 188.5t-199 63.5 q-113 0 -186.5 -62.5t-85.5 -164.5h-170q16 160 130 270.5t321 110.5q203 0 319.5 -107.5t116.5 -302.5q0 -82 1 -182t1 -170v-78zM799 385v172l-258 -20q-303 -25 -303 -215q0 -82 67.5 -131.5t155.5 -49.5q125 0 226.5 74t111.5 170z" glyph-name="glyph577" horiz-adv-x="1114"/><glyph d="M305 1208q-49 0 -83 35t-34 84q0 47 34 82t83 35q47 0 82 -35t35 -82q0 -49 -35 -84t-82 -35zM686 1208q-49 0 -84 35t-35 84q0 47 35 82t84 35q47 0 81 -35t34 -82q0 -49 -34 -84t-81 -35zM434 -10q-164 0 -268.5 91t-104.5 236q0 154 115 250.5t348 112.5l275 18v37 q0 125 -72 188.5t-199 63.5q-113 0 -186.5 -62.5t-85.5 -164.5h-170q16 160 130 270.5t321 110.5q203 0 319.5 -107.5t116.5 -302.5q0 -82 1 -182t1 -170v-78q0 -86 19.5 -121t64.5 -33v-147q-23 0 -64 4q-152 25 -182 156q-45 -72 -150.5 -121t-228.5 -49zM461 141 q125 0 226 74t112 170v172l-258 -20q-303 -25 -303 -215q0 -82 67.5 -131.5t155.5 -49.5z" glyph-name="glyph578" horiz-adv-x="1114"/><glyph d="M434 -10q-164 0 -268.5 91t-104.5 236q0 154 115 250.5t348 112.5l275 18v37q0 125 -72 188.5t-199 63.5q-113 0 -186.5 -62.5t-85.5 -164.5h-170q16 160 130 270.5t321 110.5q203 0 319.5 -107.5t116.5 -302.5q0 -82 1 -182t1 -170v-78q0 -86 19.5 -121t64.5 -33v-147 q-23 0 -64 4q-152 25 -182 156q-45 -72 -150.5 -121t-228.5 -49zM461 141q125 0 226 74t112 170v172l-258 -20q-303 -25 -303 -215q0 -82 67.5 -131.5t155.5 -49.5zM528 -141q47 0 82 -35t35 -82t-35 -82t-82 -35q-49 0 -83.5 35t-34.5 82t34.5 82t83.5 35z" glyph-name="glyph579" horiz-adv-x="1114"/><glyph d="M625 1221h-144l-221 315h180zM975 301q0 -86 19.5 -121t64.5 -33v-147q-23 0 -64 4q-152 25 -182 156q-45 -72 -150.5 -121t-228.5 -49q-164 0 -268.5 91t-104.5 236q0 154 115 250.5t348 112.5l275 18v37q0 125 -72 188.5t-199 63.5q-113 0 -186.5 -62.5t-85.5 -164.5 h-170q16 160 130 270.5t321 110.5q203 0 319.5 -107.5t116.5 -302.5q0 -82 1 -182t1 -170v-78zM799 385v172l-258 -20q-303 -25 -303 -215q0 -82 67.5 -131.5t155.5 -49.5q125 0 226.5 74t111.5 170z" glyph-name="glyph580" horiz-adv-x="1114"/><glyph d="M807 1231h-635v119h635v-119zM434 -10q-164 0 -268.5 91t-104.5 236q0 154 115 250.5t348 112.5l275 18v37q0 125 -72 188.5t-199 63.5q-113 0 -186.5 -62.5t-85.5 -164.5h-170q16 160 130 270.5t321 110.5q203 0 319.5 -107.5t116.5 -302.5q0 -82 1 -182t1 -170v-78 q0 -86 19.5 -121t64.5 -33v-147q-23 0 -64 4q-152 25 -182 156q-45 -72 -150.5 -121t-228.5 -49zM461 141q125 0 226 74t112 170v172l-258 -20q-303 -25 -303 -215q0 -82 67.5 -131.5t155.5 -49.5z" glyph-name="glyph581" horiz-adv-x="1114"/><glyph d="M434 -10q-164 0 -268.5 91t-104.5 236q0 154 115 250.5t348 112.5l275 18v37q0 125 -72 188.5t-199 63.5q-113 0 -186.5 -62.5t-85.5 -164.5h-170q16 160 130 270.5t321 110.5q203 0 319.5 -107.5t116.5 -302.5q0 -82 1 -182t1 -170v-78q0 -86 19.5 -121t64.5 -33v-147 q-23 0 -64 4q-152 25 -182 156q-45 -72 -150.5 -121t-228.5 -49zM461 141q125 0 226 74t112 170v172l-258 -20q-303 -25 -303 -215q0 -82 67.5 -131.5t155.5 -49.5zM752 -532q-104 6 -167 62t-63 153q0 186 236 317h151q-106 -35 -186 -120t-80 -181q0 -59 36 -97t101 -38 q119 0 193 94l59 -84q-112 -112 -280 -106z" glyph-name="glyph582" horiz-adv-x="1114"/><glyph d="M510 1145q-88 0 -148.5 60.5t-60.5 146.5t60.5 147.5t148.5 61.5q84 0 144.5 -61.5t60.5 -147.5q0 -84 -60.5 -145.5t-144.5 -61.5zM510 1481q-51 0 -88 -38t-37 -91.5t36 -89t89 -35.5q51 0 88 35.5t37 89t-37 91.5t-88 38zM434 -10q-164 0 -268.5 91t-104.5 236 q0 154 115 250.5t348 112.5l275 18v37q0 125 -72 188.5t-199 63.5q-113 0 -186.5 -62.5t-85.5 -164.5h-170q16 160 130 270.5t321 110.5q203 0 319.5 -107.5t116.5 -302.5q0 -82 1 -182t1 -170v-78q0 -86 19.5 -121t64.5 -33v-147q-23 0 -64 4q-152 25 -182 156 q-45 -72 -150.5 -121t-228.5 -49zM461 141q125 0 226 74t112 170v172l-258 -20q-303 -25 -303 -215q0 -82 67.5 -131.5t155.5 -49.5z" glyph-name="glyph583" horiz-adv-x="1114"/><glyph d="M164 1221q-14 115 41 188.5t149 73.5q121 0 191 -111q35 -61 94 -61q47 0 71.5 43t14.5 108h109q16 -113 -38.5 -186.5t-152.5 -73.5q-117 0 -190 113q-35 59 -95 59q-47 0 -71.5 -43t-12.5 -110h-110zM434 -10q-164 0 -268.5 91t-104.5 236q0 154 115 250.5t348 112.5 l275 18v37q0 125 -72 188.5t-199 63.5q-113 0 -186.5 -62.5t-85.5 -164.5h-170q16 160 130 270.5t321 110.5q203 0 319.5 -107.5t116.5 -302.5q0 -82 1 -182t1 -170v-78q0 -86 19.5 -121t64.5 -33v-147q-23 0 -64 4q-152 25 -182 156q-45 -72 -150.5 -121t-228.5 -49z M461 141q125 0 226 74t112 170v172l-258 -20q-303 -25 -303 -215q0 -82 67.5 -131.5t155.5 -49.5z" glyph-name="glyph584" horiz-adv-x="1114"/><glyph d="M1888 565q0 -18 -4 -67h-862q12 -178 114.5 -274.5t256.5 -96.5q104 0 201.5 55.5t123.5 147.5h156q-29 -156 -164 -253t-338 -97q-252 0 -397 182l-2 -162h-139l-21 164q-45 -74 -150.5 -124t-228.5 -50q-164 0 -268.5 91t-104.5 236q0 143 113 238.5t350 124.5l275 33 v22q0 131 -71 194.5t-200 63.5q-117 0 -188.5 -63.5t-83.5 -167.5h-164q16 162 125 270.5t320 108.5q307 0 399 -228q152 229 436 228q236 -2 376 -161t140 -415zM1026 641h682q-16 156 -103 248t-231 92q-147 0 -237.5 -93t-110.5 -247zM799 385v195l-258 -35 q-303 -39 -303 -230q0 -86 65.5 -132t157.5 -46q125 0 226.5 74t111.5 174z" glyph-name="glyph585" horiz-adv-x="1892"/><glyph d="M674 1044q209 0 341 -152.5t132 -379.5q0 -225 -132 -378.5t-341 -153.5q-223 0 -357 186l-6 -166h-157v1536h174v-668q127 176 346 176zM645 135q150 0 240 107.5t90 269.5t-90 269.5t-240 107.5q-119 0 -205 -78t-112 -201v-196q27 -123 112.5 -201t204.5 -78z" glyph-name="glyph586" horiz-adv-x="1226"/><glyph d="M678 1137q229 0 373.5 -166t144.5 -412t-143.5 -409.5t-370.5 -163.5q-250 0 -389 196l-21 -182h-157v1536h188v-588q139 189 375 189zM651 150q162 0 260.5 117.5t98.5 291.5q0 176 -98.5 294t-260.5 118q-129 0 -223 -85t-125 -218v-215q31 -135 125 -219t223 -84z M637 -141q47 0 82 -35t35 -82t-35 -82t-82 -35q-49 0 -84 35t-35 82t35 82t84 35z" glyph-name="glyph587" horiz-adv-x="1226"/><glyph d="M539 -20q-219 0 -351.5 150.5t-132.5 381.5t132 381.5t352 150.5q197 0 319.5 -105t140.5 -255h-159q-14 90 -94 150.5t-191 60.5q-154 0 -242 -103.5t-88 -279.5t88 -279.5t242 -103.5q109 0 185.5 61.5t99.5 153.5h155q-29 -152 -145 -258t-311 -106z" glyph-name="glyph588" horiz-adv-x="1075"/><glyph d="M672 1536h182l-223 -315h-142zM582 -12q-233 0 -380 164.5t-147 414.5t145.5 410t381.5 160q215 0 348 -113t153 -274h-172q-16 98 -105 163.5t-210 65.5q-164 0 -260 -111.5t-96 -300.5q0 -190 97 -303.5t261 -113.5q117 0 201 66.5t112 168.5h168 q-33 -166 -159.5 -281.5t-337.5 -115.5z" glyph-name="glyph589" horiz-adv-x="1159"/><glyph d="M264 1536h137l164 -260l164 260h137l-209 -350h-186zM582 -12q-233 0 -380 164.5t-147 414.5t145.5 410t381.5 160q215 0 348 -113t153 -274h-172q-16 98 -105 163.5t-210 65.5q-164 0 -260 -111.5t-96 -300.5q0 -190 97 -303.5t261 -113.5q117 0 201 66.5t112 168.5h168 q-33 -166 -159.5 -281.5t-337.5 -115.5z" glyph-name="glyph590" horiz-adv-x="1159"/><glyph d="M598 150q117 0 201 66.5t112 168.5h168q-33 -166 -159.5 -281.5t-337.5 -115.5h-17l-47 -97q106 23 181 -31.5t75 -152.5q0 -88 -60.5 -148.5t-148.5 -60.5q-70 0 -137.5 38t-97.5 91l82 35q23 -33 67.5 -54.5t85.5 -21.5q51 0 85 35t34 86q0 72 -60.5 99.5t-146.5 -5.5 l-74 49l72 148q-190 37 -305 193.5t-115 375.5q0 250 145.5 410t381.5 160q215 0 348 -113t153 -274h-172q-16 98 -105 163.5t-210 65.5q-164 0 -260 -111.5t-96 -300.5q0 -190 97 -303.5t261 -113.5z" glyph-name="glyph591" horiz-adv-x="1159"/><glyph d="M571 1208q-49 0 -82.5 35t-33.5 84q0 47 33.5 82t82.5 35q47 0 82 -35t35 -82q0 -49 -35 -84t-82 -35zM582 -12q-233 0 -380 164.5t-147 414.5t145.5 410t381.5 160q215 0 348 -113t153 -274h-172q-16 98 -105 163.5t-210 65.5q-164 0 -260 -111.5t-96 -300.5 q0 -190 97 -303.5t261 -113.5q117 0 201 66.5t112 168.5h168q-33 -166 -159.5 -281.5t-337.5 -115.5z" glyph-name="glyph592" horiz-adv-x="1159"/><glyph d="M1073 1536v-1536h-155l-11 164q-131 -184 -352 -184q-211 0 -343 153.5t-132 378.5q0 227 132 379.5t343 152.5q219 0 346 -176v668h172zM584 135q117 0 202.5 78t114.5 201v198q-29 123 -115 200t-202 77q-147 0 -239.5 -107.5t-92.5 -269.5q0 -160 92.5 -268.5 t239.5 -108.5z" glyph-name="glyph593" horiz-adv-x="1226"/><glyph d="M807 1399q174 -141 275.5 -374.5t101.5 -512.5q0 -221 -162 -376.5t-391.5 -155.5t-390 155.5t-160.5 376.5q0 223 160.5 377.5t390.5 154.5q176 0 309 -100q-74 213 -225 338l-109 -137l-61 49l106 131q-145 90 -317 94l31 142q203 0 378 -115l95 117l59 -47zM630.5 135 q155.5 0 266.5 110.5t111 266.5q0 158 -110 267.5t-267 109.5q-156 0 -266.5 -109.5t-110.5 -267.5q0 -156 110.5 -266.5t266 -110.5z" glyph-name="glyph594" horiz-adv-x="1261"/><glyph d="M1378 1309q-78 33 -78 112q0 47 34 82t83 35q47 0 80 -35t33 -82q0 -55 -48 -139t-79 -123h-76zM1137 1536v-1536h-162l-19 178q-135 -188 -385 -188q-229 0 -372.5 160.5t-143.5 406.5t144.5 413t373.5 167q236 0 377 -191v590h187zM602 147q129 0 223.5 84t124.5 218 v217q-31 133 -125 217t-223 84q-160 0 -260 -117t-100 -293q0 -174 100 -292t260 -118z" glyph-name="glyph595" horiz-adv-x="1556"/><glyph d="M1214 1210h-141v-1210h-155l-11 164q-131 -184 -352 -184q-211 0 -343 153.5t-132 378.5q0 227 132 379.5t343 152.5q219 0 346 -176v342h-293v119h293v207h172v-207h141v-119zM584 135q117 0 202.5 78t114.5 201v198q-29 123 -115 200t-202 77q-147 0 -239.5 -107.5 t-92.5 -269.5q0 -160 92.5 -268.5t239.5 -108.5z" glyph-name="glyph596" horiz-adv-x="1226"/><glyph d="M1018 518q0 -39 -2 -61h-791q12 -164 105.5 -252t234.5 -88q96 0 184.5 50t114.5 136h142q-25 -143 -149 -233t-310 -90q-221 0 -357.5 151.5t-136.5 380.5q0 231 134.5 381.5t359.5 150.5q215 0 343 -145t128 -381zM547 899q-135 0 -217 -85t-101 -226h627 q-14 143 -95 227t-214 84z" glyph-name="glyph597" horiz-adv-x="1077"/><glyph d="M872 1546l-221 -315h-143l184 315h180zM1087 569q0 -18 -4 -67h-843q6 -168 106 -263.5t229 -97.5q123 -2 204 51.5t110 143.5h162q-8 -57 -38 -113.5t-83 -112t-143.5 -88t-202.5 -32.5q-236 2 -380.5 164.5t-144.5 406.5q0 250 140.5 412t382.5 162q231 0 368 -156 t137 -410zM244 643h667q-16 154 -101 245t-228 91q-145 0 -232.5 -91t-105.5 -245z" glyph-name="glyph598" horiz-adv-x="1155"/><glyph d="M481 1196l-207 350h138l163 -260l164 260h138l-209 -350h-187zM1087 569q0 -18 -4 -67h-843q6 -168 106 -263.5t229 -97.5q123 -2 204 51.5t110 143.5h162q-8 -57 -38 -113.5t-83 -112t-143.5 -88t-202.5 -32.5q-236 2 -380.5 164.5t-144.5 406.5q0 250 140.5 412 t382.5 162q231 0 368 -156t137 -410zM582 979q-145 0 -232.5 -91t-105.5 -245h667q-16 154 -101 245t-228 91z" glyph-name="glyph599" horiz-adv-x="1155"/><glyph d="M1087 569q0 -18 -4 -67h-843q6 -168 106 -263.5t229 -97.5q123 -2 204 51.5t110 143.5h162q-12 -76 -55.5 -146.5t-141.5 -131t-231 -68.5q-2 -2 -7 -10l-59 -119q106 20 182 -34t76 -151q0 -88 -61.5 -148t-149.5 -60q-68 0 -136.5 36.5t-96.5 89.5l80 37 q25 -33 68.5 -54t84.5 -21q51 0 85 34.5t34 85.5q0 72 -59.5 99.5t-147.5 -4.5l-74 49l82 162q-12 8 -16 14q-205 27 -327 184.5t-122 380.5q0 250 140.5 412t382.5 162q231 0 368 -156t137 -410zM244 643h667q-16 154 -101 245t-228 91q-145 0 -232.5 -91t-105.5 -245z" glyph-name="glyph600" horiz-adv-x="1155"/><glyph d="M416 1196h-142l207 350h187l209 -350h-144l-158 266zM1087 569q0 -18 -4 -67h-843q6 -168 106 -263.5t229 -97.5q123 -2 204 51.5t110 143.5h162q-8 -57 -38 -113.5t-83 -112t-143.5 -88t-202.5 -32.5q-236 2 -380.5 164.5t-144.5 406.5q0 250 140.5 412t382.5 162 q231 0 368 -156t137 -410zM582 979q-145 0 -232.5 -91t-105.5 -245h667q-16 154 -101 245t-228 91z" glyph-name="glyph601" horiz-adv-x="1155"/><glyph d="M385 1219q-49 0 -83 34.5t-34 81.5q0 49 34 84t83 35q47 0 82 -35t35 -84q0 -47 -35 -81.5t-82 -34.5zM766 1219q-49 0 -84 34.5t-35 81.5q0 49 35 84t84 35q47 0 81 -35t34 -84q0 -47 -34 -81.5t-81 -34.5zM1087 569q0 -18 -4 -67h-843q6 -168 106 -263.5t229 -97.5 q123 -2 204 51.5t110 143.5h162q-8 -57 -38 -113.5t-83 -112t-143.5 -88t-202.5 -32.5q-236 2 -380.5 164.5t-144.5 406.5q0 250 140.5 412t382.5 162q231 0 368 -156t137 -410zM582 979q-145 0 -232.5 -91t-105.5 -245h667q-16 154 -101 245t-228 91z" glyph-name="glyph602" horiz-adv-x="1155"/><glyph d="M575.5 1219q-47.5 0 -82 34.5t-34.5 81.5q0 49 34.5 84t82 35t83 -35t35.5 -84q0 -47 -35.5 -81.5t-83 -34.5zM1087 569q0 -18 -4 -67h-843q6 -168 106 -263.5t229 -97.5q123 -2 204 51.5t110 143.5h162q-8 -57 -38 -113.5t-83 -112t-143.5 -88t-202.5 -32.5 q-236 2 -380.5 164.5t-144.5 406.5q0 250 140.5 412t382.5 162q231 0 368 -156t137 -410zM582 979q-145 0 -232.5 -91t-105.5 -245h667q-16 154 -101 245t-228 91z" glyph-name="glyph603" horiz-adv-x="1155"/><glyph d="M1087 569q0 -18 -4 -67h-843q6 -168 106 -263.5t229 -97.5q123 -2 204 51.5t110 143.5h162q-8 -57 -38 -113.5t-83 -112t-143.5 -88t-202.5 -32.5q-236 2 -380.5 164.5t-144.5 406.5q0 250 140.5 412t382.5 162q231 0 368 -156t137 -410zM582 979q-145 0 -232.5 -91 t-105.5 -245h667q-16 154 -101 245t-228 91zM580 -141q47 0 81.5 -35t34.5 -82t-34.5 -82t-81.5 -35q-49 0 -83 35t-34 82t34 82t83 35z" glyph-name="glyph604" horiz-adv-x="1155"/><glyph d="M496 1231l-224 315h183l182 -315h-141zM1087 569q0 -18 -4 -67h-843q6 -168 106 -263.5t229 -97.5q123 -2 204 51.5t110 143.5h162q-8 -57 -38 -113.5t-83 -112t-143.5 -88t-202.5 -32.5q-236 2 -380.5 164.5t-144.5 406.5q0 250 140.5 412t382.5 162q231 0 368 -156 t137 -410zM582 979q-145 0 -232.5 -91t-105.5 -245h667q-16 154 -101 245t-228 91z" glyph-name="glyph605" horiz-adv-x="1155"/><glyph d="M893 1241h-635v119h635v-119zM1087 569q0 -18 -4 -67h-843q6 -168 106 -263.5t229 -97.5q123 -2 204 51.5t110 143.5h162q-8 -57 -38 -113.5t-83 -112t-143.5 -88t-202.5 -32.5q-236 2 -380.5 164.5t-144.5 406.5q0 250 140.5 412t382.5 162q231 0 368 -156t137 -410z M582 979q-145 0 -232.5 -91t-105.5 -245h667q-16 154 -101 245t-228 91z" glyph-name="glyph606" horiz-adv-x="1155"/><glyph d="M1087 569q0 -18 -4 -67h-843q6 -168 106 -263.5t229 -97.5q123 -2 204 51.5t110 143.5h162q-14 -102 -96.5 -199.5t-227.5 -130.5q-4 -4 -12 -8q-59 -80 -60 -158q0 -61 35 -98t101 -37q117 0 194 92l57 -82q-113 -113 -280 -106q-104 4 -167 60.5t-63 154.5q0 80 54 160 q0 4 2 6h-4q-236 2 -380.5 164.5t-144.5 406.5q0 250 140.5 412t382.5 162q231 0 368 -156t137 -410zM244 643h667q-16 154 -101 245t-228 91q-145 0 -232.5 -91t-105.5 -245z" glyph-name="glyph607" horiz-adv-x="1155"/><glyph d="M240 1229q-14 115 41 188.5t149 73.5q121 0 191 -111q35 -61 94 -61q47 0 71.5 42t14.5 109h108q16 -113 -38 -186.5t-152 -73.5q-117 0 -191 111q-35 61 -94 61q-47 0 -71.5 -43t-12.5 -110h-110zM1087 569q0 -18 -4 -67h-843q6 -168 106 -263.5t229 -97.5 q123 -2 204 51.5t110 143.5h162q-8 -57 -38 -113.5t-83 -112t-143.5 -88t-202.5 -32.5q-236 2 -380.5 164.5t-144.5 406.5q0 250 140.5 412t382.5 162q231 0 368 -156t137 -410zM582 979q-145 0 -232.5 -91t-105.5 -245h667q-16 154 -101 245t-228 91z" glyph-name="glyph608" horiz-adv-x="1155"/><glyph d="M252 0v889h-172v135h172v209q0 139 91 231t218 92q104 0 174 -45v-122q-78 37 -164 26q-145 -18 -145 -188v-203h272v-135h-272v-889h-174z" glyph-name="glyph609" horiz-adv-x="749"/><glyph d="M1075 1024v-997q0 -256 -131 -397.5t-371 -141.5q-117 0 -209 34t-144 88t-79.5 109.5t-29.5 106.5h149q8 -74 99.5 -138.5t222.5 -62.5q150 2 236.5 107.5t84.5 310.5l-2 119q-129 -182 -346 -182q-211 0 -343 153.5t-132 378.5q0 227 132 379.5t343 152.5 q221 0 352 -188l11 168h157zM584 135q115 0 201.5 79t115.5 202v194q-29 121 -116 200t-201 79q-147 0 -239.5 -107.5t-92.5 -269.5q0 -160 92.5 -268.5t239.5 -108.5z" glyph-name="glyph610" horiz-adv-x="1228"/><glyph d="M600 1159q-150 0 -244 86t-94 232h109q0 -86 65.5 -147.5t163.5 -61.5q100 0 168 61.5t68 147.5h106q0 -145 -95 -231.5t-247 -86.5zM549 -498q-217 -2 -357.5 89.5t-146.5 238.5q-4 78 35 150.5t115 111.5q-125 78 -125 174q0 63 35.5 107.5t105.5 89.5 q-113 109 -113 282q0 164 121 277t307 113q150 0 258 -70q25 63 94.5 101t141.5 34v-145q-45 4 -83 -16.5t-52 -61.5q84 -109 84 -238q0 -176 -122 -285.5t-317 -111.5q-147 -4 -225 49q-39 -14 -57.5 -45t-7.5 -63q31 -90 182 -93l225 -2q358 -6 397 -262 q25 -178 -108 -300t-387 -124zM791 741q0 102 -75 169t-190 67q-111 0 -184.5 -67.5t-73.5 -170.5q0 -100 74 -168.5t184 -68.5q117 0 191 67.5t74 171.5zM870 -90q-12 72 -83.5 101.5t-206.5 29.5h-224q-66 -16 -100.5 -67.5t-34.5 -114.5q0 -92 92.5 -146.5t218.5 -54.5 q176 0 266 70.5t72 181.5z" glyph-name="glyph611" horiz-adv-x="1097"/><glyph d="M498 1186l-207 350h137l164 -260l164 260h137l-209 -350h-186zM549 -498q-217 -2 -357.5 89.5t-146.5 238.5q-4 78 35 150.5t115 111.5q-125 78 -125 174q0 63 35.5 107.5t105.5 89.5q-113 109 -113 282q0 164 121 277t307 113q150 0 258 -70q25 63 94.5 101t141.5 34 v-145q-45 4 -83 -16.5t-52 -61.5q84 -109 84 -238q0 -176 -122 -285.5t-317 -111.5q-147 -4 -225 49q-39 -14 -57.5 -45t-7.5 -63q31 -90 182 -93l225 -2q358 -6 397 -262q25 -178 -108 -300t-387 -124zM791 741q0 102 -75 169t-190 67q-111 0 -184.5 -67.5t-73.5 -170.5 q0 -100 74 -168.5t184 -68.5q117 0 191 67.5t74 171.5zM870 -90q-12 72 -83.5 101.5t-206.5 29.5h-224q-66 -16 -100.5 -67.5t-34.5 -114.5q0 -92 92.5 -146.5t218.5 -54.5q176 0 266 70.5t72 181.5z" glyph-name="glyph612" horiz-adv-x="1097"/><glyph d="M635 1403q78 -29 78 -111q0 -47 -34 -81.5t-83 -34.5q-47 0 -80 33.5t-33 82.5q0 96 127 262h76zM549 -498q-217 -2 -357.5 89.5t-146.5 238.5q-4 78 35 150.5t115 111.5q-125 78 -125 174q0 63 35.5 107.5t105.5 89.5q-113 109 -113 282q0 164 121 277t307 113 q150 0 258 -70q25 63 94.5 101t141.5 34v-145q-45 4 -83 -16.5t-52 -61.5q84 -109 84 -238q0 -176 -122 -285.5t-317 -111.5q-147 -4 -225 49q-39 -14 -57.5 -45t-7.5 -63q31 -90 182 -93l225 -2q358 -6 397 -262q25 -178 -108 -300t-387 -124zM791 741q0 102 -75 169 t-190 67q-111 0 -184.5 -67.5t-73.5 -170.5q0 -100 74 -168.5t184 -68.5q117 0 191 67.5t74 171.5zM870 -90q-12 72 -83.5 101.5t-206.5 29.5h-224q-66 -16 -100.5 -67.5t-34.5 -114.5q0 -92 92.5 -146.5t218.5 -54.5q176 0 266 70.5t72 181.5z" glyph-name="glyph613" horiz-adv-x="1097"/><glyph d="M592 1208q-47 0 -82 35t-35 84q0 47 35 82t82 35t83 -35t36 -82q0 -49 -36 -84t-83 -35zM549 -498q-217 -2 -357.5 89.5t-146.5 238.5q-4 78 35 150.5t115 111.5q-125 78 -125 174q0 63 35.5 107.5t105.5 89.5q-113 109 -113 282q0 164 121 277t307 113q150 0 258 -70 q25 63 94.5 101t141.5 34v-145q-45 4 -83 -16.5t-52 -61.5q84 -109 84 -238q0 -176 -122 -285.5t-317 -111.5q-147 -4 -225 49q-39 -14 -57.5 -45t-7.5 -63q31 -90 182 -93l225 -2q358 -6 397 -262q25 -178 -108 -300t-387 -124zM791 741q0 102 -75 169t-190 67 q-111 0 -184.5 -67.5t-73.5 -170.5q0 -100 74 -168.5t184 -68.5q117 0 191 67.5t74 171.5zM870 -90q-12 72 -83.5 101.5t-206.5 29.5h-224q-66 -16 -100.5 -67.5t-34.5 -114.5q0 -92 92.5 -146.5t218.5 -54.5q176 0 266 70.5t72 181.5z" glyph-name="glyph614" horiz-adv-x="1097"/><glyph d="M676 1044q172 0 275.5 -102t103.5 -274v-668h-176v649q0 111 -67 175.5t-181 64.5q-121 0 -211 -69.5t-90 -178.5v-641h-176v1536h176v-649q55 72 149.5 114.5t196.5 42.5z" glyph-name="glyph615" horiz-adv-x="1204"/><glyph d="M698 1139q186 0 299 -112t113 -298v-729h-192v707q0 121 -73 191.5t-198 70.5q-131 0 -229.5 -77t-98.5 -194v-698h-190v1219h-86v116h86v199h190v-199h330v-116h-330v-252q61 78 163.5 125t215.5 47z" glyph-name="glyph616" horiz-adv-x="1204"/><glyph d="M698 1139q186 0 299 -112t113 -298v-729h-192v707q0 121 -73 191.5t-198 70.5q-131 0 -229.5 -77t-98.5 -194v-698h-190v1534h190v-567q61 78 163.5 125t215.5 47zM592 -141q47 0 83 -35t36 -82t-36 -82t-83 -35t-82 35t-35 82t35 82t82 35z" glyph-name="glyph617" horiz-adv-x="1204"/><glyph d="M256 1214q-47 0 -82 35t-35 82q0 49 35 83t82 34q49 0 84 -34t35 -83q0 -47 -35 -82t-84 -35zM168 1024h176v-1024h-176v1024z" glyph-name="glyph618" horiz-adv-x="501"/><glyph d="M154 1024h176v-1024h-176v1024z" glyph-name="glyph619" horiz-adv-x="483"/><glyph d="M360 1536h181l-222 -315h-143zM154 1024h176v-1024h-176v1024z" glyph-name="glyph620" horiz-adv-x="483"/><glyph d="M-61 1536h139l164 -260l164 260h137l-209 -350h-187zM154 1024h176v-1024h-176v1024z" glyph-name="glyph621" horiz-adv-x="483"/><glyph d="M147 1536h187l209 -350h-144l-157 266l-160 -266h-143zM154 1024h176v-1024h-176v1024z" glyph-name="glyph622" horiz-adv-x="483"/><glyph d="M53 1208q-49 0 -85 35t-36 84q0 47 36 82t85 35q47 0 82 -35t35 -82q0 -49 -35 -84t-82 -35zM432 1208q-47 0 -82 35t-35 84q0 47 35 82t82 35t82 -35t35 -82q0 -49 -35 -84t-82 -35zM154 1024h176v-1024h-176v1024z" glyph-name="glyph623" horiz-adv-x="483"/><glyph d="M256 1214q-47 0 -82 35t-35 82q0 49 35 83t82 34q49 0 84 -34t35 -83q0 -47 -35 -82t-84 -35zM168 1024h176v-1024h-176v1024z" glyph-name="glyph624" horiz-adv-x="589"/><glyph d="M274 1214q-47 0 -81.5 35t-34.5 82q0 49 34.5 83t81.5 34q49 0 84 -34t35 -83q0 -47 -35 -82t-84 -35zM186 1024h176v-1024h-176v1024zM287 -401q-49 0 -84 33.5t-35 82.5q0 47 35 82t84 35q47 0 81.5 -35t34.5 -82q0 -49 -34.5 -82.5t-81.5 -33.5z" glyph-name="glyph625" horiz-adv-x="550"/><glyph d="M-61 1536h182l184 -315h-141zM154 1024h176v-1024h-176v1024z" glyph-name="glyph626" horiz-adv-x="483"/><glyph d="M295 1305q-49 0 -85 36.5t-36 88t36 88t85 36.5q51 0 87 -36.5t36 -88t-36 -88t-87 -36.5zM893 1305q-47 0 -82 34.5t-35 81.5t35 82t82 35q45 0 80 -35t35 -82t-35 -81.5t-80 -34.5zM596 -508v162h47q90 0 123 42t33 124v1306h178l2 -1327q0 -307 -336 -307h-47z M205 1102h182v-1102h-182v1102z" glyph-name="glyph627" horiz-adv-x="1204"/><glyph d="M-78 1350h637v-119h-637v119zM154 1024h176v-1024h-176v1024z" glyph-name="glyph628" horiz-adv-x="483"/><glyph d="M242 1208q-47 0 -82 35t-35 84q0 47 35 82t82 35t81.5 -35t34.5 -82q0 -49 -34.5 -84t-81.5 -35zM436 -426q-117 -113 -280 -106q-104 4 -169 61t-65 154q0 176 238 317h-6v1024h176v-1024h-15q-104 -29 -186 -117t-82 -184q0 -59 36 -97t99 -38q117 0 195 94z" glyph-name="glyph629" horiz-adv-x="483"/><glyph d="M385 1202q-117 0 -188 113q-39 59 -95 59q-47 0 -71.5 -43t-14.5 -110h-112q-14 113 42 187.5t150 74.5q121 0 191 -111q39 -61 96 -61q47 0 70.5 43t13.5 108h111q16 -113 -39.5 -186.5t-153.5 -73.5zM154 1024h176v-1024h-176v1024z" glyph-name="glyph630" horiz-adv-x="483"/><glyph d="M256 1214q-47 0 -82 35t-35 82q0 49 35 83t82 34t82 -34t35 -83q0 -47 -35 -82t-82 -35zM-25 -528v151q96 -4 144.5 42t48.5 183v1176h176v-1182q0 -217 -105.5 -301.5t-263.5 -68.5z" glyph-name="glyph631" horiz-adv-x="495"/><glyph d="M86 -532q-86 0 -133 32v154q49 -39 114.5 -39t109.5 46t44 116v1247h176v-1257q0 -125 -91 -212t-220 -87z" glyph-name="glyph632" horiz-adv-x="583"/><glyph d="M154 2v1536h176v-948l370 434h205l-422 -475l500 -549h-203l-450 500v-498h-176z" glyph-name="glyph633" horiz-adv-x="999"/><glyph d="M121 0v1536h190v-893l410 483h221l-467 -530l535 -596h-222l-477 530v-530h-190zM502 -354q-78 31 -78 112q0 49 34 83t83 34q47 0 79.5 -35t32.5 -82q0 -55 -49 -142t-80 -120h-73z" glyph-name="glyph634" horiz-adv-x="1026"/><glyph d="M188 0l2 1536h175v-1536h-177z" glyph-name="glyph635" horiz-adv-x="555"/><glyph d="M352 2048h183l-224 -315h-141zM180 0v1536h178v-1536h-178z" glyph-name="glyph636" horiz-adv-x="655"/><glyph d="M625 1317q-78 27 -78 110q0 49 33.5 83t83.5 34q47 0 79.5 -33.5t32.5 -83.5q0 -55 -48 -139t-81 -123h-74zM180 0v1536h178v-1536h-178z" glyph-name="glyph637" horiz-adv-x="847"/><glyph d="M180 0v1536h178v-1536h-178zM244 -362q-78 27 -78 110q0 49 33.5 83t83.5 34q47 0 79.5 -34t32.5 -83q0 -55 -48 -139t-81 -123h-73z" glyph-name="glyph638" horiz-adv-x="655"/><glyph d="M180 0v1536h178v-1536h-178zM598 643q-37 0 -64.5 27.5t-27.5 66.5t27.5 66.5t64.5 27.5q39 0 66.5 -27.5t27.5 -66.5t-27.5 -66.5t-66.5 -27.5z" glyph-name="glyph639" horiz-adv-x="774"/><glyph d="M180 0v1536h178v-1536h-178zM281 -375q-49 0 -84 35t-35 82t34.5 82t84.5 35q47 0 81.5 -35t34.5 -82t-34.5 -82t-81.5 -35z" glyph-name="glyph640" horiz-adv-x="655"/><glyph d="M596 1024l-229 -242l-9 -8v-774h-178v586l-104 -109h-127l231 244v815h178v-625l9 9l98 104h131z" glyph-name="glyph641" horiz-adv-x="655"/><glyph d="M1337 1042q166 0 263.5 -97t97.5 -265v-680h-176v662q0 104 -61.5 165.5t-168.5 61.5q-113 0 -195.5 -67.5t-82.5 -172.5v-649h-176v662q0 104 -60.5 165.5t-167.5 61.5q-113 0 -196.5 -66.5t-83.5 -173.5v-649h-176v1024h161l9 -141q53 72 143 115.5t186 43.5 q209 0 314 -202q55 88 157 145t213 57z" glyph-name="glyph642" horiz-adv-x="1845"/><glyph d="M639 1044q172 0 274.5 -102t102.5 -274v-668h-176v649q0 111 -66.5 175.5t-181.5 64.5q-121 0 -211 -69.5t-90 -178.5v-641h-176v1024h161l9 -145q57 76 153.5 120.5t200.5 44.5z" glyph-name="glyph643" horiz-adv-x="1122"/><glyph d="M680 1221h-141l184 315h180zM684 1139q184 0 295 -112t111 -300v-727h-189v709q0 119 -72.5 190.5t-193.5 71.5q-131 0 -227.5 -77t-96.5 -194v-700h-188v1126h164l18 -168q59 82 162.5 131.5t216.5 49.5z" glyph-name="glyph644" horiz-adv-x="1204"/><glyph d="M512 1186l-207 350h137l164 -260l164 260h137l-209 -350h-186zM684 1139q184 0 295 -112t111 -300v-727h-189v709q0 119 -72.5 190.5t-193.5 71.5q-131 0 -227.5 -77t-96.5 -194v-700h-188v1126h164l18 -168q59 82 162.5 131.5t216.5 49.5z" glyph-name="glyph645" horiz-adv-x="1204"/><glyph d="M684 1139q184 0 295 -112t111 -300v-727h-189v709q0 119 -72.5 190.5t-193.5 71.5q-131 0 -227.5 -77t-96.5 -194v-700h-188v1126h164l18 -168q59 82 162.5 131.5t216.5 49.5zM561 -367q-78 27 -78 111q0 49 34 83t83 34q47 0 80 -34t33 -83q0 -55 -48.5 -139t-80.5 -123 h-74z" glyph-name="glyph646" horiz-adv-x="1204"/><glyph d="M606 1208q-49 0 -83 35t-34 84q0 47 34 82t83 35q47 0 82 -35t35 -82q0 -49 -35 -84t-82 -35zM684 1139q184 0 295 -112t111 -300v-727h-189v709q0 119 -72.5 190.5t-193.5 71.5q-131 0 -227.5 -77t-96.5 -194v-700h-188v1126h164l18 -168q59 82 162.5 131.5t216.5 49.5z " glyph-name="glyph647" horiz-adv-x="1204"/><glyph d="M684 1139q184 0 295 -112t111 -300v-727h-189v709q0 119 -72.5 190.5t-193.5 71.5q-131 0 -227.5 -77t-96.5 -194v-700h-188v1126h164l18 -168q59 82 162.5 131.5t216.5 49.5zM606 -141q47 0 82 -35t35 -82t-35 -82t-82 -35q-49 0 -83 35t-34 82t34 82t83 35z" glyph-name="glyph648" horiz-adv-x="1204"/><glyph d="M1090 727v-727h-7v-166q0 -131 -90 -195.5t-229 -60.5v121q143 -4 143 135v166h-6v709q0 119 -72.5 190.5t-193.5 71.5q-131 0 -227.5 -77t-96.5 -194v-700h-188v1126h164l18 -168q59 82 162.5 131.5t216.5 49.5q184 0 295 -112t111 -300z" glyph-name="glyph649" horiz-adv-x="1204"/><glyph d="M268 1221q-14 115 41.5 188.5t149.5 73.5q121 0 190 -111q39 -61 96 -61q47 0 71 43t13 108h111q16 -113 -39 -186.5t-153 -73.5q-117 0 -189 113q-39 59 -94 59q-47 0 -71.5 -43t-12.5 -110h-113zM684 1139q184 0 295 -112t111 -300v-727h-189v709q0 119 -72.5 190.5 t-193.5 71.5q-131 0 -227.5 -77t-96.5 -194v-700h-188v1126h164l18 -168q59 82 162.5 131.5t216.5 49.5z" glyph-name="glyph650" horiz-adv-x="1204"/><glyph d="M549 -20q-221 0 -362.5 153.5t-141.5 378.5t141.5 378.5t362.5 153.5q219 0 361.5 -153.5t142.5 -378.5t-142.5 -378.5t-361.5 -153.5zM548.5 135q147.5 0 239 108.5t91.5 268.5q0 162 -91.5 269.5t-239 107.5t-239.5 -107.5t-92 -269.5q0 -160 92 -268.5t239.5 -108.5z " glyph-name="glyph651" horiz-adv-x="1095"/><glyph d="M700 1536h181l-222 -315h-143zM594 -14q-240 0 -394.5 166.5t-154.5 412.5t153.5 413t395.5 167t395.5 -167t153.5 -413t-154.5 -412.5t-394.5 -166.5zM594 156q162 0 261 117.5t99 291.5q0 176 -99 294t-261 118t-261.5 -118t-99.5 -294q0 -174 99.5 -291.5 t261.5 -117.5z" glyph-name="glyph652" horiz-adv-x="1187"/><glyph d="M248 1536h137l164 -260l164 260h137l-209 -350h-186zM549 -20q-221 0 -362.5 153.5t-141.5 378.5t141.5 378.5t362.5 153.5q219 0 361.5 -153.5t142.5 -378.5t-142.5 -378.5t-361.5 -153.5zM548.5 135q147.5 0 239 108.5t91.5 268.5q0 162 -91.5 269.5t-239 107.5 t-239.5 -107.5t-92 -269.5q0 -160 92 -268.5t239.5 -108.5z" glyph-name="glyph653" horiz-adv-x="1095"/><glyph d="M504 1536h186l209 -350h-143l-158 266l-160 -266h-141zM594 -14q-240 0 -394.5 166.5t-154.5 412.5t153.5 413t395.5 167t395.5 -167t153.5 -413t-154.5 -412.5t-394.5 -166.5zM594 156q162 0 261 117.5t99 291.5q0 176 -99 294t-261 118t-261.5 -118t-99.5 -294 q0 -174 99.5 -291.5t261.5 -117.5z" glyph-name="glyph654" horiz-adv-x="1187"/><glyph d="M410 1208q-49 0 -83 35t-34 84q0 47 33.5 82t83.5 35q47 0 81.5 -35t34.5 -82q0 -49 -34.5 -84t-81.5 -35zM791 1208q-49 0 -84 35t-35 84q0 47 34.5 82t84.5 35q47 0 80.5 -35t33.5 -82q0 -49 -33.5 -84t-80.5 -35zM594 -14q-240 0 -394.5 166.5t-154.5 412.5t153.5 413 t395.5 167t395.5 -167t153.5 -413t-154.5 -412.5t-394.5 -166.5zM594 156q162 0 261 117.5t99 291.5q0 176 -99 294t-261 118t-261.5 -118t-99.5 -294q0 -174 99.5 -291.5t261.5 -117.5z" glyph-name="glyph655" horiz-adv-x="1187"/><glyph d="M549 -20q-221 0 -362.5 153.5t-141.5 378.5t141.5 378.5t362.5 153.5q219 0 361.5 -153.5t142.5 -378.5t-142.5 -378.5t-361.5 -153.5zM548.5 135q147.5 0 239 108.5t91.5 268.5q0 162 -91.5 269.5t-239 107.5t-239.5 -107.5t-92 -269.5q0 -160 92 -268.5t239.5 -108.5z M549 -375q-47 0 -82 35t-35 82t35 82t82 35t83 -35t36 -82t-36 -82t-83 -35z" glyph-name="glyph656" horiz-adv-x="1095"/><glyph d="M281 1536h182l182 -315h-141zM594 -14q-240 0 -394.5 166.5t-154.5 412.5t153.5 413t395.5 167t395.5 -167t153.5 -413t-154.5 -412.5t-394.5 -166.5zM594 156q162 0 261 117.5t99 291.5q0 176 -99 294t-261 118t-261.5 -118t-99.5 -294q0 -174 99.5 -291.5t261.5 -117.5 z" glyph-name="glyph657" horiz-adv-x="1187"/><glyph d="M610 1536h172l-340 -356h-131zM958 1536h170l-337 -356h-134zM549 -20q-221 0 -362.5 153.5t-141.5 378.5t141.5 378.5t362.5 153.5q219 0 361.5 -153.5t142.5 -378.5t-142.5 -378.5t-361.5 -153.5zM548.5 135q147.5 0 239 108.5t91.5 268.5q0 162 -91.5 269.5 t-239 107.5t-239.5 -107.5t-92 -269.5q0 -160 92 -268.5t239.5 -108.5z" glyph-name="glyph658" horiz-adv-x="1171"/><glyph d="M231 1350h635v-119h-635v119zM549 -20q-221 0 -362.5 153.5t-141.5 378.5t141.5 378.5t362.5 153.5q219 0 361.5 -153.5t142.5 -378.5t-142.5 -378.5t-361.5 -153.5zM548.5 135q147.5 0 239 108.5t91.5 268.5q0 162 -91.5 269.5t-239 107.5t-239.5 -107.5t-92 -269.5 q0 -160 92 -268.5t239.5 -108.5z" glyph-name="glyph659" horiz-adv-x="1095"/><glyph d="M934 1026q190 -174 190 -457q0 -246 -152.5 -415.5t-387.5 -169.5q-158 0 -283 79l-84 -126h-96l117 176q-193 170 -193 456q0 248 151.5 417t387.5 169q162 0 284 -82l84 129h97zM229 569q0 -184 107 -303l436 660q-86 59 -188 59q-158 0 -256.5 -119t-98.5 -297z M584 156q160 0 256 118.5t96 294.5q0 186 -105 303l-434 -661q85 -55 187 -55z" glyph-name="glyph660" horiz-adv-x="1167"/><glyph d="M625 1221h-144l185 315h180zM874 928q178 -158 179 -416q0 -225 -142.5 -378.5t-361.5 -153.5q-150 0 -264 73l-78 -116h-90l108 159q-180 154 -180 416q0 225 141.5 378.5t362.5 153.5q145 0 264 -73l80 114h88zM217 512q0 -170 100 -276l406 600q-76 53 -174 53 q-147 0 -239.5 -107.5t-92.5 -269.5zM549 135q147 0 238.5 108.5t91.5 268.5q0 166 -99 276l-405 -602q74 -51 174 -51z" glyph-name="glyph661" horiz-adv-x="1095"/><glyph d="M727 1202q-117 0 -190 113q-35 59 -95 59q-47 0 -71.5 -43t-12.5 -110h-110q-14 115 41 188.5t149 73.5q121 0 191 -111q35 -61 94 -61q47 0 71.5 43t14.5 108h109q16 -113 -38.5 -186.5t-152.5 -73.5zM594 -14q-240 0 -394.5 166.5t-154.5 412.5t153.5 413t395.5 167 t395.5 -167t153.5 -413t-154.5 -412.5t-394.5 -166.5zM594 156q162 0 261 117.5t99 291.5q0 176 -99 294t-261 118t-261.5 -118t-99.5 -294q0 -174 99.5 -291.5t261.5 -117.5z" glyph-name="glyph662" horiz-adv-x="1187"/><glyph d="M1972 569q0 -18 -4 -67h-844q6 -168 106.5 -263.5t229.5 -97.5q123 -2 204 51.5t110 143.5h161q-8 -57 -37.5 -113.5t-83 -112t-143.5 -88t-203 -32.5q-150 2 -266.5 71.5t-181.5 188.5v-23q-70 -117 -187.5 -182t-263.5 -65q-240 0 -393 166.5t-153 412.5t153.5 413 t392.5 167q145 0 263 -66.5t188 -181.5v-10q66 119 179.5 186.5t266.5 67.5q231 0 368.5 -156t137.5 -410zM1128 643h668q-16 154 -101 245t-229 91q-145 0 -232.5 -91t-105.5 -245zM569.5 150q161.5 0 261 117.5t99.5 291.5q0 176 -99.5 293t-261 117t-260 -117t-98.5 -293 q0 -174 98.5 -291.5t260 -117.5z" glyph-name="glyph663" horiz-adv-x="2035"/><glyph d="M674 1044q209 0 341 -152.5t132 -379.5q0 -225 -132 -378.5t-341 -153.5q-217 0 -346 176v-668h-174v1536h174v-156q127 176 346 176zM645 135q150 0 240 107.5t90 269.5t-90 269.5t-240 107.5q-119 0 -205 -78t-112 -201v-196q27 -123 112.5 -201t204.5 -78z" glyph-name="glyph664" horiz-adv-x="1226"/><glyph d="M729 1044q217 0 367.5 -154.5t150.5 -377.5q0 -221 -150.5 -376.5t-367.5 -155.5q-125 0 -229.5 57t-169.5 158v-705h-176v2046h176v-707q66 100 170 157.5t229 57.5zM706.5 135q157.5 0 267 110.5t109.5 266.5q0 158 -109.5 267.5t-267 109.5t-267 -109.5t-109.5 -267.5 q0 -156 109.5 -266.5t267 -110.5z" glyph-name="glyph665" horiz-adv-x="1327"/><glyph d="M1073 1024v-1536h-172v668q-129 -176 -346 -176q-211 0 -343 153.5t-132 378.5q0 227 132 379.5t343 152.5q219 0 346 -176v156h172zM584 135q117 0 202.5 78t114.5 201v198q-29 123 -115 200t-202 77q-147 0 -239.5 -107.5t-92.5 -269.5q0 -160 92.5 -268.5 t239.5 -108.5z" glyph-name="glyph666" horiz-adv-x="1226"/><glyph d="M678 1042l-2 -143q-166 10 -270.5 -75t-104.5 -255v-569h-176v1024h176v-186q90 216 377 204z" glyph-name="glyph667" horiz-adv-x="722"/><glyph d="M475 1221h-141l182 315h182zM727 1137l-2 -162q-182 10 -295 -83t-113 -282v-610h-192v1126h172l20 -204q101 229 410 215z" glyph-name="glyph668" horiz-adv-x="772"/><glyph d="M334 1186l-207 350h137l164 -260l164 260h137l-209 -350h-186zM739 1137l-2 -162q-182 10 -294.5 -83t-112.5 -282v-610h-193v1126h172l21 -204q100 229 409 215z" glyph-name="glyph669" horiz-adv-x="784"/><glyph d="M733 1137l-2 -162q-182 10 -294.5 -83t-112.5 -282v-610h-193v1126h172l21 -204q100 229 409 215zM205 -360q-78 31 -78 112q0 49 34 83t83 34q47 0 79.5 -35t32.5 -82q0 -55 -49 -142t-80 -120h-73z" glyph-name="glyph670" horiz-adv-x="778"/><glyph d="M469 -20q-190 0 -295.5 99t-116.5 222h154q12 -74 86 -132t170 -56t156.5 51t60.5 127t-67.5 118t-194.5 64q-150 29 -240 88.5t-90 186.5q0 135 107.5 215.5t261.5 80.5q162 0 263 -75.5t116 -216.5h-148q-14 80 -78.5 115.5t-134.5 39.5q-86 4 -148.5 -32.5 t-62.5 -106.5q0 -74 62.5 -107.5t187.5 -58.5q342 -63 342 -303q0 -137 -111.5 -228t-279.5 -91z" glyph-name="glyph671" horiz-adv-x="927"/><glyph d="M612 1536h181l-222 -315h-143zM506 -18q-209 0 -323.5 108.5t-125.5 241.5h166q12 -80 94 -143.5t186.5 -61.5t170 55.5t65.5 136.5q0 86 -73.5 130.5t-210.5 68.5q-164 33 -262.5 98.5t-98.5 202.5q0 147 118 235.5t286 88.5q176 0 285.5 -82t125.5 -238h-161 q-16 86 -86 126t-144 44q-94 4 -161.5 -34.5t-67.5 -116.5q0 -82 68.5 -119t201.5 -61q373 -72 373 -330q0 -152 -121 -251t-305 -99z" glyph-name="glyph672" horiz-adv-x="999"/><glyph d="M195 1536h137l164 -260l163 260h138l-209 -350h-187zM506 -18q-209 0 -323.5 108.5t-125.5 241.5h166q12 -80 94 -143.5t186.5 -61.5t170 55.5t65.5 136.5q0 86 -73.5 130.5t-210.5 68.5q-164 33 -262.5 98.5t-98.5 202.5q0 147 118 235.5t286 88.5q176 0 285.5 -82 t125.5 -238h-161q-16 86 -86 126t-144 44q-94 4 -161.5 -34.5t-67.5 -116.5q0 -82 68.5 -119t201.5 -61q373 -72 373 -330q0 -152 -121 -251t-305 -99z" glyph-name="glyph673" horiz-adv-x="999"/><glyph d="M506 -18q-209 0 -323.5 108.5t-125.5 241.5h166q12 -80 94 -143.5t186.5 -61.5t170 55.5t65.5 136.5q0 86 -73.5 130.5t-210.5 68.5q-164 33 -262.5 98.5t-98.5 202.5q0 147 118 235.5t286 88.5q176 0 285.5 -82t125.5 -238h-161q-16 86 -86 126t-144 44 q-94 4 -161.5 -34.5t-67.5 -116.5q0 -82 68.5 -119t201.5 -61q373 -72 373 -330q0 -152 -121 -251t-305 -99zM543 -18l-58 -121q106 23 181 -31.5t75 -153.5q0 -88 -60 -148t-149 -60q-70 0 -137 37.5t-98 91.5l82 34q23 -33 68 -54t85 -21q51 0 85 34.5t34 85.5 q0 72 -60.5 99.5t-146.5 -4.5l-73 49l80 162h92z" glyph-name="glyph674" horiz-adv-x="999"/><glyph d="M506 -18q-209 0 -323.5 108.5t-125.5 241.5h166q12 -80 94 -143.5t186.5 -61.5t170 55.5t65.5 136.5q0 86 -73.5 130.5t-210.5 68.5q-164 33 -262.5 98.5t-98.5 202.5q0 147 118 235.5t286 88.5q176 0 285.5 -82t125.5 -238h-161q-16 86 -86 126t-144 44 q-94 4 -161.5 -34.5t-67.5 -116.5q0 -82 68.5 -119t201.5 -61q373 -72 373 -330q0 -152 -121 -251t-305 -99zM463 -375q-78 29 -78 111q0 47 34 82t83 35q47 0 79.5 -34t32.5 -83q0 -96 -127 -262h-75z" glyph-name="glyph675" horiz-adv-x="999"/><glyph d="M506 -18q-209 0 -323.5 108.5t-125.5 241.5h166q12 -80 94 -143.5t186.5 -61.5t170 55.5t65.5 136.5q0 86 -73.5 130.5t-210.5 68.5q-164 33 -262.5 98.5t-98.5 202.5q0 147 118 235.5t286 88.5q176 0 285.5 -82t125.5 -238h-161q-16 86 -86 126t-144 44 q-94 4 -161.5 -34.5t-67.5 -116.5q0 -82 68.5 -119t201.5 -61q373 -72 373 -330q0 -152 -121 -251t-305 -99zM506 -375q-47 0 -82 35t-35 82t35 82t82 35t83 -35t36 -82t-36 -82t-83 -35z" glyph-name="glyph676" horiz-adv-x="999"/><glyph d="M975 786q113 -53 181.5 -156.5t68.5 -228.5q0 -176 -119 -298.5t-285 -122.5q-88 0 -183 35.5t-153 90.5l76 132q39 -39 103.5 -67t126.5 -28q104 4 181 80t77 187q0 117 -84 197.5t-205 80.5h-117v148h49q115 0 196 81.5t81 196.5t-83 190.5t-214 75.5 q-135 0 -225.5 -80.5t-90.5 -203.5v-1096h-174v1096q0 190 139.5 315t348.5 125q203 0 335 -119t132 -299q0 -207 -162 -332z" glyph-name="glyph677" horiz-adv-x="1363"/><glyph d="M610 -6q-47 -16 -103 -19.5t-113.5 13t-104.5 50.5t-77 99.5t-30 151.5v600h-137v135h137v348h176v-348h263v-135h-263v-600q0 -82 39 -125t95.5 -44t119.5 13z" glyph-name="glyph678" horiz-adv-x="688"/><glyph d="M559 160h125v-162h-125q-162 0 -250 65.5t-88 241.5v148h-168v116h168l2 412h-176v149h176v406h183v-406h264v-151l-269 2v-412h258v-116h-258v-127q0 -84 32 -125t126 -41z" glyph-name="glyph679" horiz-adv-x="759"/><glyph d="M590 1350q-80 29 -80 112q0 47 34 82t83 35t80.5 -34t31.5 -83q0 -98 -127 -264h-73zM559 -2q-162 0 -250 65.5t-88 241.5v676h-176v149h176v406h182v-406h267v-151l-271 2v-655q0 -84 32 -125t128 -41h123v-162h-123z" glyph-name="glyph680" horiz-adv-x="806"/><glyph d="M559 -2q-162 0 -250 65.5t-88 241.5v676h-176v149h176v406h182v-406h267v-151l-271 2v-655q0 -84 32 -125t128 -41h123v-162h-123zM442 -139q106 20 181 -33t75 -152q0 -88 -60 -148t-149 -60q-70 0 -137 37.5t-98 91.5l82 34q23 -33 68 -54t85 -21q51 0 85 34.5t34 85.5 q0 72 -59.5 99.5t-147.5 -4.5l-73 49l84 170l88 -8z" glyph-name="glyph681" horiz-adv-x="796"/><glyph d="M559 -2q-162 0 -250 65.5t-88 241.5v676h-176v149h176v406h182v-406h267v-151l-271 2v-655q0 -84 32 -125t128 -41h123v-162h-123zM379 -371q-78 31 -78 113q0 49 34 83t83 34q47 0 79.5 -35t32.5 -82q0 -55 -49 -142t-80 -120h-73z" glyph-name="glyph682" horiz-adv-x="755"/><glyph d="M559 -2q-162 0 -250 65.5t-88 241.5v676h-176v149h176v406h182v-406h267v-151l-271 2v-655q0 -84 32 -125t128 -41h123v-162h-123zM418 -141q47 0 82 -35t35 -82t-35 -82t-82 -35t-82 35t-35 82t35 82t82 35z" glyph-name="glyph683" horiz-adv-x="755"/><glyph d="M1012 1024v-1024h-158l-10 147q-57 -76 -152.5 -121.5t-195.5 -45.5q-168 0 -275.5 108.5t-107.5 278.5v657h176v-637q0 -113 68.5 -182.5t181.5 -69.5q119 0 209 72t90 180v637h174z" glyph-name="glyph684" horiz-adv-x="1118"/><glyph d="M682 1221h-141l184 315h180zM1096 1126v-1126h-168l-19 170q-59 -82 -162.5 -132t-214.5 -50q-184 0 -301.5 118.5t-117.5 303.5v716h192v-694q0 -123 75 -198.5t198 -75.5q131 0 229 77.5t98 196.5v694h191z" glyph-name="glyph685" horiz-adv-x="1200"/><glyph d="M514 1186l-207 350h137l164 -260l164 260h137l-209 -350h-186zM1096 1126v-1126h-168l-19 170q-59 -82 -162.5 -132t-214.5 -50q-184 0 -301.5 118.5t-117.5 303.5v716h192v-694q0 -123 75 -198.5t198 -75.5q131 0 229 77.5t98 196.5v694h191z" glyph-name="glyph686" horiz-adv-x="1200"/><glyph d="M449 1186h-142l207 350h186l209 -350h-143l-158 266zM1096 1126v-1126h-168l-19 170q-59 -82 -162.5 -132t-214.5 -50q-184 0 -301.5 118.5t-117.5 303.5v716h192v-694q0 -123 75 -198.5t198 -75.5q131 0 229 77.5t98 196.5v694h191z" glyph-name="glyph687" horiz-adv-x="1200"/><glyph d="M418 1208q-49 0 -84 35t-35 84q0 47 35 82t84 35q47 0 82 -35t35 -82q0 -49 -35 -84t-82 -35zM797 1208q-47 0 -82 35t-35 84q0 47 35 82t82 35t81.5 -35t34.5 -82q0 -49 -34.5 -84t-81.5 -35zM1096 1126v-1126h-168l-19 170q-59 -82 -162.5 -132t-214.5 -50 q-184 0 -301.5 118.5t-117.5 303.5v716h192v-694q0 -123 75 -198.5t198 -75.5q131 0 229 77.5t98 196.5v694h191z" glyph-name="glyph688" horiz-adv-x="1200"/><glyph d="M528 1221l-223 315h180l185 -315h-142zM1096 1126v-1126h-168l-19 170q-59 -82 -162.5 -132t-214.5 -50q-184 0 -301.5 118.5t-117.5 303.5v716h192v-694q0 -123 75 -198.5t198 -75.5q131 0 229 77.5t98 196.5v694h191z" glyph-name="glyph689" horiz-adv-x="1200"/><glyph d="M500 1180h-131l301 356h170zM715 1180l301 356h170l-338 -356h-133zM1096 1126v-1126h-168l-19 170q-59 -82 -162.5 -132t-214.5 -50q-184 0 -301.5 118.5t-117.5 303.5v716h192v-694q0 -123 75 -198.5t198 -75.5q131 0 229 77.5t98 196.5v694h191z" glyph-name="glyph690" horiz-adv-x="1292"/><glyph d="M926 1231h-635v119h635v-119zM1096 1126v-1126h-168l-19 170q-59 -82 -162.5 -132t-214.5 -50q-184 0 -301.5 118.5t-117.5 303.5v716h192v-694q0 -123 75 -198.5t198 -75.5q131 0 229 77.5t98 196.5v694h191z" glyph-name="glyph691" horiz-adv-x="1200"/><glyph d="M1120 -342l58 -84q-113 -113 -281 -106q-104 4 -166.5 61t-62.5 154q0 186 229 317h31l-19 170q-59 -82 -162.5 -132t-214.5 -50q-184 0 -301.5 118.5t-117.5 303.5v716h192v-694q0 -123 75 -198.5t198 -75.5q131 0 229 77.5t98 196.5v694h191v-1126h-39 q-104 -29 -185 -117t-81 -184q0 -59 35.5 -97t99.5 -38q116 0 194 94z" glyph-name="glyph692" horiz-adv-x="1284"/><glyph d="M608 1145q-88 0 -148.5 60.5t-60.5 146.5t60.5 147.5t148.5 61.5q84 0 144.5 -61.5t60.5 -147.5q0 -84 -60.5 -145.5t-144.5 -61.5zM608 1481q-51 0 -88 -38t-37 -91.5t36 -89t89 -35.5q51 0 88 35.5t37 89t-37 91.5t-88 38zM1096 1126v-1126h-168l-19 170 q-59 -82 -162.5 -132t-214.5 -50q-184 0 -301.5 118.5t-117.5 303.5v716h192v-694q0 -123 75 -198.5t198 -75.5q131 0 229 77.5t98 196.5v694h191z" glyph-name="glyph693" horiz-adv-x="1200"/><glyph d="M1012 1024l-412 -1024h-170l-410 1024h189l307 -821l307 821h189z" glyph-name="glyph694" horiz-adv-x="1032"/><glyph d="M1483 1024l-314 -1024h-196l-207 758l-205 -758h-194l-316 1024h197l225 -817l213 817h170l213 -821l221 821h193z" glyph-name="glyph695" horiz-adv-x="1531"/><glyph d="M844 1221h-142l185 315h180zM1630 1118l-342 -1118h-215l-225 827l-223 -827h-213l-344 1118h215l245 -891l234 891h184l232 -895l241 895h211z" glyph-name="glyph696" horiz-adv-x="1679"/><glyph d="M631 1186h-144l207 350h187l209 -350h-144l-158 266zM1630 1118l-342 -1118h-215l-225 827l-223 -827h-213l-344 1118h215l245 -891l234 891h184l232 -895l241 895h211z" glyph-name="glyph697" horiz-adv-x="1679"/><glyph d="M600 1208q-47 0 -82 35t-35 84q0 47 35 82t82 35t82 -35t35 -82q0 -49 -35 -84t-82 -35zM981 1208q-47 0 -82 35t-35 84q0 47 35 82t82 35t81 -35t34 -82q0 -49 -34 -84t-81 -35zM1630 1118l-342 -1118h-215l-225 827l-223 -827h-213l-344 1118h215l245 -891l234 891h184 l232 -895l241 895h211z" glyph-name="glyph698" horiz-adv-x="1679"/><glyph d="M670 1221l-221 315h180l184 -315h-143zM1630 1118l-342 -1118h-215l-225 827l-223 -827h-213l-344 1118h215l245 -891l234 891h184l232 -895l241 895h211z" glyph-name="glyph699" horiz-adv-x="1679"/><glyph d="M596 512l369 -512h-207l-266 385l-267 -385h-209l369 512l-369 512h207l269 -385l266 385h207z" glyph-name="glyph700" horiz-adv-x="1083"/><glyph d="M1059 1024l-613 -1538h-159l205 514l-439 1024h183l337 -801l316 801h170z" glyph-name="glyph701" horiz-adv-x="1097"/><glyph d="M651 1221h-141l184 315h180zM1122 1126l-669 -1652h-177l244 594h-49l-442 1058h190l369 -880l344 880h190z" glyph-name="glyph702" horiz-adv-x="1185"/><glyph d="M403 1186h-143l207 350h186l209 -350h-143l-158 266zM1122 1126l-669 -1652h-177l244 594h-49l-442 1058h190l369 -880l344 880h190z" glyph-name="glyph703" horiz-adv-x="1185"/><glyph d="M387 1208q-49 0 -84 35t-35 84q0 47 35 82t84 35q47 0 82 -35t35 -82q0 -49 -35 -84t-82 -35zM766 1208q-47 0 -82 35t-35 84q0 47 35 82t82 35t82 -35t35 -82q0 -49 -35 -84t-82 -35zM1122 1126l-669 -1652h-177l244 594h-49l-442 1058h190l369 -880l344 880h190z" glyph-name="glyph704" horiz-adv-x="1185"/><glyph d="M498 1221l-224 315h181l184 -315h-141zM1122 1126l-669 -1652h-177l244 594h-49l-442 1058h190l369 -880l344 880h190z" glyph-name="glyph705" horiz-adv-x="1185"/><glyph d="M88 123l592 754h-578v147h809v-117l-589 -760h606v-147h-840v123z" glyph-name="glyph706" horiz-adv-x="989"/><glyph d="M668 1536h180l-221 -315h-144zM88 123l637 754h-623v147h856v-117l-636 -760h653v-147h-887v123z" glyph-name="glyph707" horiz-adv-x="1036"/><glyph d="M250 1536h137l164 -260l164 260h137l-209 -350h-186zM88 123l637 754h-623v147h856v-117l-636 -760h653v-147h-887v123z" glyph-name="glyph708" horiz-adv-x="1036"/><glyph d="M551 1208q-47 0 -82 35t-35 84q0 47 35 82t82 35t82 -35t35 -82q0 -49 -35 -84t-82 -35zM88 123l637 754h-623v147h856v-117l-636 -760h653v-147h-887v123z" glyph-name="glyph709" horiz-adv-x="1036"/><glyph d="M88 123l637 754h-623v147h856v-117l-636 -760h653v-147h-887v123zM532.5 -375q-47.5 0 -82 35t-34.5 82t34.5 82t82 35t82 -35t34.5 -82t-34.5 -82t-82 -35z" glyph-name="glyph710" horiz-adv-x="1036"/><glyph d="M1165 1141v-1088q0 -281 -141 -434.5t-403 -153.5q-127 0 -227.5 37t-158 96.5t-87 120t-33.5 117.5h164q10 -82 108 -152.5t244 -68.5q162 4 257 117.5t93 339.5l-2 127q-143 -197 -379 -197q-229 0 -372.5 167t-143.5 414.5t143.5 413.5t372.5 166q242 0 385 -205 l10 183h170zM631 172q125 0 221 86t127 219v213q-31 133 -127 218t-221 85q-160 0 -260.5 -117.5t-100.5 -291.5t100.5 -293t260.5 -119z" glyph-name="glyph711" horiz-adv-x="1292"/></font>
</defs>
</svg>
