<?xml version="1.0" standalone="no"?>
<!DOCTYPE svg PUBLIC "-//W3C//DTD SVG 1.1//EN" "http://www.w3.org/Graphics/SVG/1.1/DTD/svg11.dtd">
<svg xmlns="http://www.w3.org/2000/svg"><metadata>This SVG WebFont was generated by YouWorkForThem.
\(c\)2017 Oakes is a trademark of Samuel Oakes. All rights reserved.</metadata><defs><font horiz-adv-x="0" id="ywftsvg"><font-face ascent="1536" bbox="-1548 -674 2535 2073" cap-height="1536" descent="-512" font-family="" font-stretch="normal" font-weight="400" panose-1="0 0 4 0 0 0 0 0 0 0" underline-position="0" underline-thickness="0" unicode-range="U+000D-FB02" units-per-em="2048" x-height="1118"/><missing-glyph d="M305 1536h844l-215 -1536h-844zM817 137l178 1264h-573l-178 -1264h573z" horiz-adv-x="1208"/><glyph d="M168 0l135 975h-151l20 143h152l12 101q18 129 98 218t201 103q61 8 124.5 -3t98.5 -38l-22 -143q-27 14 -62 24.5t-85 10.5t-85 -23q-68 -47 -86 -172l-10 -78h240l-21 -143h-240l-137 -975h-182zM1108 1305q-47 0 -77 33.5t-21 82.5q6 47 45 82t86 35q49 0 78.5 -35 t21.5 -82q-6 -49 -45 -82.5t-88 -33.5zM991 1126h189l-158 -1126h-188z" glyph-name="uniFB01" horiz-adv-x="1253" unicode="fi"/><glyph d="M168 0l135 975h-151l20 143h152l12 101q18 129 98 218t201 103q61 8 124.5 -3t98.5 -38l-22 -143q-27 14 -62 24.5t-85 10.5t-85 -23q-68 -47 -86 -172l-10 -78h240l-21 -143h-240l-137 -975h-182zM891 0l215 1536h178l-215 -1536h-178z" glyph-name="uniFB02" horiz-adv-x="1349" unicode="fl"/><glyph d="M305 1536h844l-215 -1536h-844zM817 137l178 1264h-573l-178 -1264h573z" glyph-name=".notdef" horiz-adv-x="1208"/><glyph glyph-name="glyph1"/><glyph glyph-name="glyph2" horiz-adv-x="681"/><glyph glyph-name="space" horiz-adv-x="524" unicode=" "/><glyph d="M336 1536h168l-166 -1098h-143zM203 -16q-47 0 -77 35.5t-24 82.5q8 49 47 83t87 34q49 0 78.5 -33.5t21.5 -83.5q-6 -47 -46 -82.5t-87 -35.5z" glyph-name="exclam" horiz-adv-x="595" unicode="!"/><glyph d="M453 1538q43 0 67.5 -30.5t16.5 -80.5q-6 -45 -32 -99t-46 -87l-23 -31h-59q-10 23 -21 58l-37 -58h-59q-6 12 -14 35t-18.5 80t-4.5 102q8 49 40 80t75 31q35 0 55 -18q25 18 60 18z" glyph-name="quotedbl" horiz-adv-x="544" unicode="&quot;"/><glyph d="M371 358h-289l37 131h289l135 474h-291l39 129h284l103 360h129l-100 -360h385l100 360h131l-102 -360h290l-38 -129h-287l-133 -474h286l-34 -131h-287l-105 -358h-127l101 358h-389l-99 -358h-129zM922 489l135 474h-387l-133 -474h385z" glyph-name="numbersign" horiz-adv-x="1574" unicode="#"/><glyph d="M799 860q207 -82 280 -145q133 -111 107 -289q-27 -188 -168 -303t-342 -137l-23 -162h-135l23 158q-211 12 -327 141t-105 313h178q4 -111 69.5 -190.5t208.5 -91.5l82 589h-2q-61 25 -87 35t-81 37t-80.5 46.5t-62.5 52t-52.5 65.5t-24.5 79t-1 97q27 178 171 282.5 t335 116.5l18 132h135l-18 -134q379 -39 393 -432h-166q0 98 -59 176t-191 99zM444 1165q-12 -88 47.5 -144t180.5 -108l67 486q-113 -12 -197 -72t-98 -162zM999 420q16 102 -43 162.5t-180 109.5l-76 -534q125 18 204 83.5t95 178.5z" glyph-name="dollar" horiz-adv-x="1325" unicode="$"/><glyph d="M428 909q-117 0 -185.5 95.5t-50 228.5t113.5 228t212 95t186.5 -95t49.5 -228q-18 -133 -113.5 -228.5t-212.5 -95.5zM1319 1536h182l-1265 -1536h-183zM446.5 1044q59.5 0 110.5 55.5t61.5 133.5t-24.5 133t-94.5 55t-108.5 -55t-61 -133q-10 -78 23.5 -133.5t93 -55.5 zM1036.5 -20q-116.5 0 -185.5 95t-50 230q18 133 114.5 228.5t213 95.5t184 -94.5t51.5 -229.5q-20 -135 -115.5 -230t-212 -95zM1057 117q59 0 108 54t60 134q10 78 -24 132.5t-93 54.5q-61 0 -111.5 -54.5t-58.5 -132.5q-12 -80 23 -134t96 -54z" glyph-name="percent" horiz-adv-x="1523" unicode="%"/><glyph d="M518 -39q-190 0 -310 126t-93 300q35 268 313 420q-133 164 -111 315q25 168 133.5 270.5t280.5 100.5q139 -2 223 -103.5t64 -244.5q-14 -113 -100.5 -210t-223.5 -159l299 -344l234 346h190l-317 -465l264 -338h-238l-157 195q-203 -209 -451 -209zM606 891 q229 94 252 256q12 88 -30 145.5t-119 57.5q-193 0 -232 -228q-12 -102 129 -231zM545 129q176 0 332 164l-359 405q-217 -111 -242 -301q-16 -121 58 -194.5t211 -73.5z" glyph-name="ampersand" horiz-adv-x="1499" unicode="&amp;"/><glyph d="M342 1538q43 0 67.5 -30.5t16.5 -80.5q-6 -45 -31.5 -99t-46.5 -87l-22 -31h-62q-6 12 -13 35t-18.5 80t-5.5 102q8 49 40 80t75 31z" glyph-name="quotesingle" horiz-adv-x="350" unicode="'"/><glyph d="M391 -451q-125 125 -196.5 406t-26.5 600q47 342 202.5 627.5t358.5 435.5h129q-203 -170 -347 -467t-187 -596q-39 -279 12 -548t186 -460z" glyph-name="parenleft" horiz-adv-x="821" unicode="("/><glyph d="M485 1618q125 -127 197 -406.5t27 -599.5q-47 -342 -204 -626.5t-358 -438.5h-129q203 170 348.5 468t186.5 597q39 279 -12.5 547t-184.5 459h129z" glyph-name="parenright" horiz-adv-x="821" unicode=")"/><glyph d="M242 1098l131 153l-193 -16l15 100l186 -16l-86 154l90 51l57 -172l105 172l82 -51l-133 -154l192 16l-14 -100l-189 16l90 -153l-94 -51l-57 170l-105 -170z" glyph-name="asterisk" horiz-adv-x="690" unicode="*"/><glyph d="M739 537h-460l18 122h461l67 492h121l-67 -492h460l-18 -122h-461l-67 -492h-121z" glyph-name="plus" horiz-adv-x="1632" unicode="+"/><glyph d="M78 -2q-74 31 -62 113q6 49 45 82.5t89 33.5q47 0 74.5 -33.5t21.5 -82.5q-8 -55 -68.5 -140.5t-97.5 -122.5h-74z" glyph-name="comma" horiz-adv-x="425" unicode=","/><glyph d="M174 594h717l-19 -123h-716z" glyph-name="hyphen" horiz-adv-x="1079" unicode="-"/><glyph d="M90 -20q-47 0 -77.5 34.5t-22.5 81.5q6 49 46 84t87 35q49 0 78.5 -35t23.5 -84q-8 -47 -47 -81.5t-88 -34.5z" glyph-name="period" horiz-adv-x="372" unicode="."/><glyph d="M842 1536h168l-1047 -2048h-170z" glyph-name="slash" horiz-adv-x="983" unicode="/"/><glyph d="M598 -20q-276 0 -393 218t-70 570q49 350 230.5 569t453.5 219q207 0 329 -104t149.5 -279.5t-1.5 -404.5q-33 -236 -111.5 -407t-229 -276t-357.5 -105zM621 135q414 0 499 633q90 633 -319 633q-197 0 -323 -174t-167 -459q-39 -287 35 -459t275 -174z" glyph-name="zero" horiz-adv-x="1388" unicode="0"/><glyph d="M475 1327l-348 -246l27 207l362 248h164l-215 -1536h-176z" glyph-name="one" horiz-adv-x="800" unicode="1"/><glyph d="M8 119q641 573 748 680q160 158 190 254q8 27 12 57q18 137 -54.5 213t-194.5 78q-129 4 -225.5 -78t-116.5 -217l-168 2q25 199 180.5 326t357.5 125q188 -2 301 -117t92 -305q-18 -164 -141 -302.5t-588 -551.5q-92 -82 -141 -127h784l-22 -156h-1030z" glyph-name="two" horiz-adv-x="1208" unicode="2"/><glyph d="M471 -20q-207 0 -334 131t-100 315l174 2q-14 -119 71 -203t212 -84q139 0 248.5 83t131.5 233q16 129 -58.5 219t-203.5 90h-120l18 141h113q102 0 183 73t97 177q14 102 -54.5 170t-193.5 68q-113 0 -197.5 -61.5t-105.5 -164.5l-168 5q33 180 181.5 281t312.5 101 q193 0 301 -110.5t86 -271.5q-14 -98 -77.5 -180.5t-158.5 -129.5q117 -55 177.5 -164.5t40.5 -244.5q-31 -213 -194 -344t-382 -131z" glyph-name="three" horiz-adv-x="1216" unicode="3"/><glyph d="M1061 324h-162l-45 -324h-174l45 324h-741l16 112l852 1100h217l-147 -1057h159zM748 479l122 873l-659 -873h537z" glyph-name="four" horiz-adv-x="1226" unicode="4"/><glyph d="M520 -20q-197 0 -317.5 113.5t-110.5 268.5h160q12 -98 88 -160.5t195 -60.5q154 2 270.5 104.5t136.5 256.5q23 152 -66.5 257t-238.5 105q-164 0 -307 -123l-140 70l191 721h793l-25 -156h-653l-129 -467q143 111 331 111q211 0 332 -146.5t88 -365.5 q-31 -227 -201 -377.5t-397 -150.5z" glyph-name="five" horiz-adv-x="1261" unicode="5"/><glyph d="M565 -16q-207 0 -340 142t-125 353q2 123 23 254q49 352 206.5 568.5t428.5 244.5q45 4 63 4q199 0 321 -116.5t113 -262.5h-174q2 76 -69.5 148t-204.5 72q-123 0 -218 -50.5t-154.5 -138.5t-95.5 -189.5t-52 -221.5q41 78 110.5 132t141 74.5t113.5 27.5t69 7 q233 0 355 -139t104 -358q-23 -225 -204.5 -388t-410.5 -163zM588 135q158 0 278.5 108.5t143.5 262.5q20 160 -72 266.5t-250 106.5q-154 0 -274.5 -108.5t-143.5 -260.5q-20 -160 71 -267.5t247 -107.5z" glyph-name="six" horiz-adv-x="1320" unicode="6"/><glyph d="M995 1380h-821l21 156h1026l-19 -115l-991 -1421h-199z" glyph-name="seven" horiz-adv-x="1128" unicode="7"/><glyph d="M834 854q115 -55 172 -163.5t38 -244.5q-29 -197 -190.5 -331.5t-370.5 -134.5q-207 0 -329.5 135t-94.5 331q18 135 105.5 244t216.5 164q-76 51 -114 135t-23 185q20 162 155.5 272t307.5 110t275 -110.5t81 -271.5q-14 -100 -75.5 -184.5t-153.5 -135.5zM688 1415 q-109 0 -195.5 -73.5t-101 -180t51 -181.5t173.5 -75q106 0 193.5 75t102 181.5t-51.5 180t-172 73.5zM506 135q133 0 238.5 94.5t123.5 229.5q18 133 -60.5 223t-211.5 90t-237.5 -91t-122.5 -222q-18 -133 60.5 -228.5t209.5 -95.5z" glyph-name="eight" horiz-adv-x="1161" unicode="8"/><glyph d="M565 -12q-205 0 -327.5 112.5t-114.5 259.5l176 -2q-4 -74 69.5 -142.5t217.5 -68.5q31 0 47 3q182 18 294.5 177.5t153.5 411.5q-43 -74 -107.5 -125t-130 -72.5t-107.5 -28.5t-72 -7q-238 0 -365 145.5t-98.5 366.5t209 378.5t403.5 157.5q209 0 340 -142t125 -355 q0 -119 -21 -258q-53 -371 -224 -591t-468 -220zM692 655q156 0 274.5 108.5t141.5 262.5q23 158 -69.5 265.5t-245.5 107.5q-158 0 -280 -109.5t-144 -263.5q-20 -160 72.5 -265.5t250.5 -105.5z" glyph-name="nine" horiz-adv-x="1320" unicode="9"/><glyph d="M319 811q-47 0 -76.5 34t-23.5 83q8 47 47 81.5t86 34.5t78 -34.5t25 -81.5q-6 -49 -46.5 -83t-89.5 -34zM203 -20q-47 0 -77 34.5t-24 81.5q8 49 47 84t89 35q47 0 76.5 -35t23.5 -84q-8 -47 -48 -81.5t-87 -34.5z" glyph-name="colon" horiz-adv-x="598" unicode=":"/><glyph d="M315 807q-47 0 -76.5 33.5t-23.5 83.5q6 47 46 81.5t87 34.5t77 -34.5t24 -81.5q-6 -49 -45.5 -83t-88.5 -34zM164 -2q-74 31 -64 113q8 47 47 81.5t89 34.5q47 0 74.5 -34.5t19.5 -81.5q-6 -55 -64.5 -137.5t-99.5 -127.5h-74z" glyph-name="semicolon" horiz-adv-x="614" unicode=";"/><glyph d="M1389 1204l-1059 -499l917 -500l-20 -152l-1051 572l25 159l1210 568z" glyph-name="less" horiz-adv-x="1492" unicode="&lt;"/><glyph d="M139 797h1229l-16 -117h-1229zM86 408h1229l-17 -117h-1228z" glyph-name="equal" horiz-adv-x="1468" unicode="="/><glyph d="M1331 784l-24 -159l-1211 -572l21 152l1061 500l-920 499l23 148z" glyph-name="greater" horiz-adv-x="1492" unicode=">"/><glyph d="M467 512q12 88 60 162t109.5 124t123 97t107.5 104.5t55 120.5q16 119 -54.5 195t-197.5 76q-125 0 -217.5 -77t-110.5 -196h-158q27 184 170.5 306t336 122t303 -121.5t83.5 -304.5q-10 -78 -58 -148.5t-109.5 -124.5t-122 -103.5t-105.5 -104.5t-53 -109l-21 -143h-159 zM479 -20q-49 0 -78.5 34.5t-21.5 81.5q6 49 46 84t87 35t78 -35t22 -84q-6 -47 -46 -81.5t-87 -34.5z" glyph-name="question" horiz-adv-x="1134" unicode="?"/><glyph d="M592 -20q-264 0 -411.5 168.5t-112.5 431.5q37 260 245.5 442t468.5 182q252 0 392.5 -151.5t107.5 -388.5q-23 -168 -115 -274.5t-213 -106.5q-131 0 -155 100q-98 -109 -221 -109q-113 0 -171.5 75t-41.5 198q23 145 125 248.5t227 103.5q106 0 153 -70l13 58h133 l-94 -369q-33 -121 49 -121q70 0 121 71t67 194q29 195 -78.5 310t-316.5 115q-211 0 -373 -144t-192 -361q-31 -215 81.5 -350.5t327.5 -135.5zM610 389q72 0 133.5 67.5t73.5 161.5q12 78 -17.5 121t-94.5 43q-72 0 -130.5 -67.5t-74.5 -167.5q-10 -74 19.5 -116t90.5 -42 z" glyph-name="at" horiz-adv-x="1232" unicode="@"/><glyph d="M1094 379h-740l-198 -379h-199l831 1536h203l402 -1536h-197zM1063 539l-201 811l-426 -811h627z" glyph-name="A" horiz-adv-x="1533" unicode="A"/><glyph d="M907 805q135 -31 206 -139.5t50 -257.5q-27 -178 -164 -293t-315 -115h-692l215 1536h604q182 0 289.5 -113.5t81.5 -292.5q-18 -127 -93.5 -213.5t-181.5 -111.5zM997 1110q16 111 -50 188.5t-175 77.5h-405l-74 -512h405q113 0 199 68.5t100 177.5zM682 162 q111 0 199 78.5t104 187.5q16 111 -50.5 199t-174.5 88h-488l-77 -553h487z" glyph-name="B" horiz-adv-x="1257" unicode="B"/><glyph d="M709 -20q-324 -2 -498 226t-127 562t284.5 561t561.5 227q150 0 270.5 -48t189 -124.5t104.5 -165t32 -174.5h-187q-10 127 -115.5 233.5t-318.5 106.5q-254 0 -433 -176t-216 -440q-37 -262 93 -438t384 -176q195 0 341.5 101t182.5 214h187q-20 -78 -82 -161 t-154 -156.5t-224 -121.5t-275 -50z" glyph-name="C" horiz-adv-x="1587" unicode="C"/><glyph d="M262 1536h469q162 0 293 -46t224 -138t131 -245t10 -351q-47 -348 -295 -552t-578 -204h-469zM535 162q260 0 447 152.5t226 441.5q45 322 -94 471t-407 149h-287l-172 -1214h287z" glyph-name="D" horiz-adv-x="1476" unicode="D"/><glyph d="M387 1376l-74 -526h682l-22 -162h-682l-76 -526h770l-22 -162h-951l215 1536h951l-21 -160h-770z" glyph-name="E" horiz-adv-x="1171" unicode="E"/><glyph d="M391 1376l-74 -526h678l-24 -162h-678l-96 -688h-181l215 1536h945l-21 -160h-764z" glyph-name="F" horiz-adv-x="1142" unicode="F"/><glyph d="M1454 784l-24 -166l-87 -618h-120l-2 244q-104 -131 -232.5 -192.5t-320.5 -61.5q-217 0 -366.5 108.5t-208 282.5t-27.5 383q49 348 275 568t540 220q258 0 416.5 -128t160.5 -361h-172q-20 156 -138 238.5t-280 82.5q-252 0 -424 -170t-211 -450q-39 -270 94.5 -439 t360.5 -169q248 0 391.5 127t173.5 344h-419l22 157h598z" glyph-name="G" horiz-adv-x="1546" unicode="G"/><glyph d="M1462 1536l-215 -1536h-180l96 688h-823l-96 -688h-183l215 1536h183l-97 -686h824l96 686h180z" glyph-name="H" horiz-adv-x="1492" unicode="H"/><glyph d="M276 1536h183l-215 -1536h-183z" glyph-name="I" horiz-adv-x="503" unicode="I"/><glyph d="M145 -20q-92 0 -155 18l26 186q63 -23 150 -22q72 0 131 51t68 123l170 1200h178l-170 -1206q-20 -147 -135.5 -248.5t-262.5 -101.5z" glyph-name="J" horiz-adv-x="749" unicode="J"/><glyph d="M938 0l-627 709l-98 -709h-182l215 1536h182l-102 -727l751 725h223l-794 -768l665 -766h-233z" glyph-name="K" horiz-adv-x="1302" unicode="K"/><glyph d="M231 1536h181l-193 -1374h563l-20 -162h-746z" glyph-name="L" horiz-adv-x="944" unicode="L"/><glyph d="M1790 1536l-215 -1536h-180l178 1272l-696 -1272h-148l-338 1272l-178 -1272h-182l215 1536h248l340 -1307l710 1307h246z" glyph-name="M" horiz-adv-x="1820" unicode="M"/><glyph d="M1497 1536l-215 -1536h-172l-754 1245l-174 -1245h-182l215 1536h172l756 -1243l174 1243h180z" glyph-name="N" horiz-adv-x="1511" unicode="N"/><glyph d="M709 -20q-326 0 -506 228t-133 560t291.5 560t568 228t505 -228t134.5 -560t-291.5 -560t-568.5 -228zM733 154q254 0 439.5 176t222.5 438t-98.5 439t-391.5 177q-254 0 -440 -177t-223 -439q-37 -260 99 -437t392 -177z" glyph-name="O" horiz-adv-x="1636" unicode="O"/><glyph d="M866 1536q178 0 286 -137t81 -319.5t-172.5 -317.5t-321.5 -135h-454l-88 -627h-181l215 1536h635zM748 778q113 0 208 89t113 210q16 119 -53.5 209t-184.5 90h-440l-86 -598h443z" glyph-name="P" horiz-adv-x="1259" unicode="P"/><glyph d="M1538 147l-20 -147h-39q-141 0 -228 106l-39 48q-229 -174 -503 -174q-326 0 -506 228t-133 560t291.5 560t568 228t505 -228t134.5 -560q-41 -287 -234 -500l49 -59q49 -61 129 -62h25zM733 154q211 0 377 125l-217 268l125 110l215 -262q131 160 162 373 q37 262 -98.5 439t-391.5 177q-254 0 -440 -177t-223 -439q-37 -260 99 -437t392 -177z" glyph-name="Q" horiz-adv-x="1656" unicode="Q"/><glyph d="M1126 0h-202l-299 637h-355l-88 -637h-182l215 1536h637q176 0 283.5 -137t83.5 -322q-23 -158 -142 -282.5t-270 -147.5zM739 784q113 0 205 89.5t108.5 208t-51 206.5t-178.5 88h-448l-84 -592h448z" glyph-name="R" horiz-adv-x="1290" unicode="R"/><glyph d="M516 -20q-233 0 -366.5 132t-122.5 324h176q6 -119 89 -201.5t253 -82.5q162 0 272.5 68.5t130.5 199.5q10 63 -9 111.5t-82.5 88t-100.5 56t-135 51.5q-29 10 -43 16q-84 31 -130.5 50.5t-112 57.5t-98 76t-53 97t-10.5 131q29 188 195 294.5t372 106.5 q242 0 360 -111.5t124 -309.5h-166q0 111 -86 188.5t-250 77.5q-129 0 -237.5 -61.5t-125.5 -174.5q-6 -43 10.5 -79.5t38 -60.5t72.5 -53.5t79 -40.5t97 -40q23 -10 35 -14q205 -84 246 -107q211 -117 201 -309q-2 -18 -4 -35q-31 -209 -209.5 -327.5t-409.5 -118.5z" glyph-name="S" horiz-adv-x="1218" unicode="S"/><glyph d="M1223 1376h-461l-195 -1374h-178l193 1374h-463l22 162h1104z" glyph-name="T" horiz-adv-x="1183" unicode="T"/><glyph d="M584 -20q-244 0 -393.5 152.5t-118.5 371.5l145 1032h182l-141 -1004q-23 -164 79.5 -277.5t270.5 -113.5t309.5 115t163.5 276l140 1004h180l-146 -1032q-31 -219 -228 -371.5t-443 -152.5z" glyph-name="U" horiz-adv-x="1423" unicode="U"/><glyph d="M1554 1536l-831 -1536h-201l-403 1536h205l327 -1325l701 1325h202z" glyph-name="V" horiz-adv-x="1476" unicode="V"/><glyph d="M2206 1536l-684 -1536h-211l-174 1204l-506 -1204h-211l-266 1536h194l205 -1327l543 1327h184l166 -1329l565 1329h195z" glyph-name="W" horiz-adv-x="2129" unicode="W"/><glyph d="M979 0l-326 631l-501 -631h-209l632 780l-401 756h205l315 -606l488 606h207l-617 -756l418 -780h-211z" glyph-name="X" horiz-adv-x="1316" unicode="X"/><glyph d="M764 729l-102 -729h-181l101 725l-422 811h202l332 -653l516 653h201z" glyph-name="Y" horiz-adv-x="1325" unicode="Y"/><glyph d="M1182 162l-23 -162h-1163l12 94l1069 1282h-864l20 160h1115l-15 -94l-1067 -1280h916z" glyph-name="Z" horiz-adv-x="1343" unicode="Z"/><glyph d="M305 1698h420l-18 -125h-265l-297 -2122h265l-19 -125h-418z" glyph-name="bracketleft" horiz-adv-x="571" unicode="["/><glyph d="M180 1536l340 -1536l101 -512l-338 1536z" glyph-name="backslash" horiz-adv-x="1198" unicode="\"/><glyph d="M-10 -549h264l299 2122h-264l16 125h420l-334 -2372h-418z" glyph-name="bracketright" horiz-adv-x="571" unicode="]"/><glyph d="M1169 406l-358 989l-637 -989h-151l729 1130h159l410 -1130h-152z" glyph-name="asciicircum" horiz-adv-x="1417" unicode="^"/><glyph d="M90 0h1024l-18 -123h-1024z" glyph-name="underscore" horiz-adv-x="1386" unicode="_"/><glyph d="M182 1536h180l142 -315h-144z" glyph-name="grave" horiz-adv-x="94" unicode="`"/><glyph d="M340 -10q-164 0 -256 91t-72 236q23 154 150 250.5t364 112.5l279 18l6 37q16 125 -46.5 188.5t-189.5 63.5q-115 0 -196.5 -62.5t-108.5 -164.5h-170q37 160 166 270.5t336 110.5q205 0 306.5 -107.5t74.5 -302.5q-12 -82 -25.5 -182t-22.5 -170t-11 -78q-12 -86 3 -121 t60 -33l-20 -147q-23 0 -64 4q-152 25 -160 156q-57 -74 -168.5 -122t-234.5 -48zM389 141q123 0 234.5 74t138.5 170l22 172l-260 -20q-309 -25 -334 -215q-12 -82 49.5 -131.5t149.5 -49.5z" glyph-name="a" horiz-adv-x="1114" unicode="a"/><glyph d="M745 1137q229 0 350.5 -166t86.5 -412t-201 -409.5t-395 -163.5q-248 0 -361 196l-45 -182h-157l215 1536h188l-82 -588q161 189 401 189zM578 150q162 0 277.5 117.5t139.5 291.5q25 176 -57 294t-244 118q-129 0 -235.5 -85t-155.5 -218l-29 -215q10 -133 92.5 -218 t211.5 -85z" glyph-name="b" horiz-adv-x="1236" unicode="b"/><glyph d="M487 -12q-233 0 -356 164.5t-88 414.5t203 410t403 160q215 0 333 -113t114 -274h-172q-4 98 -84 163.5t-201 65.5q-164 0 -275.5 -111.5t-136.5 -300.5q-29 -190 53 -303.5t246 -113.5q117 0 210 66.5t136 168.5h168q-55 -168 -198.5 -282.5t-354.5 -114.5z" glyph-name="c" horiz-adv-x="1159" unicode="c"/><glyph d="M1260 1536l-216 -1536h-161l6 178q-164 -188 -412 -188q-229 0 -350 160.5t-86 406.5t203 413t397 167q238 0 350 -191l82 590h187zM530 147q129 0 235.5 84t156.5 218l30 217q-12 133 -95 217t-212 84q-160 0 -276.5 -117t-141.5 -293q-25 -174 58 -292t245 -118z" glyph-name="d" horiz-adv-x="1247" unicode="d"/><glyph d="M1073 569q-4 -31 -12 -67h-844q-18 -166 70 -262.5t215 -98.5q123 -2 212 51.5t130 143.5h162q-16 -57 -54.5 -113.5t-99.5 -112t-155.5 -88t-207.5 -32.5q-236 2 -356.5 164.5t-87.5 406.5q37 250 199 412t403 162q231 0 346 -156t80 -410zM627 979q-145 0 -245.5 -91 t-139.5 -245h667q4 156 -67.5 246t-214.5 90z" glyph-name="e" horiz-adv-x="1148" unicode="e"/><glyph d="M168 0l135 975h-151l20 143h152l12 101q18 129 98 218t201 103q61 8 124.5 -3t98.5 -38l-22 -143q-27 14 -62 24.5t-85 10.5t-85 -23q-68 -47 -86 -172l-10 -78h240l-21 -143h-240l-137 -975h-182z" glyph-name="f" horiz-adv-x="790" unicode="f"/><glyph d="M385 -498q-217 -2 -344 89.5t-113 238.5q6 78 55.5 150.5t131.5 111.5q-113 78 -103 174q10 63 52 107.5t118 89.5q-94 102 -73 282q25 164 162 277t323 113q150 0 248 -70q31 63 106.5 101t147.5 34l-21 -145q-43 4 -85 -16.5t-60 -61.5q68 -111 49 -238 q-23 -176 -160 -285.5t-334 -111.5q-145 -4 -219 49q-39 -14 -61.5 -45t-18.5 -63q16 -90 170 -93l224 -2q356 -6 362 -262q-2 -180 -151.5 -301t-405.5 -123zM801 741q14 100 -50.5 168t-179.5 68q-113 0 -194.5 -67.5t-97.5 -170.5q-14 -100 50 -168.5t175 -68.5 q115 0 199 68.5t98 170.5zM764 -90q-2 131 -272 131h-224q-66 -16 -108.5 -67.5t-50.5 -114.5q-12 -92 70.5 -146.5t211.5 -54.5q176 0 276.5 70.5t96.5 181.5z" glyph-name="g" horiz-adv-x="1097" unicode="g"/><glyph d="M766 1139q186 0 283.5 -112t70.5 -298l-102 -729h-193l101 707q16 121 -47.5 191.5t-188.5 70.5q-131 0 -239.5 -77t-124.5 -194l-99 -698h-190l215 1534h190l-80 -567q72 78 181.5 125t222.5 47z" glyph-name="h" horiz-adv-x="1198" unicode="h"/><glyph d="M317 1305q-47 0 -76.5 33.5t-21.5 82.5q6 47 45 82t86 35q49 0 79 -35t22 -82q-6 -49 -45.5 -82.5t-88.5 -33.5zM201 1126h188l-158 -1126h-188z" glyph-name="i" horiz-adv-x="462" unicode="i"/><glyph d="M379 1305q-47 0 -77 34.5t-23.5 81.5t46.5 82t87 35q45 0 75.5 -35t22.5 -82q-6 -47 -45 -81.5t-86 -34.5zM-172 -508l22 162h46q92 0 131 42t51 124l182 1306h178l-184 -1327q-43 -307 -381 -307h-45z" glyph-name="j" horiz-adv-x="522" unicode="j"/><glyph d="M29 0l215 1536h190l-125 -893l477 483h222l-543 -530l453 -596h-222l-403 530l-74 -530h-190z" glyph-name="k" horiz-adv-x="995" unicode="k"/><glyph d="M88 0l215 1536h178l-215 -1536h-178z" glyph-name="l" horiz-adv-x="546" unicode="l"/><glyph d="M1470 1137q178 0 267.5 -106.5t62.5 -289.5l-104 -741h-191l103 721q16 115 -39.5 182.5t-169.5 67.5q-121 0 -220.5 -74t-115.5 -188l-100 -709h-189l100 721q16 115 -39 182.5t-169 67.5q-121 0 -220.5 -74t-115.5 -188l-99 -709h-190l158 1126h172l-17 -161 q68 78 172.5 125t208.5 47q219 0 305 -217q72 96 190.5 156.5t239.5 60.5z" glyph-name="m" horiz-adv-x="1902" unicode="m"/><glyph d="M752 1139q184 0 278 -112t68 -300l-101 -727h-188l98 709q16 119 -46 190.5t-183 71.5q-131 0 -237.5 -76t-123.5 -195l-98 -700h-188l157 1126h164l-4 -168q70 82 180.5 131.5t223.5 49.5z" glyph-name="n" horiz-adv-x="1204" unicode="n"/><glyph d="M500 -14q-242 0 -373 166.5t-96 412.5q37 246 213 413t417.5 167t371.5 -167t95.5 -413t-211.5 -412.5t-417 -166.5zM522 156q162 0 277.5 117.5t140.5 291.5q25 176 -58 294t-245 118t-277.5 -118t-140.5 -294q-25 -174 58 -291.5t245 -117.5z" glyph-name="o" horiz-adv-x="1187" unicode="o"/><glyph d="M741 1137q229 0 349 -161t85.5 -406.5t-203.5 -411.5t-399 -166q-233 0 -346 188l-100 -702h-188l233 1648h170l-6 -170q155 181 405 181zM571 160q162 0 278 117.5t140 291.5q25 176 -58 293t-245 117q-131 0 -236.5 -84t-152.5 -219l-31 -215q10 -133 93 -217t212 -84z " glyph-name="p" horiz-adv-x="1222" unicode="p"/><glyph d="M1180 1128l-234 -1648h-186l100 702q-168 -190 -407 -190q-227 0 -347 166t-86 413q35 246 200 406t394 160q248 0 355 -181l37 172h174zM508 160q129 0 234.5 84t156.5 219l31 215q-12 135 -95 219t-212 84q-160 0 -277 -118t-139 -292q-25 -174 58 -292.5t243 -118.5z " glyph-name="q" horiz-adv-x="1198" unicode="q"/><glyph d="M795 1137l-27 -162q-178 10 -304 -83t-155 -282l-84 -610h-192l157 1126h172l-8 -204q134 229 441 215z" glyph-name="r" horiz-adv-x="772" unicode="r"/><glyph d="M410 -18q-209 0 -307.5 108.5t-90.5 241.5h166q2 -80 74 -143.5t176 -61.5t179 55.5t85 136.5q12 86 -56.5 130.5t-201.5 68.5q-160 33 -248 98.5t-67 202.5q18 147 148 235.5t298 88.5q176 0 273.5 -82t93.5 -238h-160q-6 88 -69.5 127t-137.5 43q-94 4 -167.5 -35.5 t-84.5 -115.5q-10 -82 53.5 -119t192.5 -61q72 -14 127 -35t108.5 -58t78 -97t12.5 -140q-23 -152 -157 -251t-318 -99z" glyph-name="s" horiz-adv-x="999" unicode="s"/><glyph d="M465 -2q-162 0 -241 65.5t-54 241.5l96 676h-176l21 149h176l57 406h182l-57 -406h266l-20 -151l-271 2l-92 -655q-12 -84 13.5 -125t121.5 -41h125l-24 -162h-123z" glyph-name="t" horiz-adv-x="755" unicode="t"/><glyph d="M1161 1126l-157 -1126h-168l6 170q-72 -82 -182.5 -132t-221.5 -50q-184 0 -285.5 118.5t-74.5 303.5l100 716h193l-97 -694q-18 -123 45.5 -198.5t188.5 -75.5q129 0 238.5 77.5t125.5 196.5l99 694h190z" glyph-name="u" horiz-adv-x="1200" unicode="u"/><glyph d="M1208 1118l-604 -1118h-184l-291 1118h205l211 -895l459 895h204z" glyph-name="v" horiz-adv-x="1175" unicode="v"/><glyph d="M1694 1118l-498 -1118h-215l-111 827l-338 -827h-213l-186 1118h213l121 -891l358 891h185l104 -895l369 895h211z" glyph-name="w" horiz-adv-x="1679" unicode="w"/><glyph d="M678 559l323 -559h-225l-233 422l-348 -422h-228l477 559l-319 567h225l232 -430l352 430h225z" glyph-name="x" horiz-adv-x="1161" unicode="x"/><glyph d="M1188 1126l-901 -1652h-176l325 594h-49l-293 1058h191l245 -880l467 880h191z" glyph-name="y" horiz-adv-x="1171" unicode="y"/><glyph d="M14 131l762 836h-631l23 159h883l-17 -125l-764 -841h664l-23 -160h-915z" glyph-name="z" horiz-adv-x="1064" unicode="z"/><glyph d="M281 -651q-90 0 -139.5 79.5t-32.5 196.5l67 488q25 143 5.5 216.5t-109.5 121.5l16 120q104 47 141 116t60 220l67 484q16 117 88 196.5t164 79.5h94l-18 -121q-96 0 -136 -33.5t-54 -130.5l-72 -505q-18 -129 -58 -217.5t-133 -149.5q74 -61 92.5 -159.5t-6.5 -207.5 l-69 -512q-12 -84 18.5 -119.5t126.5 -35.5l-18 -127h-94z" glyph-name="braceleft" horiz-adv-x="661" unicode="{"/><glyph d="M358 1536h115l-258 -1843h-115z" glyph-name="bar" horiz-adv-x="585" unicode="|"/><glyph d="M-66 -524q96 0 138.5 35.5t52.5 119.5l72 512q20 131 60 218.5t134 148.5q-76 61 -94 159.5t4 207.5l72 505q14 96 -16.5 130t-129.5 34l17 125h96q90 0 140 -80t34 -196l-70 -488q-25 -137 -5 -213t112 -123l-16 -120q-104 -47 -142.5 -115t-60.5 -223l-68 -488 q-16 -117 -88 -196.5t-162 -79.5h-96z" glyph-name="braceright" horiz-adv-x="661" unicode="}"/><glyph d="M750 369q-59 0 -111.5 28.5t-73 52t-55.5 70.5q-76 104 -156 105q-84 0 -144 -68t-69 -166h-100q12 145 105.5 238.5t220.5 93.5q80 0 133 -38t100 -114q70 -106 158 -106q82 0 142.5 64.5t66.5 164.5h98q-8 -139 -99 -232t-216 -93z" glyph-name="asciitilde" horiz-adv-x="1140" unicode="~"/><glyph d="M317.5 791q-49.5 0 -79 33.5t-21.5 82.5q8 47 47 82t86 35t78 -35t23 -82q-6 -49 -45 -82.5t-88.5 -33.5zM219 580h137l-137 -1092h-174z" glyph-name="exclamdown" horiz-adv-x="598" unicode="¡"/><glyph d="M715 1094q-158 0 -283 -110t-147 -267q-23 -156 71.5 -266.5t251.5 -110.5q168 0 291 98l-27 -174q-125 -74 -266 -80l-26 -186h-109l29 195q-195 29 -306.5 177t-85 346.5t180 347t358.5 177.5l27 197h108l-26 -189q135 -6 245 -78l-24 -174q-96 97 -262 97z" glyph-name="cent" horiz-adv-x="1069" unicode="¢"/><glyph d="M92 791h131q-18 141 0 264q27 195 177.5 320.5t357.5 125.5q209 0 316.5 -118.5t82.5 -323.5h-182q4 145 -53.5 208.5t-188.5 63.5q-125 0 -213 -76.5t-104 -199.5q-16 -115 -2 -264h469l-23 -160h-428q10 -125 -4 -236q-10 -70 -43 -133q55 -14 177 -70.5t181 -56.5 q170 0 197 207h174q-23 -172 -128 -276.5t-257 -104.5q-84 0 -172 37t-161.5 72.5t-123.5 35.5q-119 0 -135 -129h-174q12 102 79 181.5t161 105.5q41 68 47 133q16 98 -4 234h-176z" glyph-name="sterling" horiz-adv-x="1236" unicode="£"/><glyph d="M106 377l119 102q-72 115 -50 264.5t126 264.5l-88 102l109 100l90 -106q131 90 277.5 90t250.5 -90l119 104l84 -96l-117 -102q72 -117 51.5 -265.5t-127.5 -265.5l88 -102l-108 -101l-90 107q-127 -88 -276.5 -88t-254.5 88l-121 -107zM371 522q80 -94 211 -94t237 94 q102 90 120.5 221t-58.5 224q-80 90 -211 90t-238 -92q-102 -92 -120.5 -222.5t59.5 -220.5z" glyph-name="currency" horiz-adv-x="1228" unicode="¤"/><glyph d="M774 725h414l-17 -119h-415l-29 -198h416l-17 -111h-415l-41 -297h-156l41 297h-412l17 111h411l29 198h-412l17 119h405v29l-407 782h168l342 -672l530 672h168l-627 -782z" glyph-name="yen" horiz-adv-x="1368" unicode="¥"/><glyph d="M358 1536h115l-104 -737h-115zM203 430h114l-102 -737h-115z" glyph-name="brokenbar" horiz-adv-x="585" unicode="¦"/><glyph d="M1030 506q72 -76 55 -180q-18 -143 -177.5 -232.5t-362.5 -89.5q-172 0 -301 66.5t-172 167.5l121 67q31 -78 130 -128t244 -50q150 0 260.5 53t122.5 148q10 76 -64.5 125t-187 79.5t-225.5 66.5t-184.5 108.5t-57.5 181.5q14 106 109 184q-70 72 -55 178 q20 143 159.5 224t315.5 81q123 0 228.5 -39.5t162.5 -105.5l-104 -76q-94 104 -295 105q-127 0 -224.5 -48.5t-109.5 -134.5q-8 -66 44 -111.5t137 -70t184.5 -56.5t183.5 -65.5t134 -101.5t36 -162q-15 -102 -107 -184zM369 893q-10 -68 47 -116t137 -72.5t195.5 -60.5 t181.5 -69q66 53 71 117q10 66 -48 114t-138 70.5t-195.5 58.5t-179.5 69q-65 -43 -71 -111z" glyph-name="section" horiz-adv-x="1257" unicode="§"/><glyph d="M319 1208q-49 0 -78.5 35t-21.5 84q6 47 46 82t87 35t78 -35t23 -82q-6 -49 -46.5 -84t-87.5 -35zM700 1208q-49 0 -78.5 35t-23.5 84q8 47 48 82t87 35t77 -35t21 -82q-6 -49 -45 -84t-86 -35z" glyph-name="dieresis" horiz-adv-x="94" unicode="¨"/><glyph d="M792.5 -20q-325.5 0 -524 231t-153.5 557q47 326 310 557t588.5 231t524.5 -231t154 -557t-309.5 -557t-590 -231zM809 82q287 0 514 199.5t268 486.5t-131 486.5t-459 199.5q-285 0 -514 -199.5t-270 -486.5t132 -486.5t460 -199.5zM836 350q-168 -2 -262.5 119t-70 301 t152.5 300t298 120q164 0 248 -97.5t72 -197.5h-125q-4 78 -59.5 127t-151.5 49q-121 0 -209 -84t-106 -217q-16 -131 47 -215t184 -84q90 0 167 50t89 112h125q-8 -90 -124.5 -186.5t-274.5 -96.5z" glyph-name="copyright" horiz-adv-x="1777" unicode="©"/><glyph d="M844 1536l-86 -614h-94l18 133q-109 -145 -274 -146q-129 0 -208 93.5t-61 226.5q18 131 124 225t235 94q80 0 140 -40t91 -105l21 133h94zM436.5 993q98.5 0 176 68.5t94.5 167.5q12 96 -47.5 165.5t-158 69.5t-176 -69.5t-92.5 -165.5q-14 -98 45.5 -167t158 -69z" glyph-name="ordfeminine" horiz-adv-x="827" unicode="ª"/><glyph d="M213 571l365 377h147l-365 -377l258 -376h-147zM594 571l364 377h152l-365 -377l259 -376h-152z" glyph-name="guillemotleft" horiz-adv-x="1292" unicode="«"/><glyph d="M1309 764h-1112l16 119h1229l-88 -643h-119z" glyph-name="logicalnot" horiz-adv-x="1593" unicode="¬"/><glyph d="M174 594h717l-19 -123h-716z" glyph-name="uni00AD" horiz-adv-x="1208" unicode="­"/><glyph d="M1013.5 1556q325.5 0 524.5 -231t154 -557t-309.5 -557t-590 -231t-524 231t-153.5 557q47 326 310 557t588.5 231zM809 82q287 0 514 199.5t268 486.5t-131 486.5t-459 199.5q-285 0 -514 -199.5t-270 -486.5t132 -486.5t460 -199.5zM1165 369h-137l-147 321h-117 l-45 -321h-121l113 802h297q94 0 152.5 -73.5t43.5 -171.5q-12 -78 -68.5 -141.5t-129.5 -84.5zM950 795q49 0 91 39.5t51 93.5q8 55 -24 95t-79 40h-172l-39 -268h172z" glyph-name="registered" horiz-adv-x="1777" unicode="®"/><glyph d="M156 1350h635l-17 -119h-635z" glyph-name="macron" horiz-adv-x="116" unicode="¯"/><glyph d="M546.5 1008q-112.5 0 -182 80.5t-53.5 193.5q16 115 107.5 194.5t204 79.5t182 -80.5t55.5 -193.5q-16 -113 -108.5 -193.5t-205 -80.5zM559 1102q76 0 136.5 52t70.5 128t-35 128t-121 52q-78 0 -137 -52t-67 -128q-10 -76 33.5 -128t119.5 -52z" glyph-name="degree" horiz-adv-x="993" unicode="°"/><glyph d="M1542 879l-16 -119h-647l-52 -369h-118l51 369h-645l16 119h647l51 368h119l-53 -368h647zM23 109h1411l-15 -109h-1411z" glyph-name="plusminus" horiz-adv-x="1611" unicode="±"/><glyph d="M109 844q360 324 407 377q53 59 59 110q10 68 -24.5 105t-95.5 39q-63 0 -109.5 -40t-56.5 -106h-90q12 100 92 165t180 62q94 0 150.5 -57t46.5 -151q-10 -88 -78 -162t-348 -324h385l-13 -84h-516z" glyph-name="uni00B2" horiz-adv-x="692" unicode="²"/><glyph d="M465 805q-94 -2 -151.5 58.5t-45.5 146.5l80 2q-8 -55 30 -94t97 -41q66 0 117 38.5t61 108.5q10 61 -25.5 103t-95.5 42h-57l10 66h52q49 0 85.5 34t43.5 81q8 49 -22 79.5t-89 30.5q-53 0 -91 -27.5t-48 -76.5l-76 2q14 84 83 131t142 45q88 0 136.5 -51t37.5 -125 q-10 -96 -108 -146q53 -23 80.5 -74t19.5 -114q-10 -100 -86 -159.5t-180 -59.5z" glyph-name="uni00B3" horiz-adv-x="741" unicode="³"/><glyph d="M367 1536h180l-266 -315h-142z" glyph-name="acute" horiz-adv-x="94" unicode="´"/><glyph d="M1114 1024l-143 -1024h-176l20 152q-147 -172 -350 -172q-154 0 -252 108l-84 -600h-133l217 1536h174l-86 -618q-16 -113 51.5 -192t179.5 -79q117 0 209.5 79t108.5 192l88 618h176z" glyph-name="uni00B5" horiz-adv-x="1208" unicode="µ"/><glyph d="M639 727h-64q-170 0 -280.5 120t-87.5 286q25 166 169 284.5t314 118.5h160l-258 -1843h-96zM1042 1536h99l-258 -1843h-99z" glyph-name="paragraph" horiz-adv-x="1261" unicode="¶"/><glyph d="M272 643q-37 0 -60.5 27.5t-18.5 66.5q6 39 37.5 66.5t70.5 27.5q37 0 60.5 -27.5t19.5 -66.5q-6 -39 -38 -66.5t-71 -27.5z" glyph-name="periodcentered" horiz-adv-x="552" unicode="·"/><glyph d="M127 -532q-68 0 -131.5 37.5t-87.5 91.5l88 34q20 -33 61 -54t82 -21q51 0 89 34.5t46 85.5q10 72 -46 99.5t-148 -4.5l-66 49l117 180h90l-86 -139q111 20 177.5 -33t52.5 -152q-12 -88 -81 -148t-157 -60z" glyph-name="cedilla" horiz-adv-x="94" unicode="¸"/><glyph d="M293 1454h-115l12 82h209l-108 -768h-94z" glyph-name="uni00B9" horiz-adv-x="520" unicode="¹"/><glyph d="M424 909q-135 0 -219 93.5t-66 226.5q18 131 129 225t246 94q137 0 221 -93t65.5 -226t-128 -226.5t-248.5 -93.5zM436.5 993q98.5 0 176 68.5t94.5 167.5q12 96 -47.5 165.5t-158 69.5t-176 -69.5t-92.5 -165.5q-14 -98 45.5 -167t158 -69z" glyph-name="ordmasculine" horiz-adv-x="780" unicode="º"/><glyph d="M522 571l-258 377h148l258 -377l-365 -376h-147zM903 571l-258 377h152l258 -377l-365 -376h-151z" glyph-name="guillemotright" horiz-adv-x="1292" unicode="»"/><glyph d="M639 1053q47 0 76.5 -35t23.5 -84q-8 -47 -47 -82t-88 -35q-47 0 -76.5 35t-23.5 82q8 49 48 84t87 35zM651 518q-12 -88 -60 -160.5t-109.5 -123t-123 -97.5t-107.5 -105.5t-54 -121.5q-16 -119 54.5 -194.5t197.5 -75.5q123 0 214 76.5t113 197.5h156 q-27 -184 -170.5 -306t-335.5 -122q-195 0 -303.5 121t-81.5 303q10 78 58 148.5t108.5 125t121 104.5t105.5 104t53 108l21 145h160z" glyph-name="questiondown" horiz-adv-x="1130" unicode="¿"/><glyph d="M827 1733l-180 315h182l140 -315h-142zM1094 379h-740l-198 -379h-199l831 1536h203l402 -1536h-197zM1063 539l-201 811l-426 -811h627z" glyph-name="Agrave" horiz-adv-x="1533" unicode="À"/><glyph d="M981 1733h-143l227 315h182zM1094 379h-740l-198 -379h-199l831 1536h203l402 -1536h-197zM1063 539l-201 811l-426 -811h627z" glyph-name="Aacute" horiz-adv-x="1533" unicode="Á"/><glyph d="M741 1698h-143l256 350h186l160 -350h-143l-121 266zM1094 379h-740l-198 -379h-199l831 1536h203l402 -1536h-197zM1063 539l-201 811l-426 -811h627z" glyph-name="Acircumflex" horiz-adv-x="1533" unicode="Â"/><glyph d="M569 1733q0 113 66.5 187.5t161.5 74.5q119 0 176 -111q27 -61 86 -61q47 0 77.5 43t28.5 108h109q2 -113 -63.5 -186.5t-163.5 -73.5q-117 0 -175 113q-29 59 -86 59q-47 0 -77.5 -43t-28.5 -110h-111zM1094 379h-740l-198 -379h-199l831 1536h203l402 -1536h-197z M1063 539l-201 811l-426 -811h627z" glyph-name="Atilde" horiz-adv-x="1533" unicode="Ã"/><glyph d="M713 1720q-47 0 -77 35t-24 84q8 47 47 82t89 35q47 0 76.5 -35t23.5 -82q-8 -49 -48 -84t-87 -35zM1094 1720q-47 0 -78 35t-23 84q8 47 47 82t86.5 35t77 -35t23.5 -82q-8 -49 -47 -84t-86 -35zM1094 379h-740l-198 -379h-199l831 1536h203l402 -1536h-197zM1063 539 l-201 811l-426 -811h627z" glyph-name="Adieresis" horiz-adv-x="1533" unicode="Ä"/><glyph d="M999 1505l394 -1505h-197l-102 379h-740l-198 -379h-199l811 1499h-14q-82 59 -66 168q12 84 82 145.5t158 61.5q84 0 136 -61.5t38 -145.5q-13 -103 -103 -162zM772 1667q-8 -55 22.5 -91t84 -36t94.5 36t49 91q8 53 -23.5 90t-83 37t-93.5 -37t-50 -90zM436 539h627 l-201 811z" glyph-name="Aring" horiz-adv-x="1533" unicode="Å"/><glyph d="M788 1536h1067l-22 -156h-670l-76 -540h584l-20 -142h-584l-76 -542h670l-21 -156h-845l45 338h-506l-172 -338h-205zM862 479l125 901h-92l-481 -901h448z" glyph-name="AE" horiz-adv-x="1792" unicode="Æ"/><glyph d="M905 1384q-254 0 -433 -176t-216 -440q-37 -262 93 -438t384 -176q195 0 341.5 101t182.5 214h187q-39 -156 -221.5 -306.5t-429.5 -178.5v-4l-74 -119q111 20 177.5 -33t51.5 -152q-12 -88 -80.5 -148t-156.5 -60q-70 0 -132.5 37.5t-84.5 91.5l88 34q18 -33 59 -54 t82 -21q51 0 89 34.5t46 85.5q10 72 -46 99.5t-148 -4.5l-66 49l100 160q-319 2 -490 230t-124 558q47 334 284.5 561t561.5 227q150 0 270.5 -48t189 -124.5t104.5 -165t32 -174.5h-187q-10 127 -115.5 233.5t-318.5 106.5z" glyph-name="Ccedilla" horiz-adv-x="1587" unicode="Ç"/><glyph d="M649 1733l-178 315h180l142 -315h-144zM387 1376l-74 -526h682l-22 -162h-682l-76 -526h770l-22 -162h-951l215 1536h951l-21 -160h-770z" glyph-name="Egrave" horiz-adv-x="1171" unicode="È"/><glyph d="M803 1733h-141l227 315h180zM387 1376l-74 -526h682l-22 -162h-682l-76 -526h770l-22 -162h-951l215 1536h951l-21 -160h-770z" glyph-name="Eacute" horiz-adv-x="1171" unicode="É"/><glyph d="M563 1698h-141l256 350h186l160 -350h-143l-121 266zM387 1376l-74 -526h682l-22 -162h-682l-76 -526h770l-22 -162h-951l215 1536h951l-21 -160h-770z" glyph-name="Ecircumflex" horiz-adv-x="1171" unicode="Ê"/><glyph d="M536.5 1720q-47.5 0 -78 35t-22.5 84q8 47 47 82t86 35t78 -35t23 -82q-6 -49 -46 -84t-87.5 -35zM917.5 1720q-47.5 0 -78 35t-22.5 84q6 47 46 82t87 35t77 -35t22 -82q-6 -49 -45 -84t-86.5 -35zM387 1376l-74 -526h682l-22 -162h-682l-76 -526h770l-22 -162h-951 l215 1536h951l-21 -160h-770z" glyph-name="Edieresis" horiz-adv-x="1171" unicode="Ë"/><glyph d="M348 2048h182l142 -315h-144zM492 1536h182l-215 -1536h-183z" glyph-name="Igrave" horiz-adv-x="718" unicode="Ì"/><glyph d="M555 2048h180l-266 -315h-141zM276 1536h183l-215 -1536h-183z" glyph-name="Iacute" horiz-adv-x="710" unicode="Í"/><glyph d="M557 2048h186l160 -350h-143l-121 266l-195 -266h-145zM489 1536h183l-215 -1536h-183z" glyph-name="Icircumflex" horiz-adv-x="927" unicode="Î"/><glyph d="M422 1720q-49 0 -80 35t-23 84q6 47 47.5 82t88.5 35t77.5 -35t22.5 -82q-6 -49 -46 -84t-87 -35zM803 1720q-49 0 -79 35t-24 84q8 47 48 82t87.5 35t77 -35t21.5 -82q-6 -49 -45 -84t-86 -35zM498 1536h180l-215 -1536h-180z" glyph-name="Idieresis" horiz-adv-x="937" unicode="Ï"/><glyph d="M848 1536q334 0 522.5 -201.5t137 -566.5t-297 -566.5t-577.5 -201.5h-430l100 711h-158l17 116h157l99 709h430zM651 162q258 0 445.5 157.5t228.5 448.5q41 289 -101.5 448.5t-400.5 159.5h-245l-78 -549h270l-16 -116h-271l-77 -549h245z" glyph-name="Eth" horiz-adv-x="1593" unicode="Ð"/><glyph d="M606 1733q0 115 65.5 188.5t162.5 73.5q121 0 174 -111q29 -61 86 -61q47 0 77.5 43t28.5 108h111q0 -113 -65.5 -186.5t-164.5 -73.5q-119 0 -172 113q-29 59 -86 59q-49 0 -78.5 -43t-27.5 -110h-111zM1497 1536l-215 -1536h-172l-754 1245l-174 -1245h-182l215 1536 h172l756 -1243l174 1243h180z" glyph-name="Ntilde" horiz-adv-x="1511" unicode="Ñ"/><glyph d="M698 2048h181l139 -315h-141zM709 -20q-326 0 -506 228t-133 560t291.5 560t568 228t505 -228t134.5 -560t-291.5 -560t-568.5 -228zM733 154q254 0 439.5 176t222.5 438t-98.5 439t-391.5 177q-254 0 -440 -177t-223 -439q-37 -260 99 -437t392 -177z" glyph-name="Ograve" horiz-adv-x="1636" unicode="Ò"/><glyph d="M1116 2048h182l-266 -315h-143zM709 -20q-326 0 -506 228t-133 560t291.5 560t568 228t505 -228t134.5 -560t-291.5 -560t-568.5 -228zM733 154q254 0 439.5 176t222.5 438t-98.5 439t-391.5 177q-254 0 -440 -177t-223 -439q-37 -260 99 -437t392 -177z" glyph-name="Oacute" horiz-adv-x="1636" unicode="Ó"/><glyph d="M907 2048h187l157 -350h-141l-121 266l-196 -266h-144zM709 -20q-326 0 -506 228t-133 560t291.5 560t568 228t505 -228t134.5 -560t-291.5 -560t-568.5 -228zM733 154q254 0 439.5 176t222.5 438t-98.5 439t-391.5 177q-254 0 -440 -177t-223 -439q-37 -260 99 -437 t392 -177z" glyph-name="Ocircumflex" horiz-adv-x="1636" unicode="Ô"/><glyph d="M1096 1714q-119 0 -172 113q-31 59 -88 59q-47 0 -77 -43t-28 -110h-113q2 115 68 188.5t160 73.5q123 0 176 -111q29 -61 86 -61q47 0 78 43t28 108h111q0 -113 -65.5 -186.5t-163.5 -73.5zM709 -20q-326 0 -506 228t-133 560t291.5 560t568 228t505 -228t134.5 -560 t-291.5 -560t-568.5 -228zM733 154q254 0 439.5 176t222.5 438t-98.5 439t-391.5 177q-254 0 -440 -177t-223 -439q-37 -260 99 -437t392 -177z" glyph-name="Otilde" horiz-adv-x="1636" unicode="Õ"/><glyph d="M764 1720q-49 0 -79 35t-21 84q6 47 46 82t87 35t77.5 -35t22.5 -82q-6 -49 -46 -84t-87 -35zM1145 1720q-49 0 -79 35t-24 84q8 47 48 82t87.5 35t77 -35t21.5 -82q-6 -49 -45 -84t-86 -35zM709 -20q-326 0 -506 228t-133 560t291.5 560t568 228t505 -228t134.5 -560 t-291.5 -560t-568.5 -228zM733 154q254 0 439.5 176t222.5 438t-98.5 439t-391.5 177q-254 0 -440 -177t-223 -439q-37 -260 99 -437t392 -177z" glyph-name="Odieresis" horiz-adv-x="1636" unicode="Ö"/><glyph d="M868 635l346 -399l-108 -97l-346 400l-457 -400l-82 97l455 399l-342 401l110 97l342 -402l459 402l82 -97z" glyph-name="multiply" horiz-adv-x="1497" unicode="×"/><glyph d="M1386 1384q111 -111 160 -271.5t23 -344.5q-47 -332 -292 -560t-568 -228q-217 0 -377 110l-96 -119h-127l147 181q-113 109 -163 269.5t-23 346.5q47 332 291.5 560t568.5 228q219 0 381 -112l96 119h125zM242 768q-41 -297 131 -473l821 1005q-123 84 -289 84 q-254 0 -440 -177t-223 -439zM733 154q254 0 439.5 176t222.5 438q41 293 -127 471l-817 -1006q118 -79 282 -79z" glyph-name="Oslash" horiz-adv-x="1636" unicode="Ø"/><glyph d="M635 2048h180l141 -315h-143zM584 -20q-244 0 -393.5 152.5t-118.5 371.5l145 1032h182l-141 -1004q-23 -164 79.5 -277.5t270.5 -113.5t309.5 115t163.5 276l140 1004h180l-146 -1032q-31 -219 -228 -371.5t-443 -152.5z" glyph-name="Ugrave" horiz-adv-x="1423" unicode="Ù"/><glyph d="M1055 2048h180l-266 -315h-142zM584 -20q-244 0 -393.5 152.5t-118.5 371.5l145 1032h182l-141 -1004q-23 -164 79.5 -277.5t270.5 -113.5t309.5 115t163.5 276l140 1004h180l-146 -1032q-31 -219 -228 -371.5t-443 -152.5z" glyph-name="Uacute" horiz-adv-x="1423" unicode="Ú"/><glyph d="M844 2048h186l160 -350h-143l-121 266l-197 -266h-141zM584 -20q-244 0 -393.5 152.5t-118.5 371.5l145 1032h182l-141 -1004q-23 -164 79.5 -277.5t270.5 -113.5t309.5 115t163.5 276l140 1004h180l-146 -1032q-31 -219 -228 -371.5t-443 -152.5z" glyph-name="Ucircumflex" horiz-adv-x="1423" unicode="Û"/><glyph d="M700.5 1720q-47.5 0 -77 35t-23.5 84q8 47 47 82t88 35q47 0 77 -35t24 -82q-8 -49 -48 -84t-87.5 -35zM1081 1720q-47 0 -77.5 35t-22.5 84q8 47 47 82t86 35t77 -35t23 -82q-8 -49 -47 -84t-86 -35zM584 -20q-244 0 -393.5 152.5t-118.5 371.5l145 1032h182l-141 -1004 q-23 -164 79.5 -277.5t270.5 -113.5t309.5 115t163.5 276l140 1004h180l-146 -1032q-31 -219 -228 -371.5t-443 -152.5z" glyph-name="Udieresis" horiz-adv-x="1423" unicode="Ü"/><glyph d="M891 1733h-143l227 315h182zM764 729l-102 -729h-181l101 725l-422 811h202l332 -653l516 653h201z" glyph-name="Yacute" horiz-adv-x="1325" unicode="Ý"/><glyph d="M805 1323q178 0 285.5 -127t80.5 -307q-25 -176 -167 -300t-320 -124h-381l-65 -465h-177l187 1323l26 207h177l-27 -207h381zM700 623q113 0 204 78.5t108 193.5q14 113 -53.5 191.5t-182.5 78.5h-375l-77 -542h376z" glyph-name="Thorn" horiz-adv-x="1202" unicode="Þ"/><glyph d="M991 786q106 -53 160.5 -156.5t36.5 -228.5q-25 -176 -161 -298.5t-302 -122.5q-88 0 -178 35.5t-139 90.5l92 132q37 -39 96 -67t121 -28q104 4 193 80t104 187q16 117 -56.5 197.5t-193.5 80.5h-117l23 148h47q115 0 207 81.5t108.5 196.5t-55.5 190.5t-203 75.5 q-135 0 -237.5 -80.5t-118.5 -203.5l-154 -1096h-174l154 1096q27 190 183.5 315t365.5 125q203 0 318.5 -119t88.5 -299q-27 -205 -209 -332z" glyph-name="germandbls" horiz-adv-x="1363" unicode="ß"/><glyph d="M764 1221h-141l-179 315h181zM924 301q-12 -86 3 -121t60 -33l-20 -147q-23 0 -64 4q-152 25 -160 156q-57 -74 -168.5 -122t-234.5 -48q-164 0 -256 91t-72 236q23 154 150 250.5t364 112.5l279 18l6 37q16 125 -46.5 188.5t-189.5 63.5q-115 0 -196.5 -62.5 t-108.5 -164.5h-170q37 160 166 270.5t336 110.5q205 0 306.5 -107.5t74.5 -302.5q-12 -82 -25.5 -182t-22.5 -170t-11 -78zM762 385l22 172l-260 -20q-309 -25 -334 -215q-12 -82 49.5 -131.5t149.5 -49.5q123 0 234.5 74t138.5 170z" glyph-name="agrave" horiz-adv-x="1114" unicode="à"/><glyph d="M1012 1536l-267 -315h-143l229 315h181zM983 731q-12 -82 -25.5 -182t-22.5 -170t-11 -78q-12 -86 3 -121t60 -33l-20 -147q-23 0 -64 4q-152 25 -160 156q-57 -74 -168.5 -122t-234.5 -48q-164 0 -256 91t-72 236q23 154 150 250.5t364 112.5l279 18l6 37 q16 125 -46.5 188.5t-189.5 63.5q-115 0 -196.5 -62.5t-108.5 -164.5h-170q37 160 166 270.5t336 110.5q205 0 306.5 -107.5t74.5 -302.5zM762 385l22 172l-260 -20q-309 -25 -334 -215q-12 -82 49.5 -131.5t149.5 -49.5q123 0 234.5 74t138.5 170z" glyph-name="aacute" horiz-adv-x="1114" unicode="á"/><glyph d="M631 1452l-197 -266h-141l256 350h186l160 -350h-143zM924 301q-12 -86 3 -121t60 -33l-20 -147q-23 0 -64 4q-152 25 -160 156q-57 -74 -168.5 -122t-234.5 -48q-164 0 -256 91t-72 236q23 154 150 250.5t364 112.5l279 18l6 37q16 125 -46.5 188.5t-189.5 63.5 q-115 0 -196.5 -62.5t-108.5 -164.5h-170q37 160 166 270.5t336 110.5q205 0 306.5 -107.5t74.5 -302.5q-12 -82 -25.5 -182t-22.5 -170t-11 -78zM762 385l22 172l-260 -20q-309 -25 -334 -215q-12 -82 49.5 -131.5t149.5 -49.5q123 0 234.5 74t138.5 170z" glyph-name="acircumflex" horiz-adv-x="1114" unicode="â"/><glyph d="M266 1221q0 113 66.5 187.5t161.5 74.5q119 0 176 -111q27 -61 86 -61q47 0 76.5 43t29.5 108h109q2 -113 -63.5 -186.5t-164.5 -73.5q-117 0 -174 113q-29 59 -86 59q-47 0 -77.5 -43t-28.5 -110h-111zM340 -10q-164 0 -256 91t-72 236q23 154 150 250.5t364 112.5 l279 18l6 37q16 125 -46.5 188.5t-189.5 63.5q-115 0 -196.5 -62.5t-108.5 -164.5h-170q37 160 166 270.5t336 110.5q205 0 306.5 -107.5t74.5 -302.5q-12 -82 -25.5 -182t-22.5 -170t-11 -78q-12 -86 3 -121t60 -33l-20 -147q-23 0 -64 4q-152 25 -160 156 q-57 -74 -168.5 -122t-234.5 -48zM389 141q123 0 234.5 74t138.5 170l22 172l-260 -20q-309 -25 -334 -215q-12 -82 49.5 -131.5t149.5 -49.5z" glyph-name="atilde" horiz-adv-x="1114" unicode="ã"/><glyph d="M410 1208q-49 0 -79 35t-22 84q6 47 46 82t87 35t78 -35t23 -82q-6 -49 -46 -84t-87 -35zM791 1208q-49 0 -79 35t-24 84q8 47 48 82t87 35t77 -35t22 -82q-6 -49 -45 -84t-86 -35zM340 -10q-164 0 -256 91t-72 236q23 154 150 250.5t364 112.5l279 18l6 37 q16 125 -46.5 188.5t-189.5 63.5q-115 0 -196.5 -62.5t-108.5 -164.5h-170q37 160 166 270.5t336 110.5q205 0 306.5 -107.5t74.5 -302.5q-12 -82 -25.5 -182t-22.5 -170t-11 -78q-12 -86 3 -121t60 -33l-20 -147q-23 0 -64 4q-152 25 -160 156q-57 -74 -168.5 -122 t-234.5 -48zM389 141q123 0 234.5 74t138.5 170l22 172l-260 -20q-309 -25 -334 -215q-12 -82 49.5 -131.5t149.5 -49.5z" glyph-name="adieresis" horiz-adv-x="1114" unicode="ä"/><glyph d="M596 1176q-86 0 -138 61t-40 145q10 86 79.5 147.5t157.5 61.5q84 0 136.5 -61.5t39.5 -147.5q-12 -84 -81.5 -145t-153.5 -61zM645 1511q-51 0 -93 -37.5t-50 -91t22.5 -89.5t84 -36t94 36t49.5 89q8 51 -24 90t-83 39zM340 -10q-164 0 -256 91t-72 236 q23 154 150 250.5t364 112.5l279 18l6 37q16 125 -46.5 188.5t-189.5 63.5q-115 0 -196.5 -62.5t-108.5 -164.5h-170q37 160 166 270.5t336 110.5q205 0 306.5 -107.5t74.5 -302.5q-12 -82 -25.5 -182t-22.5 -170t-11 -78q-12 -86 3 -121t60 -33l-20 -147q-23 0 -64 4 q-152 25 -160 156q-57 -74 -168.5 -122t-234.5 -48zM389 141q123 0 234.5 74t138.5 170l22 172l-260 -20q-309 -25 -334 -215q-12 -82 49.5 -131.5t149.5 -49.5z" glyph-name="aring" horiz-adv-x="1114" unicode="å"/><glyph d="M1870 575q-2 -31 -12 -67h-861q-14 -178 75 -274.5t243 -96.5q104 0 207.5 54.5t146.5 148.5h154q-51 -156 -199.5 -255t-349.5 -97q-268 2 -393 202l-25 -190h-151l8 164q-63 -84 -183 -132t-249 -40q-152 10 -235 99t-64 228q20 141 147 236.5t369 120.5l278 26l6 35 q16 129 -46 192.5t-189 63.5q-117 0 -198 -63.5t-107 -167.5h-164q37 162 162 270.5t333 108.5q154 0 252.5 -60.5t124.5 -177.5q184 246 488 246q233 0 350 -159t82 -415zM1020 651h684q6 156 -68.5 248t-220.5 92q-147 0 -250.5 -93t-144.5 -247zM733 385l25 188l-262 -28 q-309 -35 -336 -230q-12 -80 41 -127t137 -51q129 -8 247.5 68t147.5 180z" glyph-name="ae" horiz-adv-x="1892" unicode="æ"/><glyph d="M639 979q-164 0 -275.5 -111.5t-136.5 -300.5q-29 -190 53 -303.5t246 -113.5q117 0 210 66.5t136 168.5h168q-55 -168 -198.5 -282.5t-354.5 -114.5h-18l-59 -97q111 20 178 -33t53 -151q-12 -88 -82 -148.5t-158 -60.5q-70 0 -132 38t-85 91l86 35q18 -33 60.5 -54.5 t83.5 -21.5q51 0 90 35t45 86q10 72 -46.5 99.5t-146.5 -5.5l-67 49l94 148q-186 37 -278.5 193.5t-61.5 375.5q35 250 203 410t403 160q215 0 333 -113t114 -274h-172q-4 98 -84 163.5t-201 65.5z" glyph-name="ccedilla" horiz-adv-x="1159" unicode="ç"/><glyph d="M575 1231l-178 315h181l141 -315h-144zM1073 569q-4 -31 -12 -67h-844q-18 -166 70 -262.5t215 -98.5q123 -2 212 51.5t130 143.5h162q-16 -57 -54.5 -113.5t-99.5 -112t-155.5 -88t-207.5 -32.5q-236 2 -356.5 164.5t-87.5 406.5q37 250 199 412t403 162q231 0 346 -156 t80 -410zM627 979q-145 0 -245.5 -91t-139.5 -245h667q4 156 -67.5 246t-214.5 90z" glyph-name="egrave" horiz-adv-x="1155" unicode="è"/><glyph d="M997 1546l-266 -315h-141l227 315h180zM647 1135q231 0 346 -156t80 -410q-4 -31 -12 -67h-844q-18 -166 70 -262.5t215 -98.5q123 -2 212 51.5t130 143.5h162q-16 -57 -54.5 -113.5t-99.5 -112t-155.5 -88t-207.5 -32.5q-236 2 -356.5 164.5t-87.5 406.5 q37 250 198.5 412t403.5 162zM909 643q4 156 -67.5 246t-214.5 90q-145 0 -245.5 -91t-139.5 -245h667z" glyph-name="eacute" horiz-adv-x="1155" unicode="é"/><glyph d="M492 1196h-142l256 350h187l159 -350h-143l-121 266zM1073 569q-4 -31 -12 -67h-844q-18 -166 70 -262.5t215 -98.5q123 -2 212 51.5t130 143.5h162q-16 -57 -54.5 -113.5t-99.5 -112t-155.5 -88t-207.5 -32.5q-236 2 -356.5 164.5t-87.5 406.5q37 250 199 412t403 162 q231 0 346 -156t80 -410zM627 979q-145 0 -245.5 -91t-139.5 -245h667q4 156 -67.5 246t-214.5 90z" glyph-name="ecircumflex" horiz-adv-x="1155" unicode="ê"/><glyph d="M463 1219q-47 0 -78 34.5t-23 81.5q8 49 47.5 84t86.5 35t77.5 -35t22.5 -84q-6 -47 -46 -81.5t-87 -34.5zM844 1219q-47 0 -78 34.5t-23 81.5q6 49 46 84t87.5 35t77 -35t21.5 -84q-6 -47 -45 -81.5t-86 -34.5zM1073 569q-4 -31 -12 -67h-844q-18 -166 70 -262.5 t215 -98.5q123 -2 212 51.5t130 143.5h162q-16 -57 -54.5 -113.5t-99.5 -112t-155.5 -88t-207.5 -32.5q-236 2 -356.5 164.5t-87.5 406.5q37 250 199 412t403 162q231 0 346 -156t80 -410zM627 979q-145 0 -245.5 -91t-139.5 -245h667q4 156 -67.5 246t-214.5 90z" glyph-name="edieresis" horiz-adv-x="1155" unicode="ë"/><glyph d="M166 1536h184l139 -315h-141zM311 1024h176l-143 -1024h-176z" glyph-name="igrave" horiz-adv-x="548" unicode="ì"/><glyph d="M436 1536h182l-266 -315h-143zM160 1024h176l-143 -1024h-177z" glyph-name="iacute" horiz-adv-x="542" unicode="í"/><glyph d="M440 1536h187l159 -350h-143l-121 266l-196 -266h-144zM375 1024h176l-143 -1024h-177z" glyph-name="icircumflex" horiz-adv-x="825" unicode="î"/><glyph d="M303 1208q-47 0 -77.5 35t-24.5 84q8 47 48 82t89 35q47 0 76.5 -35t23.5 -82q-8 -49 -48 -84t-87 -35zM684 1208q-47 0 -78 35t-22 84q6 47 46 82t87 35t76.5 -35t23.5 -82q-8 -49 -47 -84t-86 -35zM379 1024h176l-143 -1024h-176z" glyph-name="idieresis" horiz-adv-x="835" unicode="ï"/><glyph d="M909 1399q156 -139 224.5 -372.5t29.5 -514.5q-33 -221 -216 -376.5t-412.5 -155.5t-368.5 155.5t-107 376.5q31 223 213.5 377.5t411.5 154.5q178 0 297 -100q-45 215 -178 338l-129 -137l-53 49l122 131q-133 90 -303 94l52 142q207 0 362 -115l109 117l55 -47z M557 135q156 0 282 110.5t148 266.5q20 158 -74 267.5t-249 109.5q-158 0 -284 -109.5t-147 -267.5q-23 -158 72.5 -267.5t251.5 -109.5z" glyph-name="eth" horiz-adv-x="1261" unicode="ð"/><glyph d="M346 1221q2 115 67.5 188.5t161.5 73.5q117 0 175 -111q29 -61 86 -61q47 0 77.5 43t28.5 108h111q0 -113 -65.5 -186.5t-164.5 -73.5q-119 0 -172 113q-29 59 -86 59q-49 0 -78.5 -43t-27.5 -110h-113zM752 1139q184 0 278 -112t68 -300l-101 -727h-188l98 709 q16 119 -46 190.5t-183 71.5q-131 0 -237.5 -76t-123.5 -195l-98 -700h-188l157 1126h164l-4 -168q70 82 180.5 131.5t223.5 49.5z" glyph-name="ntilde" horiz-adv-x="1204" unicode="ñ"/><glyph d="M403 1536h183l139 -315h-141zM500 -14q-242 0 -373 166.5t-96 412.5q37 246 213 413t417.5 167t371.5 -167t95.5 -413t-211.5 -412.5t-417 -166.5zM522 156q162 0 277.5 117.5t140.5 291.5q25 176 -58 294t-245 118t-277.5 -118t-140.5 -294q-25 -174 58 -291.5 t245 -117.5z" glyph-name="ograve" horiz-adv-x="1187" unicode="ò"/><glyph d="M823 1536h181l-267 -315h-141zM500 -14q-242 0 -373 166.5t-96 412.5q37 246 213 413t417.5 167t371.5 -167t95.5 -413t-211.5 -412.5t-417 -166.5zM522 156q162 0 277.5 117.5t140.5 291.5q25 176 -58 294t-245 118t-277.5 -118t-140.5 -294q-25 -174 58 -291.5 t245 -117.5z" glyph-name="oacute" horiz-adv-x="1187" unicode="ó"/><glyph d="M612 1536h187l159 -350h-143l-121 266l-194 -266h-144zM500 -14q-242 0 -373 166.5t-96 412.5q37 246 213 413t417.5 167t371.5 -167t95.5 -413t-211.5 -412.5t-417 -166.5zM522 156q162 0 277.5 117.5t140.5 291.5q25 176 -58 294t-245 118t-277.5 -118t-140.5 -294 q-25 -174 58 -291.5t245 -117.5z" glyph-name="ocircumflex" horiz-adv-x="1187" unicode="ô"/><glyph d="M803 1202q-119 0 -174 113q-31 59 -86 59q-47 0 -78 -43t-29 -110h-110q0 113 66.5 187.5t160.5 74.5q119 0 176 -111q27 -61 86 -61q47 0 77 43t30 108h108q2 -113 -63.5 -186.5t-163.5 -73.5zM500 -14q-242 0 -373 166.5t-96 412.5q37 246 213 413t417.5 167 t371.5 -167t95.5 -413t-211.5 -412.5t-417 -166.5zM522 156q162 0 277.5 117.5t140.5 291.5q25 176 -58 294t-245 118t-277.5 -118t-140.5 -294q-25 -174 58 -291.5t245 -117.5z" glyph-name="otilde" horiz-adv-x="1187" unicode="õ"/><glyph d="M481 1208q-49 0 -78.5 35t-23.5 84q8 47 47 82t88 35q47 0 77 -35t23 -82q-8 -49 -47 -84t-86 -35zM860 1208q-47 0 -76.5 35t-23.5 84q8 47 47 82t88 35q47 0 75.5 -35t22.5 -82q-8 -49 -47 -84t-86 -35zM500 -14q-242 0 -373 166.5t-96 412.5q37 246 213 413t417.5 167 t371.5 -167t95.5 -413t-211.5 -412.5t-417 -166.5zM522 156q162 0 277.5 117.5t140.5 291.5q25 176 -58 294t-245 118t-277.5 -118t-140.5 -294q-25 -174 58 -291.5t245 -117.5z" glyph-name="odieresis" horiz-adv-x="1187" unicode="ö"/><glyph d="M756 805q-43 0 -72 30.5t-22 75.5q8 45 44.5 77t79.5 32t71 -32t22 -77q-8 -45 -44 -75.5t-79 -30.5zM178 631h1118l-20 -148h-1118zM657 109q-43 0 -70.5 30.5t-23.5 75.5q8 45 45 77t80 32t70.5 -32t21.5 -77t-43 -75.5t-80 -30.5z" glyph-name="divide" horiz-adv-x="1468" unicode="÷"/><glyph d="M983 1026q164 -172 127 -457q-37 -248 -212 -416.5t-411 -168.5q-156 0 -270 79l-102 -126h-97l142 176q-168 168 -127 456q35 248 210 417t410 169q160 0 273 -82l102 129h96zM217 569q-29 -182 64 -303l528 660q-76 59 -180 59q-158 0 -273.5 -120t-138.5 -296z M512 156q160 0 273.5 118.5t138.5 294.5q25 184 -62 303l-528 -661q76 -55 178 -55z" glyph-name="oslash" horiz-adv-x="1167" unicode="ø"/><glyph d="M606 1221l-178 315h180l140 -315h-142zM1161 1126l-157 -1126h-168l6 170q-72 -82 -182.5 -132t-221.5 -50q-184 0 -285.5 118.5t-74.5 303.5l100 716h193l-97 -694q-18 -123 45.5 -198.5t188.5 -75.5q129 0 238.5 77.5t125.5 196.5l99 694h190z" glyph-name="ugrave" horiz-adv-x="1200" unicode="ù"/><glyph d="M762 1221h-144l230 315h180zM1161 1126l-157 -1126h-168l6 170q-72 -82 -182.5 -132t-221.5 -50q-184 0 -285.5 118.5t-74.5 303.5l100 716h193l-97 -694q-18 -123 45.5 -198.5t188.5 -75.5q129 0 238.5 77.5t125.5 196.5l99 694h190z" glyph-name="uacute" horiz-adv-x="1200" unicode="ú"/><glyph d="M522 1186h-141l256 350h186l160 -350h-143l-121 266zM1161 1126l-157 -1126h-168l6 170q-72 -82 -182.5 -132t-221.5 -50q-184 0 -285.5 118.5t-74.5 303.5l100 716h193l-97 -694q-18 -123 45.5 -198.5t188.5 -75.5q129 0 238.5 77.5t125.5 196.5l99 694h190z" glyph-name="ucircumflex" horiz-adv-x="1200" unicode="û"/><glyph d="M493.5 1208q-47.5 0 -78 35t-22.5 84q6 47 46 82t87 35t78 -35t23 -82q-6 -49 -46 -84t-87.5 -35zM874.5 1208q-47.5 0 -78 35t-22.5 84q6 47 46 82t87 35t77 -35t22 -82q-6 -49 -45 -84t-86.5 -35zM1161 1126l-157 -1126h-168l6 170q-72 -82 -182.5 -132t-221.5 -50 q-184 0 -285.5 118.5t-74.5 303.5l100 716h193l-97 -694q-18 -123 45.5 -198.5t188.5 -75.5q129 0 238.5 77.5t125.5 196.5l99 694h190z" glyph-name="udieresis" horiz-adv-x="1200" unicode="ü"/><glyph d="M731 1221h-143l229 315h180zM1188 1126l-901 -1652h-176l325 594h-49l-293 1058h191l245 -880l467 880h191z" glyph-name="yacute" horiz-adv-x="1185" unicode="ý"/><glyph d="M782 1044q217 0 346 -154.5t99 -377.5q-33 -221 -205 -376.5t-389 -155.5q-125 0 -221.5 57t-147.5 158l-98 -705h-176l286 2046h177l-99 -707q172 215 428 215zM630.5 135q155.5 0 282.5 109.5t150 267.5q20 158 -74 267.5t-252 109.5q-156 0 -281.5 -109.5 t-146.5 -267.5q-23 -156 71.5 -266.5t250 -110.5z" glyph-name="thorn" horiz-adv-x="1327" unicode="þ"/><glyph d="M475 1208q-47 0 -77.5 35t-22.5 84q6 47 46 82t87 35t77.5 -35t22.5 -82q-6 -49 -46 -84t-87 -35zM856 1208q-47 0 -77.5 35t-22.5 84q6 47 46 82t87 35t76.5 -35t21.5 -82q-6 -49 -45 -84t-86 -35zM1188 1126l-901 -1652h-176l325 594h-49l-293 1058h191l245 -880 l467 880h191z" glyph-name="ydieresis" horiz-adv-x="1185" unicode="ÿ"/><glyph d="M1225 1743h-635l16 119h635zM1094 379h-740l-198 -379h-199l831 1536h203l402 -1536h-197zM1063 539l-201 811l-426 -811h627z" glyph-name="Amacron" horiz-adv-x="1533" unicode="Ā"/><glyph d="M887 1231h-635l16 119h635zM340 -10q-164 0 -256 91t-72 236q23 154 150 250.5t364 112.5l279 18l6 37q16 125 -46.5 188.5t-189.5 63.5q-115 0 -196.5 -62.5t-108.5 -164.5h-170q37 160 166 270.5t336 110.5q205 0 306.5 -107.5t74.5 -302.5q-12 -82 -25.5 -182 t-22.5 -170t-11 -78q-12 -86 3 -121t60 -33l-20 -147q-23 0 -64 4q-152 25 -160 156q-57 -74 -168.5 -122t-234.5 -48zM389 141q123 0 234.5 74t138.5 170l22 172l-260 -20q-309 -25 -334 -215q-12 -82 49.5 -131.5t149.5 -49.5z" glyph-name="amacron" horiz-adv-x="1114" unicode="ā"/><glyph d="M895 1671q-150 0 -231.5 86t-61.5 232h109q-14 -86 43 -147.5t157.5 -61.5t175 61.5t87.5 147.5h106q-20 -145 -126.5 -231.5t-258.5 -86.5zM1094 379h-740l-198 -379h-199l831 1536h203l402 -1536h-197zM1063 539l-201 811l-426 -811h627z" glyph-name="Abreve" horiz-adv-x="1533" unicode="Ă"/><glyph d="M563.5 1159q-149.5 0 -232.5 86t-63 232h109q-12 -86 45 -147.5t156 -61.5q100 0 175.5 61.5t88.5 147.5h106q-20 -145 -127.5 -231.5t-257 -86.5zM340 -10q-164 0 -256 91t-72 236q23 154 150 250.5t364 112.5l279 18l6 37q16 125 -46.5 188.5t-189.5 63.5 q-115 0 -196.5 -62.5t-108.5 -164.5h-170q37 160 166 270.5t336 110.5q205 0 306.5 -107.5t74.5 -302.5q-12 -82 -25.5 -182t-22.5 -170t-11 -78q-12 -86 3 -121t60 -33l-20 -147q-23 0 -64 4q-152 25 -160 156q-57 -74 -168.5 -122t-234.5 -48zM389 141q123 0 234.5 74 t138.5 170l22 172l-260 -20q-309 -25 -334 -215q-12 -82 49.5 -131.5t149.5 -49.5z" glyph-name="abreve" horiz-adv-x="1114" unicode="ă"/><glyph d="M1393 -342l47 -84q-131 -113 -295 -106q-104 4 -158.5 61t-42.5 154q29 180 281 317h-29l-102 379h-740l-198 -379h-199l831 1536h203l402 -1536h-15q-115 -29 -205 -117t-104 -184q-8 -59 22.5 -97t94.5 -38q119 0 207 94zM436 539h627l-201 811z" glyph-name="Aogonek" horiz-adv-x="1642" unicode="Ą"/><glyph d="M1030 -344l49 -84q-131 -113 -297 -107q-104 6 -158.5 62.5t-39.5 155.5q12 84 93 174t191 155q-117 31 -125 148q-57 -74 -168.5 -122t-234.5 -48q-164 0 -256 91t-72 236q23 154 150 250.5t364 112.5l279 18l6 37q16 125 -46.5 188.5t-189.5 63.5q-115 0 -196.5 -62.5 t-108.5 -164.5h-170q37 160 166 270.5t336 110.5q205 0 306.5 -107.5t74.5 -302.5q-12 -82 -25.5 -182t-22.5 -170t-11 -78q-12 -86 3 -121t60 -33l-18 -133l45 -16q-111 -37 -202 -121t-105 -180q-8 -59 22.5 -97t93.5 -38q119 0 207 94zM762 385l22 172l-260 -20 q-309 -25 -334 -215q-12 -82 49.5 -131.5t149.5 -49.5q123 0 234.5 74t138.5 170z" glyph-name="aogonek" horiz-adv-x="1146" unicode="ą"/><glyph d="M1163 2048h180l-266 -315h-141zM709 -20q-324 -2 -498 226t-127 562t284.5 561t561.5 227q150 0 270.5 -48t189 -124.5t104.5 -165t32 -174.5h-187q-10 127 -115.5 233.5t-318.5 106.5q-254 0 -433 -176t-216 -440q-37 -262 93 -438t384 -176q195 0 341.5 101t182.5 214 h187q-20 -78 -82 -161t-154 -156.5t-224 -121.5t-275 -50z" glyph-name="Cacute" horiz-adv-x="1587" unicode="Ć"/><glyph d="M795 1536h182l-266 -315h-144zM487 -12q-233 0 -356 164.5t-88 414.5t203 410t403 160q215 0 333 -113t114 -274h-172q-4 98 -84 163.5t-201 65.5q-164 0 -275.5 -111.5t-136.5 -300.5q-29 -190 53 -303.5t246 -113.5q117 0 210 66.5t136 168.5h168 q-55 -168 -198.5 -282.5t-354.5 -114.5z" glyph-name="cacute" horiz-adv-x="1159" unicode="ć"/><glyph d="M954 1720q-47 0 -77.5 35t-22.5 84q8 47 47 82t86 35t78 -35t22 -82q-6 -49 -46 -84t-87 -35zM709 -20q-324 -2 -498 226t-127 562t284.5 561t561.5 227q150 0 270.5 -48t189 -124.5t104.5 -165t32 -174.5h-187q-10 127 -115.5 233.5t-318.5 106.5q-254 0 -433 -176 t-216 -440q-37 -262 93 -438t384 -176q195 0 341.5 101t182.5 214h187q-20 -78 -82 -161t-154 -156.5t-224 -121.5t-275 -50z" glyph-name="Cdotaccent" horiz-adv-x="1587" unicode="Ċ"/><glyph d="M647 1208q-47 0 -76.5 35t-23.5 84q8 47 47 82t88 35q47 0 76.5 -35t23.5 -82q-8 -49 -48 -84t-87 -35zM487 -12q-233 0 -356 164.5t-88 414.5t203 410t403 160q215 0 333 -113t114 -274h-172q-4 98 -84 163.5t-201 65.5q-164 0 -275.5 -111.5t-136.5 -300.5 q-29 -190 53 -303.5t246 -113.5q117 0 210 66.5t136 168.5h168q-55 -168 -198.5 -282.5t-354.5 -114.5z" glyph-name="cdotaccent" horiz-adv-x="1159" unicode="ċ"/><glyph d="M698 2048h138l129 -260l198 260h137l-256 -350h-186zM709 -20q-324 -2 -498 226t-127 562t284.5 561t561.5 227q150 0 270.5 -48t189 -124.5t104.5 -165t32 -174.5h-187q-10 127 -115.5 233.5t-318.5 106.5q-254 0 -433 -176t-216 -440q-37 -262 93 -438t384 -176 q195 0 341.5 101t182.5 214h187q-20 -78 -82 -161t-154 -156.5t-224 -121.5t-275 -50z" glyph-name="Ccaron" horiz-adv-x="1587" unicode="Č"/><glyph d="M387 1536h137l127 -260l201 260h137l-258 -350h-186zM487 -12q-233 0 -356 164.5t-88 414.5t203 410t403 160q215 0 333 -113t114 -274h-172q-4 98 -84 163.5t-201 65.5q-164 0 -275.5 -111.5t-136.5 -300.5q-29 -190 53 -303.5t246 -113.5q117 0 210 66.5t136 168.5h168 q-55 -168 -198.5 -282.5t-354.5 -114.5z" glyph-name="ccaron" horiz-adv-x="1159" unicode="č"/><glyph d="M475 2048h137l127 -260l201 260h137l-258 -350h-186zM262 1536h469q162 0 293 -46t224 -138t131 -245t10 -351q-47 -348 -295 -552t-578 -204h-469zM535 162q260 0 447 152.5t226 441.5q45 322 -94 471t-407 149h-287l-172 -1214h287z" glyph-name="Dcaron" horiz-adv-x="1476" unicode="Ď"/><glyph d="M1470 1309q-76 31 -63 112q6 47 45 82t88 35q47 0 74.5 -34t21.5 -83q-8 -55 -68.5 -141t-94.5 -121h-76zM1260 1536l-216 -1536h-161l6 178q-164 -188 -412 -188q-229 0 -350 160.5t-86 406.5t203 413t397 167q238 0 350 -191l82 590h187zM530 147q129 0 235.5 84 t156.5 218l30 217q-12 133 -95 217t-212 84q-160 0 -276.5 -117t-141.5 -293q-25 -174 58 -292t245 -118z" glyph-name="dcaron" horiz-adv-x="1638" unicode="ď"/><glyph d="M872 1536q162 0 293 -46t224.5 -138t131.5 -245t9 -351q-47 -348 -295 -552t-578 -204h-469l101 711h-144l17 116h143l98 709h469zM1350 756q45 322 -94.5 471t-405.5 149h-289l-78 -549h265l-17 -116h-264l-78 -549h289q260 0 446.5 152.5t225.5 441.5z" glyph-name="Dcroat" horiz-adv-x="1617" unicode="Đ"/><glyph d="M1266 1210h-140l-170 -1210h-155l12 164q-158 -184 -379 -184q-211 0 -321.5 153.5t-77.5 378.5q31 227 184.5 379.5t364.5 152.5q217 0 323 -176l47 342h-295l17 119h295l28 207h172l-28 -207h141zM483 135q119 0 217.5 78t141.5 201l28 198q-10 123 -86.5 200 t-193.5 77q-147 0 -254 -107.5t-129 -269.5q-23 -160 53 -268.5t223 -108.5z" glyph-name="dcroat" horiz-adv-x="1300" unicode="đ"/><glyph d="M1049 1743h-635l16 119h635zM387 1376l-74 -526h682l-22 -162h-682l-76 -526h770l-22 -162h-951l215 1536h951l-21 -160h-770z" glyph-name="Emacron" horiz-adv-x="1171" unicode="Ē"/><glyph d="M975 1241h-635l16 119h635zM1073 569q-4 -31 -12 -67h-844q-18 -166 70 -262.5t215 -98.5q123 -2 212 51.5t130 143.5h162q-16 -57 -54.5 -113.5t-99.5 -112t-155.5 -88t-207.5 -32.5q-236 2 -356.5 164.5t-87.5 406.5q37 250 199 412t403 162q231 0 346 -156t80 -410z M627 979q-145 0 -245.5 -91t-139.5 -245h667q4 156 -67.5 246t-214.5 90z" glyph-name="emacron" horiz-adv-x="1155" unicode="ē"/><glyph d="M727 1720q-49 0 -79 35t-21 84q6 47 46 82t87 35t77.5 -35t22.5 -82q-6 -49 -46 -84t-87 -35zM387 1376l-74 -526h682l-22 -162h-682l-76 -526h770l-22 -162h-951l215 1536h951l-21 -160h-770z" glyph-name="Edotaccent" horiz-adv-x="1171" unicode="Ė"/><glyph d="M655 1219q-49 0 -78.5 34.5t-23.5 81.5q8 49 47 84t88 35q47 0 78 -35t22 -84q-8 -47 -47 -81.5t-86 -34.5zM1073 569q-4 -31 -12 -67h-844q-18 -166 70 -262.5t215 -98.5q123 -2 212 51.5t130 143.5h162q-16 -57 -54.5 -113.5t-99.5 -112t-155.5 -88t-207.5 -32.5 q-236 2 -356.5 164.5t-87.5 406.5q37 250 199 412t403 162q231 0 346 -156t80 -410zM627 979q-145 0 -245.5 -91t-139.5 -245h667q4 156 -67.5 246t-214.5 90z" glyph-name="edotaccent" horiz-adv-x="1155" unicode="ė"/><glyph d="M1157 1376h-770l-74 -526h682l-22 -162h-682l-76 -526h770l-22 -162h-54q-109 -29 -203 -117t-108 -184q-8 -61 22.5 -98t96.5 -37q117 0 207 94l47 -84q-131 -113 -297 -106q-102 4 -157.5 61t-41.5 154q25 178 281 317h-744l215 1536h951z" glyph-name="Eogonek" horiz-adv-x="1241" unicode="Ę"/><glyph d="M647 1135q231 0 346 -156t80 -410q-4 -31 -12 -67h-844q-18 -166 70 -262.5t215 -98.5q123 -2 212 51.5t130 143.5h162q-31 -104 -125.5 -200.5t-243.5 -129.5q-2 0 -6 -3t-8 -5q-70 -76 -82 -158q-10 -61 20.5 -98t95.5 -37q117 0 205 92l47 -82q-129 -113 -295 -106 q-104 4 -158.5 60.5t-39.5 154.5q12 82 73 160q0 4 3 6h-3q-236 2 -356.5 164.5t-87.5 406.5q37 250 198.5 412t403.5 162zM909 643q4 156 -67.5 246t-214.5 90q-145 0 -245.5 -91t-139.5 -245h667z" glyph-name="eogonek" horiz-adv-x="1128" unicode="ę"/><glyph d="M629 1698l-158 350h137l127 -260l201 260h137l-258 -350h-186zM387 1376l-74 -526h682l-22 -162h-682l-76 -526h770l-22 -162h-951l215 1536h951l-21 -160h-770z" glyph-name="Ecaron" horiz-adv-x="1171" unicode="Ě"/><glyph d="M557 1196l-158 350h138l127 -260l200 260h137l-258 -350h-186zM1073 569q-4 -31 -12 -67h-844q-18 -166 70 -262.5t215 -98.5q123 -2 212 51.5t130 143.5h162q-16 -57 -54.5 -113.5t-99.5 -112t-155.5 -88t-207.5 -32.5q-236 2 -356.5 164.5t-87.5 406.5q37 250 199 412 t403 162q231 0 346 -156t80 -410zM627 979q-145 0 -245.5 -91t-139.5 -245h667q4 156 -67.5 246t-214.5 90z" glyph-name="ecaron" horiz-adv-x="1155" unicode="ě"/><glyph d="M907 1671q-150 0 -231.5 86t-61.5 232h109q-14 -86 43 -147.5t157.5 -61.5t175.5 61.5t87 147.5h106q-20 -145 -126.5 -231.5t-258.5 -86.5zM1454 784l-24 -166l-87 -618h-120l-2 244q-104 -131 -232.5 -192.5t-320.5 -61.5q-217 0 -366.5 108.5t-208 282.5t-27.5 383 q49 348 275 568t540 220q258 0 416.5 -128t160.5 -361h-172q-20 156 -138 238.5t-280 82.5q-252 0 -424 -170t-211 -450q-39 -270 94.5 -439t360.5 -169q248 0 391.5 127t173.5 344h-419l22 157h598z" glyph-name="Gbreve" horiz-adv-x="1546" unicode="Ğ"/><glyph d="M671.5 1159q-149.5 0 -232.5 86t-62 232h108q-12 -86 45.5 -147.5t155.5 -61.5q100 0 176 61.5t88 147.5h107q-20 -145 -128 -231.5t-257.5 -86.5zM385 -498q-217 -2 -344 89.5t-113 238.5q6 78 55.5 150.5t131.5 111.5q-113 78 -103 174q10 63 52 107.5t118 89.5 q-94 102 -73 282q25 164 162 277t323 113q150 0 248 -70q31 63 106.5 101t147.5 34l-21 -145q-43 4 -85 -16.5t-60 -61.5q68 -111 49 -238q-23 -176 -160 -285.5t-334 -111.5q-145 -4 -219 49q-39 -14 -61.5 -45t-18.5 -63q16 -90 170 -93l224 -2q356 -6 362 -262 q-2 -180 -151.5 -301t-405.5 -123zM801 741q14 100 -50.5 168t-179.5 68q-113 0 -194.5 -67.5t-97.5 -170.5q-14 -100 50 -168.5t175 -68.5q115 0 199 68.5t98 170.5zM764 -90q-2 131 -272 131h-224q-66 -16 -108.5 -67.5t-50.5 -114.5q-12 -92 70.5 -146.5t211.5 -54.5 q176 0 276.5 70.5t96.5 181.5z" glyph-name="gbreve" horiz-adv-x="1097" unicode="ğ"/><glyph d="M1018 1720q-47 0 -78 35t-22 84q8 47 47 82t86 35t77.5 -35t22.5 -82q-6 -49 -46 -84t-87 -35zM1454 784l-24 -166l-87 -618h-120l-2 244q-104 -131 -232.5 -192.5t-320.5 -61.5q-217 0 -366.5 108.5t-208 282.5t-27.5 383q49 348 275 568t540 220q258 0 416.5 -128 t160.5 -361h-172q-20 156 -138 238.5t-280 82.5q-252 0 -424 -170t-211 -450q-39 -270 94.5 -439t360.5 -169q248 0 391.5 127t173.5 344h-419l22 157h598z" glyph-name="Gdotaccent" horiz-adv-x="1546" unicode="Ġ"/><glyph d="M670 1208q-49 0 -79 35t-22 84q6 47 46 82t87.5 35t78 -35t22.5 -82q-6 -49 -46 -84t-87 -35zM385 -498q-217 -2 -344 89.5t-113 238.5q6 78 55.5 150.5t131.5 111.5q-113 78 -103 174q10 63 52 107.5t118 89.5q-94 102 -73 282q25 164 162 277t323 113q150 0 248 -70 q31 63 106.5 101t147.5 34l-21 -145q-43 4 -85 -16.5t-60 -61.5q68 -111 49 -238q-23 -176 -160 -285.5t-334 -111.5q-145 -4 -219 49q-39 -14 -61.5 -45t-18.5 -63q16 -90 170 -93l224 -2q356 -6 362 -262q-2 -180 -151.5 -301t-405.5 -123zM801 741q14 100 -50.5 168 t-179.5 68q-113 0 -194.5 -67.5t-97.5 -170.5q-14 -100 50 -168.5t175 -68.5q115 0 199 68.5t98 170.5zM764 -90q-2 131 -272 131h-224q-66 -16 -108.5 -67.5t-50.5 -114.5q-12 -92 70.5 -146.5t211.5 -54.5q176 0 276.5 70.5t96.5 181.5z" glyph-name="gdotaccent" horiz-adv-x="1097" unicode="ġ"/><glyph d="M1454 784l-24 -166l-87 -618h-120l-2 244q-104 -131 -232.5 -192.5t-320.5 -61.5q-217 0 -366.5 108.5t-208 282.5t-27.5 383q49 348 275 568t540 220q258 0 416.5 -128t160.5 -361h-172q-20 156 -138 238.5t-280 82.5q-252 0 -424 -170t-211 -450q-39 -270 94.5 -439 t360.5 -169q248 0 391.5 127t173.5 344h-419l22 157h598zM684 -311q-33 12 -50.5 42.5t-10.5 69.5q6 47 45 82t88 35q47 0 74.5 -34t21.5 -83q-6 -39 -45 -102.5t-68.5 -100t-52.5 -61.5h-74z" glyph-name="Gcommaaccent" horiz-adv-x="1546" unicode="Ģ"/><glyph d="M739 1403q74 -29 64 -111q-8 -49 -46 -82.5t-87 -33.5t-77 33.5t-20 82.5q12 96 164 262h74zM385 -498q-217 -2 -344 89.5t-113 238.5q6 78 55.5 150.5t131.5 111.5q-113 78 -103 174q10 63 52 107.5t118 89.5q-94 102 -73 282q25 164 162 277t323 113q150 0 248 -70 q31 63 106.5 101t147.5 34l-21 -145q-43 4 -85 -16.5t-60 -61.5q68 -111 49 -238q-23 -176 -160 -285.5t-334 -111.5q-145 -4 -219 49q-39 -14 -61.5 -45t-18.5 -63q16 -90 170 -93l224 -2q356 -6 362 -262q-2 -180 -151.5 -301t-405.5 -123zM801 741q14 100 -50.5 168 t-179.5 68q-113 0 -194.5 -67.5t-97.5 -170.5q-14 -100 50 -168.5t175 -68.5q115 0 199 68.5t98 170.5zM764 -90q-2 131 -272 131h-224q-66 -16 -108.5 -67.5t-50.5 -114.5q-12 -92 70.5 -146.5t211.5 -54.5q176 0 276.5 70.5t96.5 181.5z" glyph-name="gcommaaccent" horiz-adv-x="1097" unicode="ģ"/><glyph d="M1690 1161h-140l-161 -1161h-181l97 688h-826l-94 -688h-182l162 1161h-142l13 78h139l43 297h182l-43 -297h823l43 297h181l-43 -297h139zM1370 1161h-823l-43 -311h823z" glyph-name="Hbar" horiz-adv-x="1773" unicode="Ħ"/><glyph d="M852 1139q186 0 283.5 -112t70.5 -298l-102 -729h-193l101 707q16 121 -47.5 191.5t-188.5 70.5q-131 0 -239.5 -77t-124.5 -194l-99 -698h-190l170 1219h-86l16 116h86l29 199h190l-28 -199h329l-16 -116h-330l-34 -252q72 78 181 125t222 47z" glyph-name="hbar" horiz-adv-x="1284" unicode="ħ"/><glyph d="M535 1714q-117 0 -175 113q-29 59 -86 59q-47 0 -77.5 -43t-28.5 -110h-113q2 115 68.5 188.5t161.5 73.5q119 0 176 -111q27 -61 86 -61q47 0 77.5 43t28.5 108h109q2 -113 -63.5 -186.5t-163.5 -73.5zM276 1536h183l-215 -1536h-183z" glyph-name="Itilde" horiz-adv-x="489" unicode="Ĩ"/><glyph d="M461 1202q-119 0 -172 113q-31 59 -86 59q-49 0 -80 -43t-29 -110h-112q2 115 68.5 188.5t162.5 73.5q117 0 174 -111q29 -61 86 -61q47 0 78 43t29 108h110q0 -113 -65.5 -186.5t-163.5 -73.5zM205 1024h176l-143 -1024h-177z" glyph-name="itilde" horiz-adv-x="483" unicode="ĩ"/><glyph d="M94 1862h637l-16 -119h-637zM276 1536h183l-215 -1536h-183z" glyph-name="Imacron" horiz-adv-x="489" unicode="Ī"/><glyph d="M18 1350h637l-16 -119h-637zM205 1024h176l-143 -1024h-177z" glyph-name="imacron" horiz-adv-x="483" unicode="ī"/><glyph d="M285 -426q-129 -113 -295 -106q-104 4 -159.5 61t-43.5 154q29 180 285 317h-11l215 1536h183l-215 -1536h-19q-109 -29 -203 -117t-108 -184q-8 -61 22.5 -98t96.5 -37q117 0 207 94z" glyph-name="Iogonek" horiz-adv-x="489" unicode="Į"/><glyph d="M319 1208q-49 0 -78.5 35t-23.5 84q8 47 47 82t88 35q47 0 77 -35t24 -82q-8 -49 -47.5 -84t-86.5 -35zM283 -426q-131 -113 -297 -106q-104 4 -159.5 61t-41.5 154q29 180 283 317h-7l144 1024h176l-143 -1024h-15q-111 -29 -204 -117t-107 -184q-8 -59 22.5 -97 t94.5 -38q119 0 207 94z" glyph-name="iogonek" horiz-adv-x="483" unicode="į"/><glyph d="M393 1720q-49 0 -78.5 35t-21.5 84q6 47 46 82t87 35t78 -35t22 -82q-6 -49 -46 -84t-87 -35zM276 1536h183l-215 -1536h-183z" glyph-name="Idotaccent" horiz-adv-x="489" unicode="İ"/><glyph d="M205 1024h176l-143 -1024h-177z" glyph-name="dotlessi" horiz-adv-x="483" unicode="ı"/><glyph d="M385 1536h182l-215 -1536h-182zM856 -20q-90 0 -154 18l27 186q61 -23 148 -22q72 0 131 51t69 123l168 1200h180l-170 -1206q-20 -150 -136 -250t-263 -100z" glyph-name="IJ" horiz-adv-x="1490" unicode="Ĳ"/><glyph d="M1122 1305q-47 0 -77.5 34.5t-24.5 81.5q8 47 47 82t86 35t77 -35t21 -82q-4 -47 -44 -81.5t-85 -34.5zM420 1214q-47 0 -78 35t-25 82q8 49 48.5 83t87.5 34q49 0 78.5 -34t21.5 -83q-6 -47 -46 -82t-87 -35zM569 -508l25 162h45q90 0 129 42t53 124l183 1306h178 l-187 -1327q-41 -307 -379 -307h-47zM305 1024h176l-143 -1024h-176z" glyph-name="ij" horiz-adv-x="1341" unicode="ĳ"/><glyph d="M938 0l-627 709l-98 -709h-182l215 1536h182l-102 -727l751 725h223l-794 -768l665 -766h-233zM449 -354q-35 12 -52.5 42.5t-11.5 69.5q6 47 45 82t88 35q47 0 75 -34t21 -83q-6 -39 -45 -102.5t-68.5 -100t-51.5 -61.5h-74z" glyph-name="Kcommaaccent" horiz-adv-x="1263" unicode="Ķ"/><glyph d="M29 0l215 1536h190l-125 -893l477 483h222l-543 -530l453 -596h-222l-403 530l-74 -530h-190zM358 -354q-74 31 -63 112q8 49 47 83t88 34q47 0 74.5 -35t19.5 -82q-6 -55 -66.5 -140t-97.5 -122h-73z" glyph-name="kcommaaccent" horiz-adv-x="1026" unicode="ķ"/><glyph d="M555 2048h182l-266 -315h-143zM276 1536h183l-195 -1374h565l-22 -162h-746z" glyph-name="Lacute" horiz-adv-x="952" unicode="Ĺ"/><glyph d="M547 2048h182l-266 -315h-144zM88 0l215 1536h178l-215 -1536h-178z" glyph-name="lacute" horiz-adv-x="655" unicode="ĺ"/><glyph d="M276 1536h183l-195 -1374h565l-22 -162h-746zM342 -367q-35 12 -52.5 42t-13.5 69q8 49 47 83t89 34q47 0 74.5 -34t19.5 -83q-12 -96 -164 -262h-74z" glyph-name="Lcommaaccent" horiz-adv-x="952" unicode="Ļ"/><glyph d="M88 0l215 1536h178l-215 -1536h-178zM98 -362q-72 27 -61 110q8 49 46 83t87 34q47 0 75.5 -34t20.5 -83q-8 -55 -65.5 -136t-98.5 -126h-75z" glyph-name="lcommaaccent" horiz-adv-x="655" unicode="ļ"/><glyph d="M276 1536h183l-195 -1374h565l-22 -162h-746zM870 1309q-74 27 -63 110q8 49 46 83t87 34q47 0 75.5 -34t20.5 -83q-8 -55 -65.5 -136t-98.5 -126h-75z" glyph-name="Lcaron" horiz-adv-x="976" unicode="Ľ"/><glyph d="M717 1317q-33 12 -51.5 43t-10.5 67q4 47 43 82t88 35q47 0 75 -33.5t24 -83.5q-8 -55 -66.5 -136t-99.5 -126h-76zM88 0l215 1536h178l-215 -1536h-178z" glyph-name="lcaron" horiz-adv-x="847" unicode="ľ"/><glyph d="M88 0l215 1536h178l-215 -1536h-178zM596 643q-39 0 -62.5 27.5t-17.5 66.5q4 39 37 66.5t70 27.5q39 0 62.5 -27.5t16.5 -66.5q-4 -39 -36.5 -66.5t-69.5 -27.5z" glyph-name="ldot" horiz-adv-x="774" unicode="ŀ"/><glyph d="M829 162l-22 -162h-746l84 608l-120 -110h-125l266 247l110 791h183l-84 -600l117 111h131l-267 -248l-92 -637h565z" glyph-name="Lslash" horiz-adv-x="952" unicode="Ł"/><glyph d="M647 1024l-264 -242l-8 -8l-109 -774h-178l82 588l-121 -111h-127l266 246l115 813h178l-88 -625l10 9l113 104h131z" glyph-name="lslash" horiz-adv-x="655" unicode="ł"/><glyph d="M1018 1733h-144l230 315h180zM1559 1536l-216 -1536h-172l-753 1245l-174 -1245h-183l215 1536h173l755 -1243l174 1243h181z" glyph-name="Nacute" horiz-adv-x="1589" unicode="Ń"/><glyph d="M760 1221h-144l230 315h180zM752 1139q184 0 278 -112t68 -300l-101 -727h-188l98 709q16 119 -46 190.5t-183 71.5q-131 0 -237.5 -76t-123.5 -195l-98 -700h-188l157 1126h164l-4 -168q70 82 180.5 131.5t223.5 49.5z" glyph-name="nacute" horiz-adv-x="1204" unicode="ń"/><glyph d="M1559 1536l-216 -1536h-172l-753 1245l-174 -1245h-183l215 1536h173l755 -1243l174 1243h181zM631 -354q-72 27 -62 110q8 49 46 83t87 34q47 0 76 -34t21 -83q-8 -55 -65.5 -136t-98.5 -126h-76z" glyph-name="Ncommaaccent" horiz-adv-x="1589" unicode="Ņ"/><glyph d="M752 1139q184 0 278 -112t68 -300l-101 -727h-188l98 709q16 119 -46 190.5t-183 71.5q-131 0 -237.5 -76t-123.5 -195l-98 -700h-188l157 1126h164l-4 -168q70 82 180.5 131.5t223.5 49.5zM416 -367q-74 29 -62 111q6 47 45 82t88 35q47 0 75 -34t22 -83 q-8 -55 -65.5 -136t-98.5 -126h-76z" glyph-name="ncommaaccent" horiz-adv-x="1204" unicode="ņ"/><glyph d="M844 1698l-160 350h137l129 -260l199 260h137l-256 -350h-186zM1559 1536l-216 -1536h-172l-753 1245l-174 -1245h-183l215 1536h173l755 -1243l174 1243h181z" glyph-name="Ncaron" horiz-adv-x="1589" unicode="Ň"/><glyph d="M586 1186l-158 350h137l127 -260l201 260h137l-258 -350h-186zM752 1139q184 0 278 -112t68 -300l-101 -727h-188l98 709q16 119 -46 190.5t-183 71.5q-131 0 -237.5 -76t-123.5 -195l-98 -700h-188l157 1126h164l-4 -168q70 82 180.5 131.5t223.5 49.5z" glyph-name="ncaron" horiz-adv-x="1204" unicode="ň"/><glyph d="M1579 1536l-238 -1692q-18 -131 -116.5 -195.5t-235.5 -60.5l15 123q137 -10 157 133l25 176l-748 1215l-174 -1235h-174l215 1536h166l760 -1235l174 1235h174z" glyph-name="Eng" horiz-adv-x="1638" unicode="Ŋ"/><glyph d="M752 1139q184 0 278 -112t68 -300l-101 -727h-36l-23 -166q-18 -129 -117.5 -194.5t-238.5 -61.5l18 121q143 -4 162 135l24 178l25 2l96 695q16 119 -46 190.5t-183 71.5q-131 0 -237.5 -76t-123.5 -195l-98 -700h-188l157 1126h164l-4 -168q70 82 180.5 131.5 t223.5 49.5z" glyph-name="eng" horiz-adv-x="1243" unicode="ŋ"/><glyph d="M705 1862h634l-18 -119h-635zM754 -20q-326 0 -506 228t-133 560t291.5 560t568.5 228q326 0 506 -228t133 -560t-291.5 -560t-568.5 -228zM778 154q256 0 440.5 176t221.5 438t-98.5 439t-389.5 177q-256 0 -442 -177t-223 -439q-37 -260 100 -437t391 -177z" glyph-name="Omacron" horiz-adv-x="1699" unicode="Ō"/><glyph d="M362 1350h635l-14 -119h-635zM487 -20q-221 0 -340.5 153.5t-87.5 378.5q31 225 194 378.5t384 153.5q219 0 340 -153.5t90 -378.5q-33 -225 -197 -378.5t-383 -153.5zM507.5 135q147.5 0 254 108.5t131.5 268.5q23 162 -54 269.5t-224.5 107.5t-254 -107.5 t-129.5 -269.5q-23 -160 53 -268.5t223.5 -108.5z" glyph-name="omacron" horiz-adv-x="1167" unicode="ō"/><glyph d="M1108 2048h172l-391 -356h-131zM1456 2048h170l-389 -356h-133zM754 -20q-326 0 -506 228t-133 560t291.5 560t568.5 228q326 0 506 -228t133 -560t-291.5 -560t-568.5 -228zM778 154q256 0 440.5 176t221.5 438t-98.5 439t-389.5 177q-256 0 -442 -177t-223 -439 q-37 -260 100 -437t391 -177z" glyph-name="Ohungarumlaut" horiz-adv-x="1699" unicode="Ő"/><glyph d="M768 1536h172l-389 -356h-133zM1116 1536h170l-389 -356h-133zM487 -20q-221 0 -340.5 153.5t-87.5 378.5q31 225 194 378.5t384 153.5q219 0 340 -153.5t90 -378.5q-33 -225 -197 -378.5t-383 -153.5zM507.5 135q147.5 0 254 108.5t131.5 268.5q23 162 -54 269.5 t-224.5 107.5t-254 -107.5t-129.5 -269.5q-23 -160 53 -268.5t223.5 -108.5z" glyph-name="ohungarumlaut" horiz-adv-x="1167" unicode="ő"/><glyph d="M2513 1376h-768l-74 -526h682l-24 -162h-682l-74 -526h768l-21 -162h-950l35 248q-125 -125 -288 -195.5t-335 -70.5q-328 0 -525.5 230t-152.5 558q31 215 162 396.5t328 287t412 105.5q172 0 314 -71t230 -196l35 244h950zM807 156q203 0 380 118.5t265 307.5l53 376 q-35 188 -179 307t-347 119q-256 0 -461 -179t-239.5 -435t119 -435t409.5 -179z" glyph-name="OE" horiz-adv-x="2652" unicode="Œ"/><glyph d="M1532 1135q231 0 346 -156t80 -410q-4 -31 -12 -67h-844q-18 -166 70 -262.5t214 -98.5q123 -2 212.5 51.5t130.5 143.5h161q-16 -57 -54 -113.5t-99.5 -112t-155.5 -88t-207 -32.5q-145 2 -249.5 66.5t-155.5 179.5v-7q-84 -117 -209 -183t-268 -66q-236 0 -364 169.5 t-93 415.5q37 248 212 417t410 169q143 0 249 -66.5t159 -183.5v-2q174 236 467 236zM516 152q158 0 271.5 118.5t138.5 294.5q27 176 -54 295t-239 119t-272.5 -118t-139.5 -296q-25 -176 56 -294.5t239 -118.5zM1794 643q4 156 -67.5 246t-215.5 90q-145 0 -245.5 -91 t-139.5 -245h668z" glyph-name="oe" horiz-adv-x="2035" unicode="œ"/><glyph d="M844 1733h-144l230 315h180zM1126 0h-202l-299 637h-355l-88 -637h-182l215 1536h637q176 0 283.5 -137t83.5 -322q-23 -158 -142 -282.5t-270 -147.5zM739 784q113 0 205 89.5t108.5 208t-51 206.5t-178.5 88h-448l-84 -592h448z" glyph-name="Racute" horiz-adv-x="1204" unicode="Ŕ"/><glyph d="M555 1221h-143l227 315h182zM795 1137l-27 -162q-178 10 -304 -83t-155 -282l-84 -610h-192l157 1126h172l-8 -204q134 229 441 215z" glyph-name="racute" horiz-adv-x="806" unicode="ŕ"/><glyph d="M1126 0h-202l-299 637h-355l-88 -637h-182l215 1536h637q176 0 283.5 -137t83.5 -322q-23 -158 -142 -282.5t-270 -147.5zM739 784q113 0 205 89.5t108.5 208t-51 206.5t-178.5 88h-448l-84 -592h448zM444 -350q-74 29 -61 110q6 47 44 82t87 35t76.5 -33.5t21.5 -83.5 q-6 -39 -45 -101t-68.5 -99t-52.5 -62h-73z" glyph-name="Rcommaaccent" horiz-adv-x="1204" unicode="Ŗ"/><glyph d="M795 1137l-27 -162q-178 10 -304 -83t-155 -282l-84 -610h-192l157 1126h172l-8 -204q134 229 441 215zM55 -360q-76 33 -63 112q6 47 45 82t88 35q47 0 74.5 -34t21.5 -83q-8 -55 -68.5 -141t-95.5 -121h-75z" glyph-name="rcommaaccent" horiz-adv-x="806" unicode="ŗ"/><glyph d="M670 1698l-158 350h137l127 -260l201 260h137l-258 -350h-186zM1126 0h-202l-299 637h-355l-88 -637h-182l215 1536h637q176 0 283.5 -137t83.5 -322q-23 -158 -142 -282.5t-270 -147.5zM739 784q113 0 205 89.5t108.5 208t-51 206.5t-178.5 88h-448l-84 -592h448z" glyph-name="Rcaron" horiz-adv-x="1204" unicode="Ř"/><glyph d="M395 1186l-157 350h137l127 -260l200 260h138l-258 -350h-187zM795 1137l-27 -162q-178 10 -304 -83t-155 -282l-84 -610h-192l157 1126h172l-8 -204q134 229 441 215z" glyph-name="rcaron" horiz-adv-x="806" unicode="ř"/><glyph d="M1026 2046h180l-266 -315h-143zM516 -20q-233 0 -366.5 132t-122.5 324h176q6 -119 89 -201.5t253 -82.5q162 0 272.5 68.5t130.5 199.5q10 63 -9 111.5t-82.5 88t-100.5 56t-135 51.5q-29 10 -43 16q-84 31 -130.5 50.5t-112 57.5t-98 76t-53 97t-10.5 131 q29 188 195 294.5t372 106.5q242 0 360 -111.5t124 -309.5h-166q0 111 -86 188.5t-250 77.5q-129 0 -237.5 -61.5t-125.5 -174.5q-6 -43 10.5 -79.5t38 -60.5t72.5 -53.5t79 -40.5t97 -40q23 -10 35 -14q205 -84 246 -107q211 -117 201 -309q-2 -18 -4 -35 q-31 -209 -209.5 -327.5t-409.5 -118.5z" glyph-name="Sacute" horiz-adv-x="1286" unicode="Ś"/><glyph d="M735 1536h180l-266 -315h-141zM410 -18q-209 0 -307.5 108.5t-90.5 241.5h166q2 -80 74 -143.5t176 -61.5t179 55.5t85 136.5q12 86 -56.5 130.5t-201.5 68.5q-160 33 -248 98.5t-67 202.5q18 147 148 235.5t298 88.5q176 0 273.5 -82t93.5 -238h-160q-6 88 -69.5 127 t-137.5 43q-94 4 -167.5 -35.5t-84.5 -115.5q-10 -82 53.5 -119t192.5 -61q72 -14 127 -35t108.5 -58t78 -97t12.5 -140q-23 -152 -157 -251t-318 -99z" glyph-name="sacute" horiz-adv-x="974" unicode="ś"/><glyph d="M692 877q205 -84 246 -107q211 -117 201 -309q-2 -18 -4 -35q-29 -197 -191 -314.5t-379 -129.5l-71 -119q111 20 178 -34t53 -151q-12 -88 -82 -148t-158 -60q-70 0 -132 36.5t-85 90.5l88 36q18 -33 59.5 -54t82.5 -21q51 0 90 34.5t45 85.5q10 72 -45.5 99.5 t-147.5 -4.5l-65 49l100 160q-215 12 -337 141t-111 313h176q6 -119 89 -201.5t253 -82.5q162 0 272.5 68.5t130.5 199.5q10 63 -9 111.5t-82.5 88t-100.5 56t-135 51.5q-29 10 -43 16q-84 31 -130.5 50.5t-112 57.5t-98 76t-53 97t-10.5 131q29 188 195 294.5t372 106.5 q242 0 360 -111.5t124 -309.5h-166q0 111 -86 188.5t-250 77.5q-129 0 -237.5 -61.5t-125.5 -174.5q-6 -43 10.5 -79.5t38 -60.5t72.5 -53.5t79 -40.5t97 -40q23 -10 35 -14z" glyph-name="Scedilla" horiz-adv-x="1286" unicode="Ş"/><glyph d="M410 -18q-209 0 -307.5 108.5t-90.5 241.5h166q2 -80 74 -143.5t176 -61.5t179 55.5t85 136.5q12 86 -56.5 130.5t-201.5 68.5q-160 33 -248 98.5t-67 202.5q18 147 148 235.5t298 88.5q176 0 273.5 -82t93.5 -238h-160q-6 88 -69.5 127t-137.5 43q-94 4 -167.5 -35.5 t-84.5 -115.5q-10 -82 53.5 -119t192.5 -61q72 -14 127 -35t108.5 -58t78 -97t12.5 -140q-23 -152 -157 -251t-318 -99zM446 -18l-73 -121q111 20 177 -33t52 -152q-12 -88 -80.5 -148t-156.5 -60q-70 0 -132.5 37.5t-85.5 91.5l89 34q18 -33 59 -54t82 -21q51 0 89 34.5 t46 85.5q10 72 -46 99.5t-149 -4.5l-65 49l102 162h92z" glyph-name="scedilla" horiz-adv-x="974" unicode="ş"/><glyph d="M606 2046h137l129 -258l199 258h137l-256 -350h-186zM516 -20q-233 0 -366.5 132t-122.5 324h176q6 -119 89 -201.5t253 -82.5q162 0 272.5 68.5t130.5 199.5q10 63 -9 111.5t-82.5 88t-100.5 56t-135 51.5q-29 10 -43 16q-84 31 -130.5 50.5t-112 57.5t-98 76t-53 97 t-10.5 131q29 188 195 294.5t372 106.5q242 0 360 -111.5t124 -309.5h-166q0 111 -86 188.5t-250 77.5q-129 0 -237.5 -61.5t-125.5 -174.5q-6 -43 10.5 -79.5t38 -60.5t72.5 -53.5t79 -40.5t97 -40q23 -10 35 -14q205 -84 246 -107q211 -117 201 -309q-2 -18 -4 -35 q-31 -209 -209.5 -327.5t-409.5 -118.5z" glyph-name="Scaron" horiz-adv-x="1286" unicode="Š"/><glyph d="M317 1536h138l127 -260l200 260h138l-258 -350h-187zM410 -18q-209 0 -307.5 108.5t-90.5 241.5h166q2 -80 74 -143.5t176 -61.5t179 55.5t85 136.5q12 86 -56.5 130.5t-201.5 68.5q-160 33 -248 98.5t-67 202.5q18 147 148 235.5t298 88.5q176 0 273.5 -82t93.5 -238 h-160q-6 88 -69.5 127t-137.5 43q-94 4 -167.5 -35.5t-84.5 -115.5q-10 -82 53.5 -119t192.5 -61q72 -14 127 -35t108.5 -58t78 -97t12.5 -140q-23 -152 -157 -251t-318 -99z" glyph-name="scaron" horiz-adv-x="974" unicode="š"/><glyph d="M1223 1376h-461l-195 -1374h-178l193 1374h-463l22 162h1104zM489 -532q-68 0 -131 37.5t-88 91.5l88 34q20 -33 61.5 -54t82.5 -21q51 0 89 34.5t46 85.5q10 72 -46 99.5t-149 -4.5l-65 49l115 180h92l-86 -139q109 23 176 -31.5t53 -153.5q-12 -88 -81 -148t-157 -60z " glyph-name="Tcommaaccent" horiz-adv-x="1112" unicode="Ţ"/><glyph d="M465 -2q-162 0 -241 65.5t-54 241.5l96 676h-176l21 149h176l57 406h182l-57 -406h266l-20 -151l-271 2l-92 -655q-12 -84 13.5 -125t121.5 -41h125l-24 -162h-123zM330 -139q111 20 178 -33t53 -152q-12 -88 -81.5 -148t-157.5 -60q-70 0 -132.5 37.5t-85.5 91.5l89 34 q18 -33 59 -54t82 -21q51 0 90 34.5t45 85.5q10 72 -46 99.5t-147 -4.5l-65 49l106 170l86 -8z" glyph-name="tcommaaccent" horiz-adv-x="692" unicode="ţ"/><glyph d="M684 1698l-160 350h138l129 -260l198 260h137l-256 -350h-186zM1223 1376h-461l-195 -1374h-178l193 1374h-463l22 162h1104z" glyph-name="Tcaron" horiz-adv-x="1105" unicode="Ť"/><glyph d="M686 1350q-74 29 -63 112q8 47 46 82t87 35q47 0 75.5 -35t20.5 -82q-8 -57 -65.5 -138t-98.5 -126h-76zM465 -2q-162 0 -241 65.5t-54 241.5l96 676h-176l21 149h176l57 406h182l-57 -406h266l-20 -151l-271 2l-92 -655q-12 -84 13.5 -125t121.5 -41h125l-24 -162h-123z " glyph-name="tcaron" horiz-adv-x="753" unicode="ť"/><glyph d="M1223 1376h-461l-78 -549h225l37 -75l-272 -41h-6l-101 -709h-178l98 709h-28l-115 75l160 39l78 551h-463l22 162h1104z" glyph-name="Tbar" horiz-adv-x="1087" unicode="Ŧ"/><glyph d="M715 979l-271 2l-57 -412h258l-16 -116h-258l-19 -127q-12 -84 13.5 -125t121.5 -41h125l-24 -162h-123q-162 0 -241 65.5t-54 241.5l20 148h-167l16 116h168l59 412h-176l21 149h176l57 406h182l-57 -406h266z" glyph-name="tbar" horiz-adv-x="692" unicode="ŧ"/><glyph d="M1034 1714q-117 0 -174 113q-29 59 -86 59q-47 0 -77.5 -43t-28.5 -110h-111q0 113 66.5 187.5t160.5 74.5q119 0 177 -111q27 -61 86 -61q47 0 77.5 43t28.5 108h109q2 -113 -64 -186.5t-164 -73.5zM584 -20q-244 0 -393.5 152.5t-118.5 371.5l145 1032h182l-141 -1004 q-23 -164 79.5 -277.5t270.5 -113.5t309.5 115t163.5 276l140 1004h180l-146 -1032q-31 -219 -228 -371.5t-443 -152.5z" glyph-name="Utilde" horiz-adv-x="1484" unicode="Ũ"/><glyph d="M596 1862h635l-19 -119h-634zM584 -20q-244 0 -393.5 152.5t-118.5 371.5l145 1032h182l-141 -1004q-23 -164 79.5 -277.5t270.5 -113.5t309.5 115t163.5 276l140 1004h180l-146 -1032q-31 -219 -228 -371.5t-443 -152.5z" glyph-name="Umacron" horiz-adv-x="1484" unicode="Ū"/><glyph d="M1006 1231h-635l16 119h635zM1161 1126l-157 -1126h-168l6 170q-72 -82 -182.5 -132t-221.5 -50q-184 0 -285.5 118.5t-74.5 303.5l100 716h193l-97 -694q-18 -123 45.5 -198.5t188.5 -75.5q129 0 238.5 77.5t125.5 196.5l99 694h190z" glyph-name="umacron" horiz-adv-x="1210" unicode="ū"/><glyph d="M885 1657q-86 0 -139.5 60.5t-43.5 146.5q14 86 84 147.5t156 61.5q84 0 136 -61.5t40 -147.5q-12 -84 -80.5 -145.5t-152.5 -61.5zM895 1739q51 0 92 35.5t49 89t-23.5 91.5t-82.5 38t-93 -38t-50.5 -91.5t23.5 -89t85 -35.5zM584 -20q-244 0 -393.5 152.5t-118.5 371.5 l145 1032h182l-141 -1004q-23 -164 79.5 -277.5t270.5 -113.5t309.5 115t163.5 276l140 1004h180l-146 -1032q-31 -219 -228 -371.5t-443 -152.5z" glyph-name="Uring" horiz-adv-x="1484" unicode="Ů"/><glyph d="M676 1145q-86 0 -138.5 60.5t-41.5 146.5q12 86 81.5 147.5t157.5 61.5q84 0 135.5 -61.5t40.5 -147.5q-12 -84 -81.5 -145.5t-153.5 -61.5zM723 1481q-51 0 -93 -38t-50.5 -91.5t23.5 -89t85 -35.5q51 0 92 35.5t49.5 89t-23.5 91.5t-83 38zM1161 1126l-157 -1126h-168 l6 170q-72 -82 -182.5 -132t-221.5 -50q-184 0 -285.5 118.5t-74.5 303.5l100 716h193l-97 -694q-18 -123 45.5 -198.5t188.5 -75.5q129 0 238.5 77.5t125.5 196.5l99 694h190z" glyph-name="uring" horiz-adv-x="1210" unicode="ů"/><glyph d="M999 2048h172l-391 -356h-131zM1348 2048h170l-390 -356h-133zM584 -20q-244 0 -393.5 152.5t-118.5 371.5l145 1032h182l-141 -1004q-23 -164 79.5 -277.5t270.5 -113.5t309.5 115t163.5 276l140 1004h180l-146 -1032q-31 -219 -228 -371.5t-443 -152.5z" glyph-name="Uhungarumlaut" horiz-adv-x="1484" unicode="Ű"/><glyph d="M573 1180h-131l351 356h170zM788 1180l351 356h170l-387 -356h-134zM1161 1126l-157 -1126h-168l6 170q-72 -82 -182.5 -132t-221.5 -50q-184 0 -285.5 118.5t-74.5 303.5l100 716h193l-97 -694q-18 -123 45.5 -198.5t188.5 -75.5q129 0 238.5 77.5t125.5 196.5l99 694 h190z" glyph-name="uhungarumlaut" horiz-adv-x="1210" unicode="ű"/><glyph d="M1221 1536h180l-146 -1032q-27 -190 -184.5 -333.5t-370.5 -180.5l78 6q-94 -43 -167.5 -122t-86.5 -163q-8 -61 23 -98t96 -37q115 0 207 92l45 -82q-129 -113 -295 -106q-104 4 -158.5 60.5t-40.5 154.5q20 162 226 287q-14 -2 -43 -2q-244 0 -393.5 152.5 t-118.5 371.5l145 1032h182l-141 -1004q-23 -164 79.5 -277.5t270.5 -113.5t309.5 115t163.5 276z" glyph-name="Uogonek" horiz-adv-x="1484" unicode="Ų"/><glyph d="M772 -436q117 0 207 94l47 -84q-131 -113 -297 -106q-102 4 -157.5 61t-41.5 154q29 188 275 317h31l6 170q-72 -82 -182.5 -132t-221.5 -50q-184 0 -285.5 118.5t-74.5 303.5l100 716h193l-97 -694q-18 -123 45.5 -198.5t188.5 -75.5q129 0 238.5 77.5t125.5 196.5 l99 694h190l-157 -1126h-39q-109 -29 -202 -117t-108 -184q-8 -59 23 -97t94 -38z" glyph-name="uogonek" horiz-adv-x="1210" unicode="ų"/><glyph d="M1092 1698h-144l256 350h187l159 -350h-143l-121 266zM2206 1536l-684 -1536h-211l-174 1204l-506 -1204h-211l-266 1536h194l205 -1327l543 1327h184l166 -1329l565 1329h195z" glyph-name="Wcircumflex" horiz-adv-x="2205" unicode="Ŵ"/><glyph d="M678 1186h-141l256 350h186l160 -350h-144l-121 266zM1694 1118l-498 -1118h-215l-111 827l-338 -827h-213l-186 1118h213l121 -891l358 891h185l104 -895l369 895h211z" glyph-name="wcircumflex" horiz-adv-x="1480" unicode="ŵ"/><glyph d="M651 1698h-143l256 350h186l160 -350h-143l-121 266zM764 729l-102 -729h-181l101 725l-422 811h202l332 -653l516 653h201z" glyph-name="Ycircumflex" horiz-adv-x="1325" unicode="Ŷ"/><glyph d="M477 1186h-143l256 350h186l160 -350h-143l-121 266zM1188 1126l-901 -1652h-176l325 594h-49l-293 1058h191l245 -880l467 880h191z" glyph-name="ycircumflex" horiz-adv-x="1212" unicode="ŷ"/><glyph d="M622.5 1720q-47.5 0 -77 35t-23.5 84q8 47 47 82t88 35q47 0 77 -35t24 -82q-8 -49 -48 -84t-87.5 -35zM1003.5 1720q-47.5 0 -78 35t-22.5 84q8 47 47 82t86 35t77 -35t24 -82q-8 -49 -47 -84t-86.5 -35zM764 729l-102 -729h-181l101 725l-422 811h202l332 -653l516 653 h201z" glyph-name="Ydieresis" horiz-adv-x="1325" unicode="Ÿ"/><glyph d="M905 1733h-141l227 315h180zM1182 162l-23 -162h-1163l12 94l1069 1282h-864l20 160h1115l-15 -94l-1067 -1280h916z" glyph-name="Zacute" horiz-adv-x="1343" unicode="Ź"/><glyph d="M788 1536h181l-267 -315h-141zM12 123l742 754h-625l23 147h856l-17 -117l-745 -760h653l-18 -147h-887z" glyph-name="zacute" horiz-adv-x="1058" unicode="ź"/><glyph d="M829 1720q-49 0 -78.5 35t-21.5 84q6 47 46 82t87 35t78 -35t23 -82q-6 -49 -46.5 -84t-87.5 -35zM1182 162l-23 -162h-1163l12 94l1069 1282h-864l20 160h1115l-15 -94l-1067 -1280h916z" glyph-name="Zdotaccent" horiz-adv-x="1343" unicode="Ż"/><glyph d="M627 1208q-49 0 -79 35t-24 84q8 47 47 82t88 35q47 0 77 -35t24 -82q-8 -49 -47 -84t-86 -35zM12 123l742 754h-625l23 147h856l-17 -117l-745 -760h653l-18 -147h-887z" glyph-name="zdotaccent" horiz-adv-x="1058" unicode="ż"/><glyph d="M731 1698l-158 350h138l127 -260l200 260h138l-258 -350h-187zM1182 162l-23 -162h-1163l12 94l1069 1282h-864l20 160h1115l-15 -94l-1067 -1280h916z" glyph-name="Zcaron" horiz-adv-x="1343" unicode="Ž"/><glyph d="M371 1536h137l127 -260l201 260h137l-258 -350h-187zM12 123l742 754h-625l23 147h856l-17 -117l-745 -760h653l-18 -147h-887z" glyph-name="zcaron" horiz-adv-x="1058" unicode="ž"/><glyph d="M834 1427q-76 0 -139.5 -51t-88.5 -135l-65 -217h286l-39 -135h-288l-420 -1401h-160l420 1401h-170l39 135h172l72 240q37 125 148.5 208.5t238.5 83.5q88 0 127 -34l-33 -131q-37 36 -100 36z" glyph-name="florin" horiz-adv-x="886" unicode="ƒ"/><glyph d="M805 1698l-158 350h137l127 -260l201 260h137l-258 -350h-186zM1094 379h-740l-198 -379h-199l831 1536h203l402 -1536h-197zM1063 539l-201 811l-426 -811h627z" glyph-name="uni01CD" horiz-adv-x="1507" unicode="Ǎ"/><glyph d="M494 1186l-158 350h137l127 -260l201 260h137l-258 -350h-186zM340 -10q-164 0 -256 91t-72 236q23 154 150 250.5t364 112.5l279 18l6 37q16 125 -46.5 188.5t-189.5 63.5q-115 0 -196.5 -62.5t-108.5 -164.5h-170q37 160 166 270.5t336 110.5q205 0 306.5 -107.5 t74.5 -302.5q-12 -82 -25.5 -182t-22.5 -170t-11 -78q-12 -86 3 -121t60 -33l-20 -147q-23 0 -64 4q-152 25 -160 156q-57 -74 -168.5 -122t-234.5 -48zM389 141q123 0 234.5 74t138.5 170l22 172l-260 -20q-309 -25 -334 -215q-12 -82 49.5 -131.5t149.5 -49.5z" glyph-name="uni01CE" horiz-adv-x="1110" unicode="ǎ"/><glyph d="M135 2048h139l127 -260l201 260h137l-258 -350h-186zM276 1536h183l-215 -1536h-183z" glyph-name="uni01CF" horiz-adv-x="489" unicode="Ǐ"/><glyph d="M61 1536h140l127 -260l200 260h138l-258 -350h-187zM205 1024h176l-143 -1024h-177z" glyph-name="uni01D0" horiz-adv-x="483" unicode="ǐ"/><glyph d="M745 2048h138l127 -260l200 260h138l-258 -350h-187zM754 -20q-326 0 -506 228t-133 560t291.5 560t568.5 228q326 0 506 -228t133 -560t-291.5 -560t-568.5 -228zM778 154q256 0 440.5 176t221.5 438t-98.5 439t-389.5 177q-256 0 -442 -177t-223 -439 q-37 -260 100 -437t391 -177z" glyph-name="uni01D1" horiz-adv-x="1699" unicode="Ǒ"/><glyph d="M406 1536h137l127 -260l200 260h138l-258 -350h-187zM487 -20q-221 0 -340.5 153.5t-87.5 378.5q31 225 194 378.5t384 153.5q219 0 340 -153.5t90 -378.5q-33 -225 -197 -378.5t-383 -153.5zM507.5 135q147.5 0 254 108.5t131.5 268.5q23 162 -54 269.5t-224.5 107.5 t-254 -107.5t-129.5 -269.5q-23 -160 53 -268.5t223.5 -108.5z" glyph-name="uni01D2" horiz-adv-x="1167" unicode="ǒ"/><glyph d="M637 2048h137l127 -260l201 260h137l-258 -350h-186zM645 -20q-244 0 -391.5 152.5t-116.5 371.5l146 1032h182l-141 -1004q-23 -164 77.5 -277.5t268.5 -113.5t301 114t155 277l142 1004h180l-145 -1032q-31 -219 -222.5 -371.5t-435.5 -152.5z" glyph-name="uni01D3" horiz-adv-x="1484" unicode="Ǔ"/><glyph d="M588 1186l-158 350h137l127 -260l201 260h137l-258 -350h-186zM1161 1126l-157 -1126h-168l6 170q-72 -82 -182.5 -132t-221.5 -50q-184 0 -285.5 118.5t-74.5 303.5l100 716h193l-97 -694q-18 -123 45.5 -198.5t188.5 -75.5q129 0 238.5 77.5t125.5 196.5l99 694h190z " glyph-name="uni01D4" horiz-adv-x="1210" unicode="ǔ"/><glyph d="M911 1698l-159 350h137l129 -260l199 260h137l-256 -350h-187zM1454 784l-24 -166l-87 -618h-120l-2 244q-104 -131 -232.5 -192.5t-320.5 -61.5q-217 0 -366.5 108.5t-208 282.5t-27.5 383q49 348 275 568t540 220q258 0 416.5 -128t160.5 -361h-172q-20 156 -138 238.5 t-280 82.5q-252 0 -424 -170t-211 -450q-39 -270 94.5 -439t360.5 -169q248 0 391.5 127t173.5 344h-419l22 157h598z" glyph-name="Gcaron" horiz-adv-x="1507" unicode="Ǧ"/><glyph d="M571 1186l-157 350h137l127 -260l201 260h137l-258 -350h-187zM385 -498q-217 -2 -344 89.5t-113 238.5q6 78 55.5 150.5t131.5 111.5q-113 78 -103 174q10 63 52 107.5t118 89.5q-94 102 -73 282q25 164 162 277t323 113q150 0 248 -70q31 63 106.5 101t147.5 34 l-21 -145q-43 4 -85 -16.5t-60 -61.5q68 -111 49 -238q-23 -176 -160 -285.5t-334 -111.5q-145 -4 -219 49q-39 -14 -61.5 -45t-18.5 -63q16 -90 170 -93l224 -2q356 -6 362 -262q-2 -180 -151.5 -301t-405.5 -123zM801 741q14 100 -50.5 168t-179.5 68q-113 0 -194.5 -67.5 t-97.5 -170.5q-14 -100 50 -168.5t175 -68.5q115 0 199 68.5t98 170.5zM764 -90q-2 131 -272 131h-224q-66 -16 -108.5 -67.5t-50.5 -114.5q-12 -92 70.5 -146.5t211.5 -54.5q176 0 276.5 70.5t96.5 181.5z" glyph-name="gcaron" horiz-adv-x="1228" unicode="ǧ"/><glyph d="M1077 1733h-141l227 315h180zM1432 1384q111 -111 159.5 -271.5t22.5 -344.5q-47 -332 -292 -560t-568 -228q-215 0 -375 110l-98 -119h-125l147 181q-115 109 -164 269.5t-24 346.5q47 332 291.5 560t568.5 228q219 0 381 -112l98 119h123zM287 768q-41 -299 133 -473 l821 1005q-123 84 -289 84q-256 0 -442 -177t-223 -439zM778 154q256 0 440.5 176t221.5 438q41 295 -125 471l-819 -1006q118 -79 282 -79z" glyph-name="Oslashacute" horiz-adv-x="1699" unicode="Ǿ"/><glyph d="M737 1221h-141l227 315h181zM946 928q156 -156 121 -416q-33 -225 -196.5 -378.5t-383.5 -153.5q-147 0 -254 73l-94 -116h-90l131 159q-160 156 -121 416q31 225 194 378.5t384 153.5q147 0 254 -73l96 114h88zM231 512q-27 -170 62 -276l491 600q-72 53 -170 53 q-147 0 -253.5 -107.5t-129.5 -269.5zM508 135q147 0 253.5 108.5t131.5 268.5q23 168 -62 276l-487 -602q68 -51 164 -51z" glyph-name="oslashacute" horiz-adv-x="1167" unicode="ǿ"/><glyph d="M516 -20q-233 0 -366.5 132t-122.5 324h176q6 -119 89 -201.5t253 -82.5q162 0 272.5 68.5t130.5 199.5q10 63 -9 111.5t-82.5 88t-100.5 56t-135 51.5q-29 10 -43 16q-84 31 -130.5 50.5t-112 57.5t-98 76t-53 97t-10.5 131q29 188 195 294.5t372 106.5 q242 0 360 -111.5t124 -309.5h-166q0 111 -86 188.5t-250 77.5q-129 0 -237.5 -61.5t-125.5 -174.5q-6 -43 10.5 -79.5t38 -60.5t72.5 -53.5t79 -40.5t97 -40q23 -10 35 -14q205 -84 246 -107q211 -117 201 -309q-2 -18 -4 -35q-31 -209 -209.5 -327.5t-409.5 -118.5z M481 -381q-33 12 -51 43t-12 68q6 47 45 81.5t88 34.5q47 0 74.5 -33.5t21.5 -82.5q-8 -55 -65.5 -136t-98.5 -126h-75z" glyph-name="Scommaaccent" horiz-adv-x="1286" unicode="Ș"/><glyph d="M410 -18q-209 0 -307.5 108.5t-90.5 241.5h166q2 -80 74 -143.5t176 -61.5t179 55.5t85 136.5q12 86 -56.5 130.5t-201.5 68.5q-160 33 -248 98.5t-67 202.5q18 147 148 235.5t298 88.5q176 0 273.5 -82t93.5 -238h-160q-6 88 -69.5 127t-137.5 43q-94 4 -167.5 -35.5 t-84.5 -115.5q-10 -82 53.5 -119t192.5 -61q72 -14 127 -35t108.5 -58t78 -97t12.5 -140q-23 -152 -157 -251t-318 -99zM317 -375q-74 29 -61 111q4 47 43 82t90 35q47 0 75 -34t21 -83q-6 -39 -45 -101.5t-68.5 -99.5t-52.5 -61h-73z" glyph-name="scommaaccent" horiz-adv-x="974" unicode="ș"/><glyph d="M1223 1376h-461l-195 -1374h-178l193 1374h-463l22 162h1104zM434 -369q-74 29 -61 111q6 49 45 83t88 34q47 0 74.5 -34t21.5 -83q-8 -55 -68.5 -140t-97.5 -122h-74z" glyph-name="uni021A" horiz-adv-x="1087" unicode="Ț"/><glyph d="M465 -2q-162 0 -241 65.5t-54 241.5l96 676h-176l21 149h176l57 406h182l-57 -406h266l-20 -151l-271 2l-92 -655q-12 -84 13.5 -125t121.5 -41h125l-24 -162h-123zM233 -371q-74 33 -61 113q6 49 45 83t88 34q47 0 75 -34t21 -83q-8 -55 -68.5 -140t-96.5 -122h-74z" glyph-name="uni021B" horiz-adv-x="692" unicode="ț"/><glyph d="M1157 1376h-770l-74 -526h682l-22 -162h-682l-76 -526h770l-22 -162h-433l-86 -139q111 20 177.5 -33t52.5 -152q-12 -88 -81 -148t-157 -60q-70 0 -132 37.5t-85 91.5l88 34q18 -33 59.5 -54t82.5 -21q51 0 88.5 34.5t46.5 85.5q10 72 -46.5 99.5t-148.5 -4.5l-65 49 l116 180h-428l215 1536h951z" glyph-name="uni0228" horiz-adv-x="1107" unicode="Ȩ"/><glyph d="M647 1135q231 0 346 -156t80 -410q-4 -31 -12 -67h-844q-18 -166 70 -262.5t215 -98.5q123 -2 212 51.5t130 143.5h162q-37 -123 -159 -229.5t-319 -116.5l-4 -4q-2 -4 -4 -6l-76 -119q111 20 178.5 -34t53.5 -151q-12 -88 -82 -148t-158 -60q-68 0 -131 36.5t-86 89.5 l88 37q18 -33 59.5 -54t82.5 -21q51 0 90 34.5t45 85.5q10 72 -46.5 99.5t-146.5 -4.5l-65 49l102 162q-10 6 -12 14q-201 27 -301.5 184.5t-69.5 380.5q37 250 198.5 412t403.5 162zM909 643q4 156 -67.5 246t-214.5 90q-145 0 -245.5 -91t-139.5 -245h667z" glyph-name="uni0229" horiz-adv-x="1124" unicode="ȩ"/><glyph d="M-82 -532q-86 0 -129 32l23 154q43 -39 108.5 -39t116.5 46t59 116l176 1247h177l-179 -1257q-16 -125 -119.5 -212t-232.5 -87z" glyph-name="uni0237" horiz-adv-x="583" unicode="ȷ"/><glyph d="M389 1536h186l160 -350h-143l-121 266l-195 -266h-143z" glyph-name="circumflex" horiz-adv-x="94" unicode="ˆ"/><glyph d="M182 1536h137l127 -260l201 260h137l-258 -350h-186z" glyph-name="caron" horiz-adv-x="94" unicode="ˇ"/><glyph d="M661.5 1159q-149.5 0 -232.5 86t-62 232h108q-12 -86 45.5 -147.5t155.5 -61.5q100 0 176 61.5t88 147.5h107q-20 -145 -128 -231.5t-257.5 -86.5z" glyph-name="breve" horiz-adv-x="94" unicode="˘"/><glyph d="M377 1208q-49 0 -79 35t-22 84q6 47 46 82t87.5 35t78 -35t22.5 -82q-6 -49 -46 -84t-87 -35z" glyph-name="dotaccent" horiz-adv-x="94" unicode="˙"/><glyph d="M248 1145q-86 0 -138.5 61.5t-41.5 145.5q12 86 82.5 147.5t158.5 61.5q84 0 135.5 -61.5t38.5 -147.5q-10 -84 -80.5 -145.5t-154.5 -61.5zM260 1227q53 0 94 35.5t49 89.5q8 51 -23.5 90t-82.5 39t-93 -38t-50.5 -91.5t22.5 -89t84 -35.5z" glyph-name="ring" horiz-adv-x="94" unicode="˚"/><glyph d="M98 -532q-104 4 -159.5 61t-40.5 154q29 209 348 346l88 -29q-111 -29 -204 -117t-107 -184q-8 -59 22.5 -97t93.5 -38q119 0 207 94l47 -84q-131 -112 -295 -106z" glyph-name="ogonek" horiz-adv-x="94" unicode="˛"/><glyph d="M627 1264q-119 0 -174 112q-31 59 -86 60q-47 0 -77 -43t-28 -111h-110q-2 113 63.5 187.5t161.5 74.5q119 0 176 -110q27 -61 86 -62q47 0 78 43t28 109h109q2 -113 -63.5 -186.5t-163.5 -73.5z" glyph-name="tilde" horiz-adv-x="98" unicode="˜"/><glyph d="M483 1536h170l-389 -356h-131zM829 1536h170l-387 -356h-133z" glyph-name="hungarumlaut" horiz-adv-x="94" unicode="˝"/><glyph d="M-301 1536h180l141 -315h-143z" glyph-name="gravecomb" unicode="̀"/><glyph d="M-117 1536h180l-266 -315h-143z" glyph-name="acutecomb" unicode="́"/><glyph d="M-332 1536h187l159 -350h-143l-121 266l-194 -266h-144z" glyph-name="uni0302" unicode="̂"/><glyph d="M-172 1264q-115 0 -172 112q-29 59 -88 60q-47 0 -77 -43t-28 -111h-110q0 115 65.5 188.5t159.5 73.5q123 0 176 -110q29 -61 86 -62q47 0 78 43t29 109h110q0 -113 -65.5 -186.5t-163.5 -73.5z" glyph-name="tildecomb" unicode="̃"/><glyph d="M-596 1350h635l-16 -119h-635z" glyph-name="uni0304" unicode="̄"/><glyph d="M-620.5 1159q-149.5 0 -232.5 86t-62 232h108q-12 -86 45 -147.5t156 -61.5q100 0 176 61.5t88 147.5h106q-20 -145 -127.5 -231.5t-257 -86.5z" glyph-name="uni0306" unicode="̆"/><glyph d="M-221 1208q-49 0 -79 35t-22 84q6 47 46 82t87.5 35t78 -35t22.5 -82q-6 -49 -46 -84t-87 -35z" glyph-name="uni0307" unicode="̇"/><glyph d="M-545 1208q-47 0 -76.5 35t-23.5 84q8 47 47 82t88 35q47 0 77 -35t23 -82q-8 -49 -48 -84t-87 -35zM-164 1208q-47 0 -77.5 35t-22.5 84q6 47 46 82t87 35t76.5 -35t23.5 -82q-8 -49 -47 -84t-86 -35z" glyph-name="uni0308" unicode="̈"/><glyph d="M-111 1145q-88 0 -140 61.5t-40 145.5q10 86 82 147.5t158 61.5t137 -61.5t39 -147.5q-10 -84 -81 -145.5t-155 -61.5zM-98.5 1227q53.5 0 94.5 35.5t49 89.5q8 51 -23.5 90t-82.5 39q-53 0 -95.5 -38t-48.5 -91q-8 -53 22.5 -89t84 -36z" glyph-name="uni030A" unicode="̊"/><glyph d="M-455 1536h172l-389 -356h-133zM-106 1536h169l-389 -356h-133z" glyph-name="uni030B" unicode="̋"/><glyph d="M-539 1536h138l127 -260l200 260h137l-258 -350h-186z" glyph-name="uni030C" unicode="̌"/><glyph d="M-127 1370q74 -29 64 -110q-8 -49 -46 -83t-87.5 -34t-77 33.5t-19.5 83.5q12 96 164 262h74z" glyph-name="uni0312" unicode="̒"/><glyph d="M-342 -512q-47 0 -75.5 35t-24.5 82q8 47 47 81.5t88 34.5q47 0 76.5 -34.5t23.5 -81.5t-47 -82t-88 -35z" glyph-name="dotbelowcomb" unicode="̣"/><glyph d="M-305 -2q-74 33 -62 113q6 47 45 81.5t89 34.5q47 0 74.5 -33.5t21.5 -82.5q-8 -55 -68.5 -141.5t-95.5 -121.5h-76z" glyph-name="uni0326" unicode="̦"/><glyph d="M-434 -532q-68 0 -131.5 37.5t-87.5 91.5l88 34q20 -33 61 -54t82 -21q51 0 89 34.5t46 85.5q10 72 -46 99.5t-148 -4.5l-66 49l115 180h92l-86 -139q109 23 176.5 -31.5t52.5 -153.5q-12 -88 -80.5 -148t-156.5 -60z" glyph-name="uni0327" unicode="̧"/><glyph d="M-506 -532q-104 4 -158.5 61t-42.5 154q16 106 110.5 195t238.5 151l88 -29q-109 -29 -203 -117t-109 -184q-8 -61 23 -98t96 -37q117 0 207 94l45 -84q-129 -112 -295 -106z" glyph-name="uni0328" unicode="̨"/><glyph d="M-963 592h607l-17 -117h-606z" glyph-name="uni0335" unicode="̵"/><glyph d="M-1538 573h1466l-12 -79h-1464z" glyph-name="uni0336" unicode="̶"/><glyph d="M-344 795h133l-598 -547h-123z" glyph-name="uni0337" unicode="̷"/><glyph d="M-37 1565h125l-1296 -1592h-125z" glyph-name="uni0338" unicode="̸"/><glyph d="M-6 111l837 1443h203l422 -1441l-14 -113h-1462zM1276 143l-252 836q-10 37 -35.5 131t-45 171t-28.5 118h-22q-12 -29 -49 -95.5t-86 -153.5t-72 -130l-512 -877h1102z" glyph-name="Delta" horiz-adv-x="1605" unicode="Δ"/><glyph d="M1182 0l-336 1331l-705 -1331h-198l833 1536h201l401 -1536h-196z" glyph-name="Lambda" horiz-adv-x="1507" unicode="Λ"/><glyph d="M268 1536h879l-21 -160h-880zM276 850h672l-22 -162h-672zM74 162h880l-22 -162h-879z" glyph-name="Xi" horiz-adv-x="1208" unicode="Ξ"/><glyph d="M45 131h346l2 14q-119 102 -183.5 276.5t-35.5 381.5q45 315 289 526t571 211q330 0 507 -217t136 -514q-31 -209 -147.5 -388t-259.5 -276l-2 -14h350l-19 -131h-598l15 96q174 84 313 265.5t172 420.5q20 158 -22.5 297.5t-163.5 234.5t-297 95q-260 0 -449.5 -182.5 t-226.5 -448.5q-33 -233 57 -417.5t238 -264.5l-12 -96h-596z" glyph-name="Omega" horiz-adv-x="1812" unicode="Ω"/><glyph d="M971 1126h190l-157 -1126h-168l6 170q-72 -82 -182.5 -132t-221.5 -50q-135 0 -229 67l-80 -567h-133l100 713q-35 92 -18 209l100 716h193l-97 -694q-18 -123 45.5 -198.5t188.5 -75.5q129 0 238.5 77.5t125.5 196.5z" glyph-name="mu" horiz-adv-x="1257" unicode="μ"/><glyph d="M59 0q90 168 182.5 455.5t135.5 529.5q-197 0 -295 -31q55 123 72 140q27 27 114 24q141 -4 162 -4h995l-32 -129h-207l-92 -651q-33 -225 -11 -334h-163q-29 66 6 313l94 672h-477q-45 -231 -140.5 -537.5t-179.5 -447.5h-164z" glyph-name="pi" horiz-adv-x="1406" unicode="π"/><glyph d="M907 805q135 -31 206 -139.5t50 -257.5q-27 -178 -164 -293t-315 -115h-692l215 1536h604q182 0 289.5 -113.5t81.5 -292.5q-18 -127 -93.5 -213.5t-181.5 -111.5zM997 1110q16 111 -50 188.5t-175 77.5h-405l-74 -512h405q113 0 199 68.5t100 177.5zM682 162 q111 0 199 78.5t104 187.5q16 111 -50.5 199t-174.5 88h-488l-77 -553h487zM524 -141q47 0 77 -35t24 -82q-8 -47 -48 -82t-87.5 -35t-77 35t-23.5 82q8 47 47 82t88 35z" glyph-name="uni1E04" horiz-adv-x="1323" unicode="Ḅ"/><glyph d="M745 1137q229 0 350.5 -166t86.5 -412t-201 -409.5t-395 -163.5q-248 0 -361 196l-45 -182h-157l215 1536h188l-82 -588q161 189 401 189zM578 150q162 0 277.5 117.5t139.5 291.5q25 176 -57 294t-244 118q-129 0 -235.5 -85t-155.5 -218l-29 -215q10 -133 92.5 -218 t211.5 -85zM524 -141q47 0 77 -35t24 -82q-8 -47 -48 -82t-87.5 -35t-77 35t-23.5 82q8 47 47 82t88 35z" glyph-name="uni1E05" horiz-adv-x="1226" unicode="ḅ"/><glyph d="M1462 1536l-215 -1536h-180l96 688h-823l-96 -688h-183l215 1536h183l-97 -686h824l96 686h180zM641 -141q47 0 78 -35t22.5 -82t-47.5 -82t-86 -35q-49 0 -78.5 35t-23.5 82q8 47 47 82t88 35z" glyph-name="uni1E24" horiz-adv-x="1492" unicode="Ḥ"/><glyph d="M766 1139q186 0 283.5 -112t70.5 -298l-102 -729h-193l101 707q16 121 -47.5 191.5t-188.5 70.5q-131 0 -239.5 -77t-124.5 -194l-99 -698h-190l215 1534h190l-80 -567q72 78 181.5 125t222.5 47zM479 -141q47 0 78 -35t23 -82q-6 -47 -46 -82t-87.5 -35t-78 35t-22.5 82 t47 82t86 35z" glyph-name="uni1E25" horiz-adv-x="1204" unicode="ḥ"/><glyph d="M276 1536h183l-195 -1374h565l-22 -162h-746zM383 -375q-49 0 -79 35t-23 82q8 47 47 82t88 35q47 0 77.5 -35t22.5 -82t-47 -82t-86 -35z" glyph-name="uni1E36" horiz-adv-x="952" unicode="Ḷ"/><glyph d="M88 0l215 1536h178l-215 -1536h-178zM133 -375q-47 0 -76.5 35t-23.5 82q8 47 47 82t88 35q47 0 76.5 -35t23.5 -82q-8 -47 -48 -82t-87 -35z" glyph-name="uni1E37" horiz-adv-x="655" unicode="ḷ"/><glyph d="M940 1720q-47 0 -76.5 35t-23.5 84q8 47 47 82t88 35q47 0 76.5 -35t23.5 -82q-8 -49 -48 -84t-87 -35zM1559 1536l-216 -1536h-172l-753 1245l-174 -1245h-183l215 1536h173l755 -1243l174 1243h181z" glyph-name="uni1E44" horiz-adv-x="1589" unicode="Ṅ"/><glyph d="M682 1208q-47 0 -77 35t-23 84q8 47 47 82t88 35q47 0 76.5 -35t23.5 -82q-8 -49 -48 -84t-87 -35zM752 1139q184 0 278 -112t68 -300l-101 -727h-188l98 709q16 119 -46 190.5t-183 71.5q-131 0 -237.5 -76t-123.5 -195l-98 -700h-188l157 1126h164l-4 -168 q70 82 180.5 131.5t223.5 49.5z" glyph-name="uni1E45" horiz-adv-x="1204" unicode="ṅ"/><glyph d="M1559 1536l-216 -1536h-172l-753 1245l-174 -1245h-183l215 1536h173l755 -1243l174 1243h181zM688 -141q47 0 78 -35t22 -82q-6 -47 -46 -82t-87 -35q-49 0 -78.5 35t-21.5 82q6 47 46 82t87 35z" glyph-name="uni1E46" horiz-adv-x="1589" unicode="Ṇ"/><glyph d="M752 1139q184 0 278 -112t68 -300l-101 -727h-188l98 709q16 119 -46 190.5t-183 71.5q-131 0 -237.5 -76t-123.5 -195l-98 -700h-188l157 1126h164l-4 -168q70 82 180.5 131.5t223.5 49.5zM494 -141q47 0 77.5 -35t22.5 -82t-47 -82t-86 -35q-49 0 -79 35t-24 82 q8 47 47.5 82t88.5 35z" glyph-name="uni1E47" horiz-adv-x="1204" unicode="ṇ"/><glyph d="M516 -20q-233 0 -366.5 132t-122.5 324h176q6 -119 89 -201.5t253 -82.5q162 0 272.5 68.5t130.5 199.5q10 63 -9 111.5t-82.5 88t-100.5 56t-135 51.5q-29 10 -43 16q-84 31 -130.5 50.5t-112 57.5t-98 76t-53 97t-10.5 131q29 188 195 294.5t372 106.5 q242 0 360 -111.5t124 -309.5h-166q0 111 -86 188.5t-250 77.5q-129 0 -237.5 -61.5t-125.5 -174.5q-6 -43 10.5 -79.5t38 -60.5t72.5 -53.5t79 -40.5t97 -40q23 -10 35 -14q205 -84 246 -107q211 -117 201 -309q-2 -18 -4 -35q-31 -209 -209.5 -327.5t-409.5 -118.5z M543 -373q-47 0 -77 34t-24 83q8 47 47 82t86.5 35t78 -35t22.5 -82q-4 -49 -44 -83t-89 -34z" glyph-name="uni1E62" horiz-adv-x="1286" unicode="Ṣ"/><glyph d="M410 -18q-209 0 -307.5 108.5t-90.5 241.5h166q2 -80 74 -143.5t176 -61.5t179 55.5t85 136.5q12 86 -56.5 130.5t-201.5 68.5q-160 33 -248 98.5t-67 202.5q18 147 148 235.5t298 88.5q176 0 273.5 -82t93.5 -238h-160q-6 88 -69.5 127t-137.5 43q-94 4 -167.5 -35.5 t-84.5 -115.5q-10 -82 53.5 -119t192.5 -61q72 -14 127 -35t108.5 -58t78 -97t12.5 -140q-23 -152 -157 -251t-318 -99zM360.5 -375q-47.5 0 -78 35t-22.5 82t47 82t86 35t78 -35t23 -82q-6 -47 -46 -82t-87.5 -35z" glyph-name="uni1E63" horiz-adv-x="974" unicode="ṣ"/><glyph d="M1223 1376h-461l-195 -1374h-178l193 1374h-463l22 162h1104zM502 -141q47 0 77.5 -35t22.5 -82q-6 -47 -46 -82t-87 -35t-78 35t-22.5 82t47.5 82t86 35z" glyph-name="uni1E6C" horiz-adv-x="1087" unicode="Ṭ"/><glyph d="M465 -2q-162 0 -241 65.5t-54 241.5l96 676h-176l21 149h176l57 406h182l-57 -406h266l-20 -151l-271 2l-92 -655q-12 -84 13.5 -125t121.5 -41h125l-24 -162h-123zM305 -141q47 0 78 -35t23 -82q-6 -47 -46.5 -82t-87.5 -35q-49 0 -78.5 35t-21.5 82q6 47 46 82t87 35z " glyph-name="uni1E6D" horiz-adv-x="692" unicode="ṭ"/><glyph d="M1176 1733l-179 315h181l139 -315h-141zM2206 1536l-684 -1536h-211l-174 1204l-506 -1204h-211l-266 1536h194l205 -1327l543 1327h184l166 -1329l565 1329h195z" glyph-name="Wgrave" horiz-adv-x="2205" unicode="Ẁ"/><glyph d="M750 1221l-179 315h181l139 -315h-141zM1694 1118l-498 -1118h-215l-111 827l-338 -827h-213l-186 1118h213l121 -891l358 891h185l104 -895l369 895h211z" glyph-name="wgrave" horiz-adv-x="1480" unicode="ẁ"/><glyph d="M1331 1733h-143l227 315h182zM2206 1536l-684 -1536h-211l-174 1204l-506 -1204h-211l-266 1536h194l205 -1327l543 1327h184l166 -1329l565 1329h195z" glyph-name="Wacute" horiz-adv-x="2205" unicode="Ẃ"/><glyph d="M924 1221h-144l230 315h180zM1694 1118l-498 -1118h-215l-111 827l-338 -827h-213l-186 1118h213l121 -891l358 891h185l104 -895l369 895h211z" glyph-name="wacute" horiz-adv-x="1480" unicode="ẃ"/><glyph d="M1063 1720q-49 0 -79 35t-23 84q8 47 47 82t88 35q47 0 77.5 -35t22.5 -82q-8 -49 -47 -84t-86 -35zM1442 1720q-47 0 -77 35t-24 84q8 47 47 82t89 35q47 0 76.5 -35t21.5 -82q-8 -49 -47 -84t-86 -35zM2206 1536l-684 -1536h-211l-174 1204l-506 -1204h-211l-266 1536 h194l205 -1327l543 1327h184l166 -1329l565 1329h195z" glyph-name="Wdieresis" horiz-adv-x="2205" unicode="Ẅ"/><glyph d="M657 1208q-49 0 -78.5 35t-23.5 84q8 47 47 82t88 35q47 0 77 -35t24 -82q-8 -49 -47.5 -84t-86.5 -35zM1036 1208q-47 0 -76.5 35t-23.5 84q8 47 47 82t88 35q47 0 76 -35t22 -82q-8 -49 -47 -84t-86 -35zM1694 1118l-498 -1118h-215l-111 827l-338 -827h-213l-186 1118 h213l121 -891l358 891h185l104 -895l369 895h211z" glyph-name="wdieresis" horiz-adv-x="1480" unicode="ẅ"/><glyph d="M1182 162l-23 -162h-1163l12 94l1069 1282h-864l20 160h1115l-15 -94l-1067 -1280h916zM553 -141q47 0 78 -35t22.5 -82t-47.5 -82t-86 -35q-49 0 -78.5 35t-23.5 82q8 47 47 82t88 35z" glyph-name="uni1E92" horiz-adv-x="1343" unicode="Ẓ"/><glyph d="M12 123l742 754h-625l23 147h856l-17 -117l-745 -760h653l-18 -147h-887zM385 -375q-49 0 -79 35t-21 82q6 47 46 82t87 35t77.5 -35t22.5 -82q-6 -47 -46 -82t-87 -35z" glyph-name="uni1E93" horiz-adv-x="1058" unicode="ẓ"/><glyph d="M1094 379h-740l-198 -379h-199l831 1536h203l402 -1536h-197zM1063 539l-201 811l-426 -811h627zM643 -141q47 0 77 -35t23 -82q-8 -47 -48 -82t-87 -35t-76.5 35t-23.5 82q8 47 47 82t88 35z" glyph-name="uni1EA0" horiz-adv-x="1507" unicode="Ạ"/><glyph d="M340 -10q-164 0 -256 91t-72 236q23 154 150 250.5t364 112.5l279 18l6 37q16 125 -46.5 188.5t-189.5 63.5q-115 0 -196.5 -62.5t-108.5 -164.5h-170q37 160 166 270.5t336 110.5q205 0 306.5 -107.5t74.5 -302.5q-12 -82 -25.5 -182t-22.5 -170t-11 -78q-12 -86 3 -121 t60 -33l-20 -147q-23 0 -64 4q-152 25 -160 156q-57 -74 -168.5 -122t-234.5 -48zM389 141q123 0 234.5 74t138.5 170l22 172l-260 -20q-309 -25 -334 -215q-12 -82 49.5 -131.5t149.5 -49.5zM416 -141q47 0 76.5 -35t23.5 -82q-8 -47 -48 -82t-87 -35t-77 35t-23 82 q8 47 47 82t88 35z" glyph-name="uni1EA1" horiz-adv-x="1110" unicode="ạ"/><glyph d="M387 1376l-74 -526h682l-22 -162h-682l-76 -526h770l-22 -162h-951l215 1536h951l-21 -160h-770zM465 -141q47 0 77.5 -35t22.5 -82q-6 -47 -46 -82t-87 -35t-77.5 35t-22.5 82t47 82t86 35z" glyph-name="uni1EB8" horiz-adv-x="1107" unicode="Ẹ"/><glyph d="M1073 569q-4 -31 -12 -67h-844q-18 -166 70 -262.5t215 -98.5q123 -2 212 51.5t130 143.5h162q-16 -57 -54.5 -113.5t-99.5 -112t-155.5 -88t-207.5 -32.5q-236 2 -356.5 164.5t-87.5 406.5q37 250 199 412t403 162q231 0 346 -156t80 -410zM627 979q-145 0 -245.5 -91 t-139.5 -245h667q4 156 -67.5 246t-214.5 90zM467 -141q47 0 77.5 -35t22.5 -82t-47 -82t-86 -35q-49 0 -78.5 35t-23.5 82q8 47 47 82t88 35z" glyph-name="uni1EB9" horiz-adv-x="1124" unicode="ẹ"/><glyph d="M393 1733q0 113 66.5 187.5t161.5 74.5q119 0 176 -111q27 -61 86 -61q47 0 77.5 43t28.5 108h109q2 -113 -63.5 -186.5t-164.5 -73.5q-117 0 -174 113q-29 59 -86 59q-47 0 -77.5 -43t-28.5 -110h-111zM387 1376l-74 -526h682l-22 -162h-682l-76 -526h770l-22 -162h-951 l215 1536h951l-21 -160h-770z" glyph-name="uni1EBC" horiz-adv-x="1107" unicode="Ẽ"/><glyph d="M319 1229q0 113 67 187.5t161 74.5q117 0 174 -111q27 -61 88 -61q47 0 76.5 42t29.5 109h109q0 -113 -64.5 -186.5t-162.5 -73.5q-119 0 -176 111q-29 61 -84 61q-49 0 -79 -43t-28 -110h-111zM1073 569q-4 -31 -12 -67h-844q-18 -166 70 -262.5t215 -98.5 q123 -2 212 51.5t130 143.5h162q-16 -57 -54.5 -113.5t-99.5 -112t-155.5 -88t-207.5 -32.5q-236 2 -356.5 164.5t-87.5 406.5q37 250 199 412t403 162q231 0 346 -156t80 -410zM627 979q-145 0 -245.5 -91t-139.5 -245h667q4 156 -67.5 246t-214.5 90z" glyph-name="uni1EBD" horiz-adv-x="1124" unicode="ẽ"/><glyph d="M276 1536h183l-215 -1536h-183zM98 -375q-47 0 -77.5 35t-22.5 82t47 82t86 35t78 -35t22 -82q-6 -47 -46 -82t-87 -35z" glyph-name="uni1ECA" horiz-adv-x="489" unicode="Ị"/><glyph d="M352 1214q-47 0 -77.5 35t-22.5 82q8 49 47 83t86 34q49 0 79 -34t23 -83q-8 -47 -47 -82t-88 -35zM238 1024h176l-144 -1024h-176zM137 -401q-49 0 -78.5 33.5t-23.5 82.5q8 47 47 82t86 35t77.5 -35t24.5 -82q-6 -49 -45 -82.5t-88 -33.5z" glyph-name="uni1ECB" horiz-adv-x="550" unicode="ị"/><glyph d="M754 -20q-326 0 -506 228t-133 560t291.5 560t568.5 228q326 0 506 -228t133 -560t-291.5 -560t-568.5 -228zM778 154q256 0 440.5 176t221.5 438t-98.5 439t-389.5 177q-256 0 -442 -177t-223 -439q-37 -260 100 -437t391 -177zM707 -375q-49 0 -79 35t-22 82 q6 47 46 82t87 35t78 -35t23 -82q-6 -47 -46 -82t-87 -35z" glyph-name="uni1ECC" horiz-adv-x="1699" unicode="Ọ"/><glyph d="M487 -20q-221 0 -340.5 153.5t-87.5 378.5q31 225 194 378.5t384 153.5q219 0 340 -153.5t90 -378.5q-33 -225 -197 -378.5t-383 -153.5zM507.5 135q147.5 0 254 108.5t131.5 268.5q23 162 -54 269.5t-224.5 107.5t-254 -107.5t-129.5 -269.5q-23 -160 53 -268.5 t223.5 -108.5zM438 -375q-47 0 -77.5 35t-22.5 82t47 82t86 35t78 -35t22 -82q-6 -47 -46 -82t-87 -35z" glyph-name="uni1ECD" horiz-adv-x="1167" unicode="ọ"/><glyph d="M645 -20q-244 0 -391.5 152.5t-116.5 371.5l146 1032h182l-141 -1004q-23 -164 77.5 -277.5t268.5 -113.5t301 114t155 277l142 1004h180l-145 -1032q-31 -219 -222.5 -371.5t-435.5 -152.5zM598 -375q-49 0 -79 35t-21 82q6 47 46 82t87 35t77.5 -35t22.5 -82 q-6 -47 -46 -82t-87 -35z" glyph-name="uni1EE4" horiz-adv-x="1484" unicode="Ụ"/><glyph d="M737 1733l-180 315h182l140 -315h-142zM764 729l-102 -729h-181l101 725l-422 811h202l332 -653l516 653h201z" glyph-name="Ygrave" horiz-adv-x="1325" unicode="Ỳ"/><glyph d="M575 1221l-178 315h181l139 -315h-142zM1188 1126l-901 -1652h-176l325 594h-49l-293 1058h191l245 -880l467 880h191z" glyph-name="ygrave" horiz-adv-x="1212" unicode="ỳ"/><glyph d="M582 725l-422 811h202l332 -653l516 653h201l-647 -807l-102 -729h-181zM553 -141q47 0 76.5 -35t23.5 -82q-8 -47 -48 -82t-87 -35t-76.5 35t-23.5 82q8 47 47 82t88 35z" glyph-name="uni1EF4" horiz-adv-x="1325" unicode="Ỵ"/><glyph d="M479 1733q0 113 66.5 187.5t161.5 74.5q119 0 176 -111q27 -61 86 -61q47 0 77.5 43t28.5 108h109q2 -113 -63.5 -186.5t-164.5 -73.5q-117 0 -174 113q-29 59 -86 59q-47 0 -77.5 -43t-28.5 -110h-111zM764 729l-102 -729h-181l101 725l-422 811h202l332 -653l516 653 h201z" glyph-name="uni1EF8" horiz-adv-x="1325" unicode="Ỹ"/><glyph d="M174 594h1024l-18 -123h-1024z" glyph-name="endash" horiz-adv-x="1386" unicode="–"/><glyph d="M6 594h2048l-16 -123h-2050z" glyph-name="emdash" horiz-adv-x="2076" unicode="—"/><glyph d="M215 1157q-47 0 -74.5 34t-21.5 83q6 39 45 101.5t68.5 99t52.5 61.5h73l-59 -160q61 -33 49 -102q-6 -49 -45 -83t-88 -34z" glyph-name="quoteleft" horiz-adv-x="296" unicode="‘"/><glyph d="M203 1309q-74 27 -64 110q8 49 46 83t87.5 34t77 -34t19.5 -83q-8 -55 -65.5 -136t-98.5 -126h-74z" glyph-name="quoteright" horiz-adv-x="296" unicode="’"/><glyph d="M18 -2q-74 31 -63 113q8 49 47 82.5t88 33.5q47 0 75 -33.5t21 -82.5q-8 -55 -68.5 -140.5t-97.5 -122.5h-73z" glyph-name="quotesinglbase" horiz-adv-x="296" unicode="‚"/><glyph d="M215 1157q-47 0 -74.5 34t-21.5 83q6 39 45 101.5t68.5 99t52.5 61.5h73l-59 -160q61 -33 49 -102q-6 -47 -45 -82t-88 -35zM532 1157q-47 0 -74.5 34t-21.5 83q8 55 65.5 136t98.5 126h76l-60 -160q59 -31 50 -102q-6 -47 -45.5 -82t-88.5 -35z" glyph-name="quotedblleft" horiz-adv-x="614" unicode="“"/><glyph d="M190 1317q-61 31 -51 102q8 49 46 83t87.5 34t77 -34t19.5 -83q-8 -55 -65.5 -136t-98.5 -126h-74zM508 1317q-61 31 -51 102q8 49 46 83t87 34t76.5 -34t19.5 -83q-8 -55 -65.5 -136t-98.5 -126h-73z" glyph-name="quotedblright" horiz-adv-x="614" unicode="”"/><glyph d="M6 0q-61 31 -51 102q6 47 45 82t88 35q47 0 74.5 -33.5t21.5 -83.5q-8 -55 -68.5 -141t-95.5 -121h-75zM322 0q-59 31 -50 102q6 47 45 82t89 35q47 0 74.5 -33.5t21.5 -83.5q-8 -55 -68.5 -140t-97.5 -122h-74z" glyph-name="quotedblbase" horiz-adv-x="614" unicode="„"/><glyph d="M1116 854h-358l-168 -1202h-119l170 1202h-350l16 117h348l58 401h118l-57 -401h359z" glyph-name="dagger" horiz-adv-x="1353" unicode="†"/><glyph d="M758 854l-94 -672h358l-16 -119h-359l-57 -411h-119l57 411h-348l17 119h348l96 672h-350l16 117h348l58 401h118l-57 -401h359l-17 -117h-358z" glyph-name="daggerdbl" horiz-adv-x="1353" unicode="‡"/><glyph d="M442.5 412q-104.5 0 -169 73.5t-50.5 180.5q16 102 102.5 178t190.5 76q102 0 167 -76t50 -178q-14 -106 -100 -180t-190.5 -74z" glyph-name="bullet" horiz-adv-x="954" unicode="•"/><glyph d="M174 -14q-47 0 -76.5 34.5t-23.5 79.5q8 49 47 84t86 35q49 0 77.5 -34.5t20.5 -84.5q-6 -47 -44 -80.5t-87 -33.5zM684 -14q-45 0 -74.5 33.5t-25.5 80.5q8 49 47 84t86 35q49 0 78.5 -34.5t21.5 -84.5q-4 -47 -44 -80.5t-89 -33.5zM1194 -14q-45 0 -73.5 33.5 t-22.5 80.5q6 49 44 84t85 35q49 0 78.5 -34.5t23.5 -84.5q-6 -47 -46 -80.5t-89 -33.5z" glyph-name="ellipsis" horiz-adv-x="1548" unicode="…"/><glyph d="M428 909q-117 0 -185.5 95.5t-50 228.5t113.5 228t212 95t186.5 -95t49.5 -228q-18 -133 -113.5 -228.5t-212.5 -95.5zM1319 1536h182l-1265 -1536h-183zM446.5 1044q59.5 0 110.5 55.5t61.5 133.5t-24.5 133t-94.5 55t-108.5 -55t-61 -133q-10 -78 23.5 -133.5t93 -55.5 zM1036.5 -20q-116.5 0 -185.5 95t-50 230q18 133 114.5 228.5t213 95.5t184 -94.5t51.5 -229.5q-20 -135 -115.5 -230t-212 -95zM1700 -20q-117 0 -185.5 95t-48.5 230q16 133 112.5 228.5t213.5 95.5t185.5 -95.5t50.5 -228.5q-18 -135 -114.5 -230t-213.5 -95zM1057 117 q59 0 108 54t60 134q10 78 -24 132.5t-93 54.5q-61 0 -111.5 -54.5t-58.5 -132.5q-12 -80 23 -134t96 -54zM1720.5 117q59.5 0 109.5 54t60 134q10 78 -24.5 132.5t-94 54.5t-109.5 -54.5t-60 -132.5q-10 -80 24.5 -134t94 -54z" glyph-name="perthousand" horiz-adv-x="2177" unicode="‰"/><glyph d="M90 571l365 377h147l-364 -377l258 -376h-148z" glyph-name="guilsinglleft" horiz-adv-x="702" unicode="‹"/><glyph d="M440 571l-258 377h148l258 -377l-365 -376h-147z" glyph-name="guilsinglright" horiz-adv-x="702" unicode="›"/><glyph d="M1155 1536h180l-1286 -1536h-182z" glyph-name="fraction" horiz-adv-x="1202" unicode="⁄"/><glyph d="M96 924h142q57 250 221 403.5t397 153.5q215 0 327.5 -120t102.5 -331h-143q4 156 -74 240t-231 84q-172 0 -290 -115t-163 -315h506l-37 -109h-487l-25 -164h459l-37 -112h-432q-12 -203 72.5 -314.5t261.5 -111.5q162 0 267 91t150 261h142q-53 -227 -206 -355 t-372 -128q-233 0 -356 151.5t-109 405.5h-139l16 112h136l24 164h-137z" glyph-name="Euro" horiz-adv-x="1335" unicode="€"/><glyph d="M573 -12q-190 0 -276 113.5t-78 279.5l2 25q-20 -12 -72.5 -50.5t-82.5 -56.5l-39 102q18 12 96 66.5t117 85.5l84 594q20 145 68 252.5t112.5 167t133.5 87t142 27.5q152 0 216.5 -103t43.5 -259q-29 -199 -189.5 -395.5t-444.5 -415.5l-7 -59q-18 -156 50.5 -237 t181.5 -81q109 0 210 69.5t169 164.5l75 -76q-211 -301 -512 -301zM430 674q211 182 334 335.5t143 301.5q35 244 -145 243q-82 0 -158 -92t-104 -291z" glyph-name="afii61289" horiz-adv-x="1234" unicode="ℓ"/><glyph d="M160 1536h487l-12 -82h-197l-90 -637h-92l88 637h-197zM1501 1532l-102 -717h-82l84 596l-328 -596h-69l-154 596l-84 -596h-86l100 717h117l158 -610l331 610h115z" glyph-name="trademark" horiz-adv-x="1478" unicode="™"/><glyph d="M842 -18q-362 0 -585.5 230t-178.5 554q45 328 333.5 559t651.5 231q365 0 588 -231t178 -559l-2 -21h-1417q-12 0 -15 -8l-59 -430q-4 -23 10 -49q197 -233 504 -233q340 0 602 262h125q-137 -141 -331.5 -223t-403.5 -82zM1503 788q6 0 10 15l60 430q4 35 -12 51 q-199 225 -502 225q-301 0 -567 -231q-25 -25 -27 -53l-59 -422q-4 -14 10 -15h1087z" glyph-name="estimated" horiz-adv-x="1880" unicode="℮"/><glyph d="M1538 598h-1100l25 -260l-445 385l553 385l-98 -262h1100z" glyph-name="arrowleft" horiz-adv-x="1720" unicode="←"/><glyph d="M436 1100l-270 -62l455 498l315 -498l-252 62l-154 -1100h-247z" glyph-name="arrowup" horiz-adv-x="1044" unicode="↑"/><glyph d="M1300 846l-24 262l442 -385l-551 -385l99 260h-1100l35 248h1099z" glyph-name="arrowright" horiz-adv-x="1720" unicode="→"/><glyph d="M745 1536l-153 -1100l268 62l-454 -498l-316 498l254 -62l154 1100h247z" glyph-name="arrowdown" horiz-adv-x="995" unicode="↓"/><glyph d="M-131 682l553 385l-100 -260l1148 -2l-24 260l442 -385l-549 -385l99 262l-1151 2l22 -264z" glyph-name="arrowboth" horiz-adv-x="1753" unicode="↔"/><glyph d="M70 350l252 -61l112 798l-270 -61l454 496l316 -498l-252 61l-111 -794l269 61l-455 -497z" glyph-name="arrowupdn" horiz-adv-x="995" unicode="↕"/><glyph d="M981 137l-670 776l-172 -227l8 625l613 -80l-250 -141l670 -779z" glyph-name="uni2196" horiz-adv-x="1095" unicode="↖"/><glyph d="M705 1090l-209 141l637 80l-168 -625l-111 227l-887 -776l-149 174z" glyph-name="uni2197" horiz-adv-x="1095" unicode="↗"/><glyph d="M147 1399l668 -776l174 227l-8 -625l-612 80l247 141l-667 779z" glyph-name="uni2198" horiz-adv-x="1097" unicode="↘"/><glyph d="M420 446l211 -141l-637 -80l168 625l108 -227l889 776l150 -174z" glyph-name="uni2199" horiz-adv-x="1097" unicode="↙"/><glyph d="M459 1446q274 39 428.5 -187.5t101.5 -586.5q-41 -279 -209 -468.5t-374 -189.5q-242 0 -317 175.5t58 428.5q119 231 313.5 320.5t377.5 5.5q-23 203 -131.5 307.5t-266.5 67.5zM834 672q8 84 10 129q-145 102 -299 41.5t-258 -264.5q-94 -182 -54.5 -313.5 t189.5 -131.5q135 0 257 158t155 381z" glyph-name="partialdiff" horiz-adv-x="1087" unicode="∂"/><glyph d="M1341 1001q129 -172 97 -405q-35 -254 -240 -433t-459 -179q-227 0 -383 151l-100 -86l-47 55l100 86q-127 172 -96 406q37 254 241.5 433t458.5 179q229 0 381 -151l101 88l49 -55zM354 596q-20 -174 70 -303l756 661q-117 113 -287 113q-197 0 -353.5 -137t-185.5 -334 zM760 127q197 0 351.5 137t182.5 332q25 172 -67 303l-756 -661q115 -111 289 -111z" glyph-name="emptyset" horiz-adv-x="1669" unicode="∅"/><glyph glyph-name="product" horiz-adv-x="1513" unicode="∏"/><glyph d="M70 -145l856 743l-650 743l15 99h1171l-18 -135h-942l608 -707l-807 -707h942l-18 -135h-1172z" glyph-name="summation" horiz-adv-x="1536" unicode="∑"/><glyph d="M121 659h1229l-17 -120h-1229z" glyph-name="minus" horiz-adv-x="1468" unicode="−"/><glyph d="M262 563h-135l18 119h220l118 -641l942 1520l103 -45l-1039 -1676h-92z" glyph-name="radical" horiz-adv-x="1486" unicode="√"/><glyph d="M354 297q-119 0 -187.5 85t-55.5 214q25 129 116.5 214t210.5 85q180 0 344 -211q221 211 406 211q121 0 187.5 -83t51.5 -216q-20 -133 -110 -216t-213 -83q-184 0 -344 211q-232 -211 -406 -211zM371 416q133 0 319 180q-133 180 -268 180q-68 0 -123 -51t-72 -129 q-6 -76 35 -128t109 -52zM1120 416q68 0 123 51t68 129q8 80 -32 130t-108 50q-137 0 -323 -180q139 -180 272 -180z" glyph-name="infinity" horiz-adv-x="1558" unicode="∞"/><glyph d="M201 -387q-78 0 -118 55.5t-17 143.5h94q-12 -100 55 -101q63 0 74 70l221 1569q10 76 65.5 122t124.5 46q76 0 116 -56.5t15 -142.5h-94q14 100 -53 100q-27 0 -49.5 -18.5t-26.5 -50.5l-221 -1569q-10 -76 -64 -122t-122 -46z" glyph-name="integral" horiz-adv-x="923" unicode="∫"/><glyph d="M809 655q-59 0 -110.5 28t-74 53.5t-57.5 72.5q-39 51 -73.5 76.5t-81.5 25.5q-84 0 -143.5 -66.5t-67.5 -164.5h-101q12 147 104.5 238.5t221.5 91.5q78 0 129 -37t102 -113q25 -35 42.5 -54.5t48 -35.5t67.5 -16q82 0 142.5 64.5t66.5 164.5h98q-8 -139 -99 -233.5 t-214 -94.5zM754 258q-61 0 -112.5 28.5t-72 51t-59.5 72.5q-70 104 -156 104q-82 0 -142 -66.5t-69 -164.5h-98q12 147 105.5 239t220.5 92q78 0 128 -36.5t103 -114.5q33 -53 66.5 -81t89.5 -28q82 0 142.5 65.5t68.5 166.5h100q-10 -141 -101 -234.5t-214 -93.5z" glyph-name="approxequal" horiz-adv-x="1175" unicode="≈"/><glyph d="M928 680l-273 -272h660l-17 -117h-757l-279 -281h-115l281 281h-358l16 117h459l270 272h-692l16 117h793l235 237h115l-240 -237h326l-16 -117h-424z" glyph-name="notequal" horiz-adv-x="1468" unicode="≠"/><glyph d="M1460 1266l-1050 -459l919 -463l-20 -149l-1055 532l22 160l1205 528zM166 109h1130l-14 -109h-1130z" glyph-name="lessequal" horiz-adv-x="1615" unicode="≤"/><glyph d="M1407 887l-23 -160l-1206 -532l21 149l1048 463l-917 459l20 149zM166 109h1130l-14 -109h-1130z" glyph-name="greaterequal" horiz-adv-x="1615" unicode="≥"/><glyph d="M190 723l707 618l528 -616l-702 -619zM1227 725l-359 420l-479 -422l363 -418z" glyph-name="lozenge" horiz-adv-x="1599" unicode="◊"/><glyph glyph-name="glyph432"/><glyph d="M436 1100l-270 -62l455 498l315 -498l-252 62l-154 -1100h-247z" glyph-name="glyph433" horiz-adv-x="995"/><glyph d="M334 1214q-47 0 -78 35t-23 82q8 49 47 83t87 34q49 0 78.5 -34t23.5 -83q-8 -47 -47 -82t-88 -35zM219 1024h176l-143 -1024h-176z" glyph-name="i.locl" horiz-adv-x="589"/><glyph d="M1094 379h-740l-198 -379h-199l831 1536h203l402 -1536h-197zM1063 539l-201 811l-426 -811h627z" glyph-name="glyph435" horiz-adv-x="1533"/><glyph d="M981 1733h-143l227 315h182zM1094 379h-740l-198 -379h-199l831 1536h203l402 -1536h-197zM1063 539l-201 811l-426 -811h627z" glyph-name="glyph436" horiz-adv-x="1533"/><glyph d="M895 1671q-150 0 -231.5 86t-61.5 232h109q-14 -86 43 -147.5t157.5 -61.5t175 61.5t87.5 147.5h106q-20 -145 -126.5 -231.5t-258.5 -86.5zM1094 379h-740l-198 -379h-199l831 1536h203l402 -1536h-197zM1063 539l-201 811l-426 -811h627z" glyph-name="glyph437" horiz-adv-x="1533"/><glyph d="M805 1698l-158 350h137l127 -260l201 260h137l-258 -350h-186zM1094 379h-740l-198 -379h-199l831 1536h203l402 -1536h-197zM1063 539l-201 811l-426 -811h627z" glyph-name="glyph438" horiz-adv-x="1533"/><glyph d="M741 1698h-143l256 350h186l160 -350h-143l-121 266zM1094 379h-740l-198 -379h-199l831 1536h203l402 -1536h-197zM1063 539l-201 811l-426 -811h627z" glyph-name="glyph439" horiz-adv-x="1533"/><glyph d="M713 1720q-47 0 -77 35t-24 84q8 47 47 82t89 35q47 0 76.5 -35t23.5 -82q-8 -49 -48 -84t-87 -35zM1094 1720q-47 0 -78 35t-23 84q8 47 47 82t86.5 35t77 -35t23.5 -82q-8 -49 -47 -84t-86 -35zM1094 379h-740l-198 -379h-199l831 1536h203l402 -1536h-197zM1063 539 l-201 811l-426 -811h627z" glyph-name="glyph440" horiz-adv-x="1533"/><glyph d="M1094 379h-740l-198 -379h-199l831 1536h203l402 -1536h-197zM1063 539l-201 811l-426 -811h627zM643 -141q47 0 77 -35t23 -82q-8 -47 -48 -82t-87 -35t-76.5 35t-23.5 82q8 47 47 82t88 35z" glyph-name="glyph441" horiz-adv-x="1533"/><glyph d="M827 1733l-180 315h182l140 -315h-142zM1094 379h-740l-198 -379h-199l831 1536h203l402 -1536h-197zM1063 539l-201 811l-426 -811h627z" glyph-name="glyph442" horiz-adv-x="1533"/><glyph d="M1225 1743h-635l16 119h635zM1094 379h-740l-198 -379h-199l831 1536h203l402 -1536h-197zM1063 539l-201 811l-426 -811h627z" glyph-name="glyph443" horiz-adv-x="1533"/><glyph d="M1393 -342l47 -84q-131 -113 -295 -106q-104 4 -158.5 61t-42.5 154q29 180 281 317h-29l-102 379h-740l-198 -379h-199l831 1536h203l402 -1536h-15q-115 -29 -205 -117t-104 -184q-8 -59 22.5 -97t94.5 -38q119 0 207 94zM436 539h627l-201 811z" glyph-name="glyph444" horiz-adv-x="1507"/><glyph d="M999 1505l394 -1505h-197l-102 379h-740l-198 -379h-199l811 1499h-14q-82 59 -66 168q12 84 82 145.5t158 61.5q84 0 136 -61.5t38 -145.5q-13 -103 -103 -162zM772 1667q-8 -55 22.5 -91t84 -36t94.5 36t49 91q8 53 -23.5 90t-83 37t-93.5 -37t-50 -90zM436 539h627 l-201 811z" glyph-name="glyph445" horiz-adv-x="1533"/><glyph d="M569 1733q0 113 66.5 187.5t161.5 74.5q119 0 176 -111q27 -61 86 -61q47 0 77.5 43t28.5 108h109q2 -113 -63.5 -186.5t-163.5 -73.5q-117 0 -175 113q-29 59 -86 59q-47 0 -77.5 -43t-28.5 -110h-111zM1094 379h-740l-198 -379h-199l831 1536h203l402 -1536h-197z M1063 539l-201 811l-426 -811h627z" glyph-name="glyph446" horiz-adv-x="1533"/><glyph d="M788 1536h1067l-22 -156h-670l-76 -540h584l-20 -142h-584l-76 -542h670l-21 -156h-845l45 338h-506l-172 -338h-205zM862 479l125 901h-92l-481 -901h448z" glyph-name="glyph447" horiz-adv-x="1837"/><glyph d="M821 805q133 -31 204 -139.5t50 -257.5q-25 -178 -162 -293t-315 -115h-606l215 1536h518q180 0 287.5 -113.5t83.5 -292.5q-20 -127 -94.5 -213.5t-180.5 -111.5zM909 1110q16 111 -50 188.5t-175 77.5h-317l-74 -512h319q113 0 198 68.5t99 177.5zM596 162 q111 0 198 77.5t103 188.5q16 113 -49.5 200t-173.5 87h-402l-77 -553h401z" glyph-name="glyph448" horiz-adv-x="1171"/><glyph d="M907 805q135 -31 206 -139.5t50 -257.5q-27 -178 -164 -293t-315 -115h-692l215 1536h604q182 0 289.5 -113.5t81.5 -292.5q-18 -127 -93.5 -213.5t-181.5 -111.5zM997 1110q16 111 -50 188.5t-175 77.5h-405l-74 -512h405q113 0 199 68.5t100 177.5zM682 162 q111 0 199 78.5t104 187.5q16 111 -50.5 199t-174.5 88h-488l-77 -553h487zM524 -141q47 0 77 -35t24 -82q-8 -47 -48 -82t-87.5 -35t-77 35t-23.5 82q8 47 47 82t88 35z" glyph-name="glyph449" horiz-adv-x="1257"/><glyph d="M709 -20q-324 -2 -498 226t-127 562t284.5 561t561.5 227q150 0 270.5 -48t189 -124.5t104.5 -165t32 -174.5h-187q-10 127 -115.5 233.5t-318.5 106.5q-254 0 -433 -176t-216 -440q-37 -262 93 -438t384 -176q195 0 341.5 101t182.5 214h187q-20 -78 -82 -161 t-154 -156.5t-224 -121.5t-275 -50z" glyph-name="glyph450" horiz-adv-x="1587"/><glyph d="M1163 2048h180l-266 -315h-141zM709 -20q-324 -2 -498 226t-127 562t284.5 561t561.5 227q150 0 270.5 -48t189 -124.5t104.5 -165t32 -174.5h-187q-10 127 -115.5 233.5t-318.5 106.5q-254 0 -433 -176t-216 -440q-37 -262 93 -438t384 -176q195 0 341.5 101t182.5 214 h187q-20 -78 -82 -161t-154 -156.5t-224 -121.5t-275 -50z" glyph-name="glyph451" horiz-adv-x="1587"/><glyph d="M698 2048h138l129 -260l198 260h137l-256 -350h-186zM709 -20q-324 -2 -498 226t-127 562t284.5 561t561.5 227q150 0 270.5 -48t189 -124.5t104.5 -165t32 -174.5h-187q-10 127 -115.5 233.5t-318.5 106.5q-254 0 -433 -176t-216 -440q-37 -262 93 -438t384 -176 q195 0 341.5 101t182.5 214h187q-20 -78 -82 -161t-154 -156.5t-224 -121.5t-275 -50z" glyph-name="glyph452" horiz-adv-x="1587"/><glyph d="M905 1384q-254 0 -433 -176t-216 -440q-37 -262 93 -438t384 -176q195 0 341.5 101t182.5 214h187q-39 -156 -221.5 -306.5t-429.5 -178.5v-4l-74 -119q111 20 177.5 -33t51.5 -152q-12 -88 -80.5 -148t-156.5 -60q-70 0 -132.5 37.5t-84.5 91.5l88 34q18 -33 59 -54 t82 -21q51 0 89 34.5t46 85.5q10 72 -46 99.5t-148 -4.5l-66 49l100 160q-319 2 -490 230t-124 558q47 334 284.5 561t561.5 227q150 0 270.5 -48t189 -124.5t104.5 -165t32 -174.5h-187q-10 127 -115.5 233.5t-318.5 106.5z" glyph-name="glyph453" horiz-adv-x="1587"/><glyph d="M954 1720q-47 0 -77.5 35t-22.5 84q8 47 47 82t86 35t78 -35t22 -82q-6 -49 -46 -84t-87 -35zM709 -20q-324 -2 -498 226t-127 562t284.5 561t561.5 227q150 0 270.5 -48t189 -124.5t104.5 -165t32 -174.5h-187q-10 127 -115.5 233.5t-318.5 106.5q-254 0 -433 -176 t-216 -440q-37 -262 93 -438t384 -176q195 0 341.5 101t182.5 214h187q-20 -78 -82 -161t-154 -156.5t-224 -121.5t-275 -50z" glyph-name="glyph454" horiz-adv-x="1587"/><glyph d="M262 1536h428q162 0 293 -46t224 -138t131 -245t10 -351q-47 -348 -295 -552t-578 -204h-428zM494 162q260 0 447 152.5t226 441.5q45 322 -94 471t-407 149h-246l-172 -1214h246z" glyph-name="glyph455" horiz-adv-x="1435"/><glyph d="M848 1536q334 0 522.5 -201.5t137 -566.5t-297 -566.5t-577.5 -201.5h-430l100 711h-158l17 116h157l99 709h430zM651 162q258 0 445.5 157.5t228.5 448.5q41 289 -101.5 448.5t-400.5 159.5h-245l-78 -549h270l-16 -116h-271l-77 -549h245z" glyph-name="glyph456" horiz-adv-x="1593"/><glyph d="M475 2048h137l127 -260l201 260h137l-258 -350h-186zM262 1536h469q162 0 293 -46t224 -138t131 -245t10 -351q-47 -348 -295 -552t-578 -204h-469zM535 162q260 0 447 152.5t226 441.5q45 322 -94 471t-407 149h-287l-172 -1214h287z" glyph-name="glyph457" horiz-adv-x="1476"/><glyph d="M872 1536q162 0 293 -46t224.5 -138t131.5 -245t9 -351q-47 -348 -295 -552t-578 -204h-469l101 711h-144l17 116h143l98 709h469zM1350 756q45 322 -94.5 471t-405.5 149h-289l-78 -549h265l-17 -116h-264l-78 -549h289q260 0 446.5 152.5t225.5 441.5z" glyph-name="glyph458" horiz-adv-x="1617"/><glyph d="M387 1376l-74 -526h623l-25 -162h-620l-76 -526h709l-23 -162h-889l215 1536h889l-20 -160h-709z" glyph-name="glyph459" horiz-adv-x="1110"/><glyph d="M803 1733h-141l227 315h180zM387 1376l-74 -526h682l-22 -162h-682l-76 -526h770l-22 -162h-951l215 1536h951l-21 -160h-770z" glyph-name="glyph460" horiz-adv-x="1171"/><glyph d="M629 1698l-158 350h137l127 -260l201 260h137l-258 -350h-186zM387 1376l-74 -526h682l-22 -162h-682l-76 -526h770l-22 -162h-951l215 1536h951l-21 -160h-770z" glyph-name="glyph461" horiz-adv-x="1171"/><glyph d="M1157 1376h-770l-74 -526h682l-22 -162h-682l-76 -526h770l-22 -162h-433l-86 -139q111 20 177.5 -33t52.5 -152q-12 -88 -81 -148t-157 -60q-70 0 -132 37.5t-85 91.5l88 34q18 -33 59.5 -54t82.5 -21q51 0 88.5 34.5t46.5 85.5q10 72 -46.5 99.5t-148.5 -4.5l-65 49 l116 180h-428l215 1536h951z" glyph-name="glyph462" horiz-adv-x="1171"/><glyph d="M563 1698h-141l256 350h186l160 -350h-143l-121 266zM387 1376l-74 -526h682l-22 -162h-682l-76 -526h770l-22 -162h-951l215 1536h951l-21 -160h-770z" glyph-name="glyph463" horiz-adv-x="1171"/><glyph d="M536.5 1720q-47.5 0 -78 35t-22.5 84q8 47 47 82t86 35t78 -35t23 -82q-6 -49 -46 -84t-87.5 -35zM917.5 1720q-47.5 0 -78 35t-22.5 84q6 47 46 82t87 35t77 -35t22 -82q-6 -49 -45 -84t-86.5 -35zM387 1376l-74 -526h682l-22 -162h-682l-76 -526h770l-22 -162h-951 l215 1536h951l-21 -160h-770z" glyph-name="glyph464" horiz-adv-x="1171"/><glyph d="M727 1720q-49 0 -79 35t-21 84q6 47 46 82t87 35t77.5 -35t22.5 -82q-6 -49 -46 -84t-87 -35zM387 1376l-74 -526h682l-22 -162h-682l-76 -526h770l-22 -162h-951l215 1536h951l-21 -160h-770z" glyph-name="glyph465" horiz-adv-x="1171"/><glyph d="M387 1376l-74 -526h682l-22 -162h-682l-76 -526h770l-22 -162h-951l215 1536h951l-21 -160h-770zM465 -141q47 0 77.5 -35t22.5 -82q-6 -47 -46 -82t-87 -35t-77.5 35t-22.5 82t47 82t86 35z" glyph-name="glyph466" horiz-adv-x="1171"/><glyph d="M649 1733l-178 315h180l142 -315h-144zM387 1376l-74 -526h682l-22 -162h-682l-76 -526h770l-22 -162h-951l215 1536h951l-21 -160h-770z" glyph-name="glyph467" horiz-adv-x="1171"/><glyph d="M1049 1743h-635l16 119h635zM387 1376l-74 -526h682l-22 -162h-682l-76 -526h770l-22 -162h-951l215 1536h951l-21 -160h-770z" glyph-name="glyph468" horiz-adv-x="1171"/><glyph d="M1157 1376h-770l-74 -526h682l-22 -162h-682l-76 -526h770l-22 -162h-54q-109 -29 -203 -117t-108 -184q-8 -61 22.5 -98t96.5 -37q117 0 207 94l47 -84q-131 -113 -297 -106q-102 4 -157.5 61t-41.5 154q25 178 281 317h-744l215 1536h951z" glyph-name="glyph469" horiz-adv-x="1241"/><glyph d="M393 1733q0 113 66.5 187.5t161.5 74.5q119 0 176 -111q27 -61 86 -61q47 0 77.5 43t28.5 108h109q2 -113 -63.5 -186.5t-164.5 -73.5q-117 0 -174 113q-29 59 -86 59q-47 0 -77.5 -43t-28.5 -110h-111zM387 1376l-74 -526h682l-22 -162h-682l-76 -526h770l-22 -162h-951 l215 1536h951l-21 -160h-770z" glyph-name="glyph470" horiz-adv-x="1171"/><glyph d="M391 1376l-74 -526h621l-23 -162h-622l-96 -688h-181l215 1536h889l-22 -160h-707z" glyph-name="glyph471" horiz-adv-x="1085"/><glyph d="M870 1386q-254 0 -426 -171t-213 -451q-39 -272 93.5 -445.5t361.5 -173.5q238 0 385.5 132.5t183.5 347.5h-421l22 159h602q-43 -391 -244.5 -595.5t-545.5 -204.5q-221 0 -372 109.5t-208 284.5t-27 386q49 350 276.5 571t543.5 221q260 0 419.5 -130t161.5 -363h-174 q-20 158 -138 240.5t-280 82.5z" glyph-name="glyph472" horiz-adv-x="1548"/><glyph d="M985.5 1671q-149.5 0 -232.5 86t-63 232h109q-12 -86 45 -147.5t155 -61.5q100 0 175 61.5t90 147.5h106q-20 -145 -127.5 -231.5t-257 -86.5zM1454 784l-24 -166l-87 -618h-120l-2 244q-104 -131 -232.5 -192.5t-320.5 -61.5q-217 0 -366.5 108.5t-208 282.5t-27.5 383 q49 348 275 568t540 220q258 0 416.5 -128t160.5 -361h-172q-20 156 -138 238.5t-280 82.5q-252 0 -424 -170t-211 -450q-39 -270 94.5 -439t360.5 -169q248 0 391.5 127t173.5 344h-419l22 157h598z" glyph-name="glyph473" horiz-adv-x="1546"/><glyph d="M911 1698l-159 350h137l129 -260l199 260h137l-256 -350h-187zM1454 784l-24 -166l-87 -618h-120l-2 244q-104 -131 -232.5 -192.5t-320.5 -61.5q-217 0 -366.5 108.5t-208 282.5t-27.5 383q49 348 275 568t540 220q258 0 416.5 -128t160.5 -361h-172q-20 156 -138 238.5 t-280 82.5q-252 0 -424 -170t-211 -450q-39 -270 94.5 -439t360.5 -169q248 0 391.5 127t173.5 344h-419l22 157h598z" glyph-name="glyph474" horiz-adv-x="1546"/><glyph d="M1454 784l-24 -166l-87 -618h-120l-2 244q-104 -131 -232.5 -192.5t-320.5 -61.5q-217 0 -366.5 108.5t-208 282.5t-27.5 383q49 348 275 568t540 220q258 0 416.5 -128t160.5 -361h-172q-20 156 -138 238.5t-280 82.5q-252 0 -424 -170t-211 -450q-39 -270 94.5 -439 t360.5 -169q248 0 391.5 127t173.5 344h-419l22 157h598zM684 -311q-33 12 -50.5 42.5t-10.5 69.5q6 47 45 82t88 35q47 0 74.5 -34t21.5 -83q-6 -39 -45 -102.5t-68.5 -100t-52.5 -61.5h-74z" glyph-name="glyph475" horiz-adv-x="1546"/><glyph d="M1018 1720q-47 0 -78 35t-22 84q8 47 47 82t86 35t77.5 -35t22.5 -82q-6 -49 -46 -84t-87 -35zM1454 784l-24 -166l-87 -618h-120l-2 244q-104 -131 -232.5 -192.5t-320.5 -61.5q-217 0 -366.5 108.5t-208 282.5t-27.5 383q49 348 275 568t540 220q258 0 416.5 -128 t160.5 -361h-172q-20 156 -138 238.5t-280 82.5q-252 0 -424 -170t-211 -450q-39 -270 94.5 -439t360.5 -169q248 0 391.5 127t173.5 344h-419l22 157h598z" glyph-name="glyph476" horiz-adv-x="1546"/><glyph d="M1462 1536l-215 -1536h-180l96 688h-823l-96 -688h-183l215 1536h183l-97 -686h824l96 686h180z" glyph-name="glyph477" horiz-adv-x="1492"/><glyph d="M1690 1161h-140l-161 -1161h-181l97 688h-826l-94 -688h-182l162 1161h-142l13 78h139l43 297h182l-43 -297h823l43 297h181l-43 -297h139zM1370 1161h-823l-43 -311h823z" glyph-name="glyph478" horiz-adv-x="1773"/><glyph d="M1462 1536l-215 -1536h-180l96 688h-823l-96 -688h-183l215 1536h183l-97 -686h824l96 686h180zM641 -141q47 0 78 -35t22.5 -82t-47.5 -82t-86 -35q-49 0 -78.5 35t-23.5 82q8 47 47 82t88 35z" glyph-name="glyph479" horiz-adv-x="1492"/><glyph d="M276 1536h183l-215 -1536h-183z" glyph-name="glyph480" horiz-adv-x="489"/><glyph d="M385 1536h182l-215 -1536h-182zM856 -20q-90 0 -154 18l27 186q61 -23 148 -22q72 0 131 51t69 123l168 1200h180l-170 -1206q-20 -150 -136 -250t-263 -100z" glyph-name="glyph481" horiz-adv-x="1490"/><glyph d="M555 2048h180l-266 -315h-141zM276 1536h183l-215 -1536h-183z" glyph-name="glyph482" horiz-adv-x="489"/><glyph d="M135 2048h139l127 -260l201 260h137l-258 -350h-186zM276 1536h183l-215 -1536h-183z" glyph-name="glyph483" horiz-adv-x="489"/><glyph d="M344 2048h186l160 -350h-143l-121 266l-197 -266h-143zM276 1536h183l-215 -1536h-183z" glyph-name="glyph484" horiz-adv-x="489"/><glyph d="M201 1720q-47 0 -78 35t-25 84q8 47 48 82t90 35q47 0 76.5 -35t23.5 -82q-8 -49 -48 -84t-87 -35zM582 1720q-47 0 -78 35t-23 84q8 47 47 82t86.5 35t77 -35t23.5 -82q-8 -49 -47 -84t-86 -35zM276 1536h183l-215 -1536h-183z" glyph-name="glyph485" horiz-adv-x="489"/><glyph d="M393 1720q-49 0 -78.5 35t-21.5 84q6 47 46 82t87 35t78 -35t22 -82q-6 -49 -46 -84t-87 -35zM276 1536h183l-215 -1536h-183z" glyph-name="glyph486" horiz-adv-x="489"/><glyph d="M276 1536h183l-215 -1536h-183zM98 -375q-47 0 -77.5 35t-22.5 82t47 82t86 35t78 -35t22 -82q-6 -47 -46 -82t-87 -35z" glyph-name="glyph487" horiz-adv-x="489"/><glyph d="M133 2048h184l140 -315h-142zM276 1536h183l-215 -1536h-183z" glyph-name="glyph488" horiz-adv-x="489"/><glyph d="M94 1862h637l-16 -119h-637zM276 1536h183l-215 -1536h-183z" glyph-name="glyph489" horiz-adv-x="489"/><glyph d="M285 -426q-129 -113 -295 -106q-104 4 -159.5 61t-43.5 154q29 180 285 317h-11l215 1536h183l-215 -1536h-19q-109 -29 -203 -117t-108 -184q-8 -61 22.5 -98t96.5 -37q117 0 207 94z" glyph-name="glyph490" horiz-adv-x="489"/><glyph d="M535 1714q-117 0 -175 113q-29 59 -86 59q-47 0 -77.5 -43t-28.5 -110h-113q2 115 68.5 188.5t161.5 73.5q119 0 176 -111q27 -61 86 -61q47 0 77.5 43t28.5 108h109q2 -113 -63.5 -186.5t-163.5 -73.5zM276 1536h183l-215 -1536h-183z" glyph-name="glyph491" horiz-adv-x="489"/><glyph d="M145 -20q-92 0 -155 18l26 186q63 -23 150 -22q72 0 131 51t68 123l170 1200h178l-170 -1206q-20 -147 -135.5 -248.5t-262.5 -101.5z" glyph-name="glyph492" horiz-adv-x="749"/><glyph d="M877 0l-566 709l-98 -709h-182l215 1536h182l-102 -727l690 725h223l-733 -768l604 -766h-233z" glyph-name="glyph493" horiz-adv-x="1241"/><glyph d="M938 0l-627 709l-98 -709h-182l215 1536h182l-102 -727l751 725h223l-794 -768l665 -766h-233zM449 -354q-35 12 -52.5 42.5t-11.5 69.5q6 47 45 82t88 35q47 0 75 -34t21 -83q-6 -39 -45 -102.5t-68.5 -100t-51.5 -61.5h-74z" glyph-name="glyph494" horiz-adv-x="1302"/><glyph d="M231 1536h181l-193 -1374h563l-20 -162h-746z" glyph-name="glyph495" horiz-adv-x="944"/><glyph d="M510 2048h180l-266 -315h-141zM231 1536h181l-193 -1374h563l-20 -162h-746z" glyph-name="glyph496" horiz-adv-x="944"/><glyph d="M231 1536h181l-193 -1374h563l-20 -162h-746zM825 1309q-76 29 -63 110q6 49 45 83t88 34q47 0 74.5 -34t21.5 -83q-6 -39 -45 -101.5t-68.5 -99t-52.5 -61.5h-73z" glyph-name="glyph497" horiz-adv-x="974"/><glyph d="M231 1536h181l-193 -1374h563l-20 -162h-746zM295 -367q-74 29 -64 111q8 49 46 83t88 34q47 0 75.5 -34t20.5 -83q-8 -55 -65.5 -136t-98.5 -126h-76z" glyph-name="glyph498" horiz-adv-x="944"/><glyph d="M231 1536h181l-193 -1374h563l-20 -162h-746zM336 -375q-47 0 -78 35t-22.5 82t47.5 82t86 35t77.5 -35t22.5 -82q-6 -47 -46 -82t-87 -35z" glyph-name="glyph499" horiz-adv-x="944"/><glyph d="M1014 162l-21 -162h-745l84 608l-121 -110h-127l268 247l111 791h180l-84 -600l117 111h133l-268 -248l-90 -637h563z" glyph-name="glyph500" horiz-adv-x="1175"/><glyph d="M1821 1536l-215 -1536h-181l179 1272l-697 -1272h-147l-338 1272l-178 -1272h-183l215 1536h248l340 -1307l711 1307h246z" glyph-name="glyph501" horiz-adv-x="1851"/><glyph d="M1497 1536l-215 -1536h-172l-754 1245l-174 -1245h-182l215 1536h172l756 -1243l174 1243h180z" glyph-name="glyph502" horiz-adv-x="1511"/><glyph d="M956 1733h-143l229 315h181zM1497 1536l-215 -1536h-172l-754 1245l-174 -1245h-182l215 1536h172l756 -1243l174 1243h180z" glyph-name="glyph503" horiz-adv-x="1511"/><glyph d="M782 1698l-159 350h137l129 -260l198 260h138l-256 -350h-187zM1497 1536l-215 -1536h-172l-754 1245l-174 -1245h-182l215 1536h172l756 -1243l174 1243h180z" glyph-name="glyph504" horiz-adv-x="1511"/><glyph d="M1497 1536l-215 -1536h-172l-754 1245l-174 -1245h-182l215 1536h172l756 -1243l174 1243h180zM569 -354q-72 27 -61 110q8 49 46 83t87 34q47 0 75.5 -34t20.5 -83q-8 -55 -65.5 -136t-98.5 -126h-75z" glyph-name="glyph505" horiz-adv-x="1511"/><glyph d="M878.5 1720q-47.5 0 -77 35t-23.5 84q8 47 47 82t88 35q47 0 77 -35t24 -82q-8 -49 -48 -84t-87.5 -35zM1497 1536l-215 -1536h-172l-754 1245l-174 -1245h-182l215 1536h172l756 -1243l174 1243h180z" glyph-name="glyph506" horiz-adv-x="1511"/><glyph d="M1497 1536l-215 -1536h-172l-754 1245l-174 -1245h-182l215 1536h172l756 -1243l174 1243h180zM627 -141q47 0 77.5 -35t22.5 -82q-6 -47 -46 -82t-87 -35q-49 0 -79 35t-21 82q6 47 46 82t87 35z" glyph-name="glyph507" horiz-adv-x="1511"/><glyph d="M1489 1536l-238 -1692q-18 -131 -116.5 -195.5t-235.5 -60.5l14 123q137 -10 158 133l25 176l-748 1215l-174 -1235h-174l215 1536h166l760 -1235l174 1235h174z" glyph-name="glyph508" horiz-adv-x="1505"/><glyph d="M606 1733q0 115 65.5 188.5t162.5 73.5q121 0 174 -111q29 -61 86 -61q47 0 77.5 43t28.5 108h111q0 -113 -65.5 -186.5t-164.5 -73.5q-119 0 -172 113q-29 59 -86 59q-49 0 -78.5 -43t-27.5 -110h-111zM1497 1536l-215 -1536h-172l-754 1245l-174 -1245h-182l215 1536 h172l756 -1243l174 1243h180z" glyph-name="glyph509" horiz-adv-x="1511"/><glyph d="M709 -20q-326 0 -506 228t-133 560t291.5 560t568 228t505 -228t134.5 -560t-291.5 -560t-568.5 -228zM733 154q254 0 439.5 176t222.5 438t-98.5 439t-391.5 177q-254 0 -440 -177t-223 -439q-37 -260 99 -437t392 -177z" glyph-name="glyph510" horiz-adv-x="1636"/><glyph d="M1116 2048h182l-266 -315h-143zM709 -20q-326 0 -506 228t-133 560t291.5 560t568 228t505 -228t134.5 -560t-291.5 -560t-568.5 -228zM733 154q254 0 439.5 176t222.5 438t-98.5 439t-391.5 177q-254 0 -440 -177t-223 -439q-37 -260 99 -437t392 -177z" glyph-name="glyph511" horiz-adv-x="1636"/><glyph d="M698 2048h138l129 -260l198 260h137l-256 -350h-186zM709 -20q-326 0 -506 228t-133 560t291.5 560t568 228t505 -228t134.5 -560t-291.5 -560t-568.5 -228zM733 154q254 0 439.5 176t222.5 438t-98.5 439t-391.5 177q-254 0 -440 -177t-223 -439q-37 -260 99 -437 t392 -177z" glyph-name="glyph512" horiz-adv-x="1636"/><glyph d="M907 2048h187l157 -350h-141l-121 266l-196 -266h-144zM709 -20q-326 0 -506 228t-133 560t291.5 560t568 228t505 -228t134.5 -560t-291.5 -560t-568.5 -228zM733 154q254 0 439.5 176t222.5 438t-98.5 439t-391.5 177q-254 0 -440 -177t-223 -439q-37 -260 99 -437 t392 -177z" glyph-name="glyph513" horiz-adv-x="1636"/><glyph d="M764 1720q-49 0 -79 35t-21 84q6 47 46 82t87 35t77.5 -35t22.5 -82q-6 -49 -46 -84t-87 -35zM1145 1720q-49 0 -79 35t-24 84q8 47 48 82t87.5 35t77 -35t21.5 -82q-6 -49 -45 -84t-86 -35zM709 -20q-326 0 -506 228t-133 560t291.5 560t568 228t505 -228t134.5 -560 t-291.5 -560t-568.5 -228zM733 154q254 0 439.5 176t222.5 438t-98.5 439t-391.5 177q-254 0 -440 -177t-223 -439q-37 -260 99 -437t392 -177z" glyph-name="glyph514" horiz-adv-x="1636"/><glyph d="M709 -20q-326 0 -506 228t-133 560t291.5 560t568 228t505 -228t134.5 -560t-291.5 -560t-568.5 -228zM733 154q254 0 439.5 176t222.5 438t-98.5 439t-391.5 177q-254 0 -440 -177t-223 -439q-37 -260 99 -437t392 -177zM659.5 -375q-47.5 0 -77 35t-23.5 82q8 47 47 82 t88 35q47 0 77 -35t24 -82q-8 -47 -48 -82t-87.5 -35z" glyph-name="glyph515" horiz-adv-x="1636"/><glyph d="M698 2048h181l139 -315h-141zM709 -20q-326 0 -506 228t-133 560t291.5 560t568 228t505 -228t134.5 -560t-291.5 -560t-568.5 -228zM733 154q254 0 439.5 176t222.5 438t-98.5 439t-391.5 177q-254 0 -440 -177t-223 -439q-37 -260 99 -437t392 -177z" glyph-name="glyph516" horiz-adv-x="1636"/><glyph d="M1063 2048h170l-389 -356h-131zM1409 2048h170l-387 -356h-133zM709 -20q-326 0 -506 228t-133 560t291.5 560t568 228t505 -228t134.5 -560t-291.5 -560t-568.5 -228zM733 154q254 0 439.5 176t222.5 438t-98.5 439t-391.5 177q-254 0 -440 -177t-223 -439 q-37 -260 99 -437t392 -177z" glyph-name="glyph517" horiz-adv-x="1636"/><glyph d="M657 1862h635l-16 -119h-635zM709 -20q-326 0 -506 228t-133 560t291.5 560t568 228t505 -228t134.5 -560t-291.5 -560t-568.5 -228zM733 154q254 0 439.5 176t222.5 438t-98.5 439t-391.5 177q-254 0 -440 -177t-223 -439q-37 -260 99 -437t392 -177z" glyph-name="glyph518" horiz-adv-x="1636"/><glyph d="M1386 1384q111 -111 160 -271.5t23 -344.5q-47 -332 -292 -560t-568 -228q-217 0 -377 110l-96 -119h-127l147 181q-113 109 -163 269.5t-23 346.5q47 332 291.5 560t568.5 228q219 0 381 -112l96 119h125zM242 768q-41 -297 131 -473l821 1005q-123 84 -289 84 q-254 0 -440 -177t-223 -439zM733 154q254 0 439.5 176t222.5 438q41 293 -127 471l-817 -1006q118 -79 282 -79z" glyph-name="glyph519" horiz-adv-x="1636"/><glyph d="M1032 1733h-143l227 315h182zM1386 1384q111 -111 160 -271.5t23 -344.5q-47 -332 -292 -560t-568 -228q-217 0 -377 110l-96 -119h-127l147 181q-113 109 -163 269.5t-23 346.5q47 332 291.5 560t568.5 228q219 0 381 -112l96 119h125zM242 768q-41 -297 131 -473 l821 1005q-123 84 -289 84q-254 0 -440 -177t-223 -439zM733 154q254 0 439.5 176t222.5 438q41 293 -127 471l-817 -1006q118 -79 282 -79z" glyph-name="glyph520" horiz-adv-x="1636"/><glyph d="M1096 1714q-119 0 -172 113q-31 59 -88 59q-47 0 -77 -43t-28 -110h-113q2 115 68 188.5t160 73.5q123 0 176 -111q29 -61 86 -61q47 0 78 43t28 108h111q0 -113 -65.5 -186.5t-163.5 -73.5zM709 -20q-326 0 -506 228t-133 560t291.5 560t568 228t505 -228t134.5 -560 t-291.5 -560t-568.5 -228zM733 154q254 0 439.5 176t222.5 438t-98.5 439t-391.5 177q-254 0 -440 -177t-223 -439q-37 -260 99 -437t392 -177z" glyph-name="glyph521" horiz-adv-x="1636"/><glyph d="M2478 1376h-768l-74 -526h682l-24 -162h-682l-74 -526h768l-20 -162h-951l35 248q-125 -125 -287.5 -195.5t-334.5 -70.5q-328 0 -525.5 230t-152.5 558q31 215 161.5 396.5t327.5 287t412 105.5q172 0 314 -71t231 -196l34 244h951zM772 156q203 0 380 118.5t265 307.5 l53 376q-35 188 -179 307t-347 119q-256 0 -460.5 -179t-239.5 -435t118.5 -435t409.5 -179z" glyph-name="glyph522" horiz-adv-x="2492"/><glyph d="M791 1536q178 0 284.5 -137t81.5 -320q-27 -182 -172 -317t-323 -135h-377l-88 -627h-181l215 1536h560zM670 778q115 0 209 89t112 210q16 119 -53.5 209t-181.5 90h-365l-86 -598h365z" glyph-name="glyph523" horiz-adv-x="1167"/><glyph d="M758 1323q180 0 286.5 -127t79.5 -307q-23 -176 -165 -300t-322 -124h-381l-63 -465h-177l185 1323l28 207h177l-29 -207h381zM653 623q115 0 206 78.5t108 193.5q14 113 -54.5 191.5t-183.5 78.5h-375l-75 -542h374z" glyph-name="glyph524" horiz-adv-x="1163"/><glyph d="M1538 147l-20 -147h-39q-141 0 -228 106l-39 48q-229 -174 -503 -174q-326 0 -506 228t-133 560t291.5 560t568 228t505 -228t134.5 -560q-41 -287 -234 -500l49 -59q49 -61 129 -62h25zM733 154q211 0 377 125l-217 268l125 110l215 -262q131 160 162 373 q37 262 -98.5 439t-391.5 177q-254 0 -440 -177t-223 -439q-37 -260 99 -437t392 -177z" glyph-name="glyph525" horiz-adv-x="1656"/><glyph d="M1051 0h-205l-299 637h-277l-88 -637h-182l215 1536h559q178 0 285.5 -137t81.5 -322q-23 -156 -140.5 -281.5t-269.5 -148.5zM664 784q113 0 203.5 88.5t109.5 208.5q16 119 -51.5 207t-177.5 88h-373l-84 -592h373z" glyph-name="glyph526" horiz-adv-x="1212"/><glyph d="M844 1733h-144l230 315h180zM1126 0h-202l-299 637h-355l-88 -637h-182l215 1536h637q176 0 283.5 -137t83.5 -322q-23 -158 -142 -282.5t-270 -147.5zM739 784q113 0 205 89.5t108.5 208t-51 206.5t-178.5 88h-448l-84 -592h448z" glyph-name="glyph527" horiz-adv-x="1290"/><glyph d="M670 1698l-158 350h137l127 -260l201 260h137l-258 -350h-186zM1126 0h-202l-299 637h-355l-88 -637h-182l215 1536h637q176 0 283.5 -137t83.5 -322q-23 -158 -142 -282.5t-270 -147.5zM739 784q113 0 205 89.5t108.5 208t-51 206.5t-178.5 88h-448l-84 -592h448z" glyph-name="glyph528" horiz-adv-x="1290"/><glyph d="M1126 0h-202l-299 637h-355l-88 -637h-182l215 1536h637q176 0 283.5 -137t83.5 -322q-23 -158 -142 -282.5t-270 -147.5zM739 784q113 0 205 89.5t108.5 208t-51 206.5t-178.5 88h-448l-84 -592h448zM444 -350q-74 29 -61 110q6 47 44 82t87 35t76.5 -33.5t21.5 -83.5 q-6 -39 -45 -101t-68.5 -99t-52.5 -62h-73z" glyph-name="glyph529" horiz-adv-x="1290"/><glyph d="M502 -20q-231 0 -358.5 131t-116.5 325h176q6 -121 81.5 -202.5t243.5 -81.5q160 0 264.5 68.5t125.5 199.5q8 51 -6.5 93t-40 70.5t-70.5 55.5t-86 44t-99 40q-35 14 -53 20q-82 33 -123 50.5t-107.5 56.5t-97 77t-51 97t-10.5 131q29 188 188.5 294.5t362.5 106.5 q467 0 481 -436h-164q-2 117 -80.5 199t-254.5 82q-127 0 -228.5 -60.5t-118.5 -175.5q-6 -53 10.5 -95t75 -80t86 -51t121.5 -52q14 -6 23 -10q203 -82 258 -117q199 -121 170 -334q-31 -209 -203 -327.5t-399 -118.5z" glyph-name="glyph530" horiz-adv-x="1191"/><glyph d="M1026 2046h180l-266 -315h-143zM516 -20q-233 0 -366.5 132t-122.5 324h176q6 -119 89 -201.5t253 -82.5q162 0 272.5 68.5t130.5 199.5q10 63 -9 111.5t-82.5 88t-100.5 56t-135 51.5q-29 10 -43 16q-84 31 -130.5 50.5t-112 57.5t-98 76t-53 97t-10.5 131 q29 188 195 294.5t372 106.5q242 0 360 -111.5t124 -309.5h-166q0 111 -86 188.5t-250 77.5q-129 0 -237.5 -61.5t-125.5 -174.5q-6 -43 10.5 -79.5t38 -60.5t72.5 -53.5t79 -40.5t97 -40q23 -10 35 -14q205 -84 246 -107q211 -117 201 -309q-2 -18 -4 -35 q-31 -209 -209.5 -327.5t-409.5 -118.5z" glyph-name="glyph531" horiz-adv-x="1218"/><glyph d="M606 2046h137l129 -258l199 258h137l-256 -350h-186zM516 -20q-233 0 -366.5 132t-122.5 324h176q6 -119 89 -201.5t253 -82.5q162 0 272.5 68.5t130.5 199.5q10 63 -9 111.5t-82.5 88t-100.5 56t-135 51.5q-29 10 -43 16q-84 31 -130.5 50.5t-112 57.5t-98 76t-53 97 t-10.5 131q29 188 195 294.5t372 106.5q242 0 360 -111.5t124 -309.5h-166q0 111 -86 188.5t-250 77.5q-129 0 -237.5 -61.5t-125.5 -174.5q-6 -43 10.5 -79.5t38 -60.5t72.5 -53.5t79 -40.5t97 -40q23 -10 35 -14q205 -84 246 -107q211 -117 201 -309q-2 -18 -4 -35 q-31 -209 -209.5 -327.5t-409.5 -118.5z" glyph-name="glyph532" horiz-adv-x="1218"/><glyph d="M692 877q205 -84 246 -107q211 -117 201 -309q-2 -18 -4 -35q-29 -197 -191 -314.5t-379 -129.5l-71 -119q111 20 178 -34t53 -151q-12 -88 -82 -148t-158 -60q-70 0 -132 36.5t-85 90.5l88 36q18 -33 59.5 -54t82.5 -21q51 0 90 34.5t45 85.5q10 72 -45.5 99.5 t-147.5 -4.5l-65 49l100 160q-215 12 -337 141t-111 313h176q6 -119 89 -201.5t253 -82.5q162 0 272.5 68.5t130.5 199.5q10 63 -9 111.5t-82.5 88t-100.5 56t-135 51.5q-29 10 -43 16q-84 31 -130.5 50.5t-112 57.5t-98 76t-53 97t-10.5 131q29 188 195 294.5t372 106.5 q242 0 360 -111.5t124 -309.5h-166q0 111 -86 188.5t-250 77.5q-129 0 -237.5 -61.5t-125.5 -174.5q-6 -43 10.5 -79.5t38 -60.5t72.5 -53.5t79 -40.5t97 -40q23 -10 35 -14z" glyph-name="glyph533" horiz-adv-x="1218"/><glyph d="M516 -20q-233 0 -366.5 132t-122.5 324h176q6 -119 89 -201.5t253 -82.5q162 0 272.5 68.5t130.5 199.5q10 63 -9 111.5t-82.5 88t-100.5 56t-135 51.5q-29 10 -43 16q-84 31 -130.5 50.5t-112 57.5t-98 76t-53 97t-10.5 131q29 188 195 294.5t372 106.5 q242 0 360 -111.5t124 -309.5h-166q0 111 -86 188.5t-250 77.5q-129 0 -237.5 -61.5t-125.5 -174.5q-6 -43 10.5 -79.5t38 -60.5t72.5 -53.5t79 -40.5t97 -40q23 -10 35 -14q205 -84 246 -107q211 -117 201 -309q-2 -18 -4 -35q-31 -209 -209.5 -327.5t-409.5 -118.5z M481 -381q-33 12 -51 43t-12 68q6 47 45 81.5t88 34.5q47 0 74.5 -33.5t21.5 -82.5q-8 -55 -65.5 -136t-98.5 -126h-75z" glyph-name="glyph534" horiz-adv-x="1218"/><glyph d="M516 -20q-233 0 -366.5 132t-122.5 324h176q6 -119 89 -201.5t253 -82.5q162 0 272.5 68.5t130.5 199.5q10 63 -9 111.5t-82.5 88t-100.5 56t-135 51.5q-29 10 -43 16q-84 31 -130.5 50.5t-112 57.5t-98 76t-53 97t-10.5 131q29 188 195 294.5t372 106.5 q242 0 360 -111.5t124 -309.5h-166q0 111 -86 188.5t-250 77.5q-129 0 -237.5 -61.5t-125.5 -174.5q-6 -43 10.5 -79.5t38 -60.5t72.5 -53.5t79 -40.5t97 -40q23 -10 35 -14q205 -84 246 -107q211 -117 201 -309q-2 -18 -4 -35q-31 -209 -209.5 -327.5t-409.5 -118.5z M543 -373q-47 0 -77 34t-24 83q8 47 47 82t86.5 35t78 -35t22.5 -82q-4 -49 -44 -83t-89 -34z" glyph-name="glyph535" horiz-adv-x="1218"/><glyph d="M1223 1376h-461l-195 -1374h-178l193 1374h-463l22 162h1104z" glyph-name="glyph536" horiz-adv-x="1183"/><glyph d="M1223 1376h-461l-78 -549h225l37 -75l-272 -41h-6l-101 -709h-178l98 709h-28l-115 75l160 39l78 551h-463l22 162h1104z" glyph-name="glyph537" horiz-adv-x="1183"/><glyph d="M684 1698l-160 350h138l129 -260l198 260h137l-256 -350h-186zM1223 1376h-461l-195 -1374h-178l193 1374h-463l22 162h1104z" glyph-name="glyph538" horiz-adv-x="1183"/><glyph d="M141 1538h1104l-22 -162h-461l-195 -1374h-51l-80 -125q111 20 179.5 -34t54.5 -150q-12 -88 -82 -149.5t-160 -61.5q-68 0 -131.5 38t-83.5 91l86 37q18 -33 60 -54.5t83 -21.5q51 0 89 35t47 86q10 72 -46.5 99.5t-146.5 -5.5l-68 49l107 166h-35l193 1374h-463z" glyph-name="glyph539" horiz-adv-x="1183"/><glyph d="M1223 1376h-461l-195 -1374h-178l193 1374h-463l22 162h1104zM387 -369q-72 27 -61 111q8 49 46 83t87 34q47 0 75.5 -34t20.5 -83q-8 -55 -65.5 -136t-98.5 -126h-76z" glyph-name="glyph540" horiz-adv-x="1183"/><glyph d="M1223 1376h-461l-195 -1374h-178l193 1374h-463l22 162h1104zM459 -141q47 0 77.5 -35t22.5 -82q-6 -47 -46 -82t-87 -35t-78 35t-22.5 82t47.5 82t86 35z" glyph-name="glyph541" horiz-adv-x="1183"/><glyph d="M581.5 -20q-243.5 0 -392 152.5t-117.5 371.5l145 1032h182l-141 -1004q-23 -164 78.5 -277.5t267.5 -113.5q168 0 302 114t157 277l139 1004h180l-145 -1032q-31 -219 -221.5 -371.5t-434 -152.5z" glyph-name="glyph542" horiz-adv-x="1404"/><glyph d="M1055 2048h180l-266 -315h-142zM584 -20q-244 0 -393.5 152.5t-118.5 371.5l145 1032h182l-141 -1004q-23 -164 79.5 -277.5t270.5 -113.5t309.5 115t163.5 276l140 1004h180l-146 -1032q-31 -219 -228 -371.5t-443 -152.5z" glyph-name="glyph543" horiz-adv-x="1423"/><glyph d="M571 2048h138l129 -260l198 260h138l-256 -350h-187zM581.5 -20q-243.5 0 -392 152.5t-117.5 371.5l145 1032h182l-141 -1004q-23 -164 78.5 -277.5t267.5 -113.5q168 0 302 114t157 277l139 1004h180l-145 -1032q-31 -219 -221.5 -371.5t-434 -152.5z" glyph-name="glyph544" horiz-adv-x="1404"/><glyph d="M844 2048h186l160 -350h-143l-121 266l-197 -266h-141zM584 -20q-244 0 -393.5 152.5t-118.5 371.5l145 1032h182l-141 -1004q-23 -164 79.5 -277.5t270.5 -113.5t309.5 115t163.5 276l140 1004h180l-146 -1032q-31 -219 -228 -371.5t-443 -152.5z" glyph-name="glyph545" horiz-adv-x="1423"/><glyph d="M700.5 1720q-47.5 0 -77 35t-23.5 84q8 47 47 82t88 35q47 0 77 -35t24 -82q-8 -49 -48 -84t-87.5 -35zM1081 1720q-47 0 -77.5 35t-22.5 84q8 47 47 82t86 35t77 -35t23 -82q-8 -49 -47 -84t-86 -35zM584 -20q-244 0 -393.5 152.5t-118.5 371.5l145 1032h182l-141 -1004 q-23 -164 79.5 -277.5t270.5 -113.5t309.5 115t163.5 276l140 1004h180l-146 -1032q-31 -219 -228 -371.5t-443 -152.5z" glyph-name="glyph546" horiz-adv-x="1423"/><glyph d="M581.5 -20q-243.5 0 -392 152.5t-117.5 371.5l145 1032h182l-141 -1004q-23 -164 78.5 -277.5t267.5 -113.5q168 0 302 114t157 277l139 1004h180l-145 -1032q-31 -219 -221.5 -371.5t-434 -152.5zM532.5 -375q-47.5 0 -77 35t-23.5 82q8 47 47 82t88 35q47 0 77 -35 t24 -82q-8 -47 -48 -82t-87.5 -35z" glyph-name="glyph547" horiz-adv-x="1404"/><glyph d="M635 2048h180l141 -315h-143zM584 -20q-244 0 -393.5 152.5t-118.5 371.5l145 1032h182l-141 -1004q-23 -164 79.5 -277.5t270.5 -113.5t309.5 115t163.5 276l140 1004h180l-146 -1032q-31 -219 -228 -371.5t-443 -152.5z" glyph-name="glyph548" horiz-adv-x="1423"/><glyph d="M999 2048h172l-391 -356h-131zM1348 2048h170l-390 -356h-133zM584 -20q-244 0 -393.5 152.5t-118.5 371.5l145 1032h182l-141 -1004q-23 -164 79.5 -277.5t270.5 -113.5t309.5 115t163.5 276l140 1004h180l-146 -1032q-31 -219 -228 -371.5t-443 -152.5z" glyph-name="glyph549" horiz-adv-x="1466"/><glyph d="M596 1862h635l-19 -119h-634zM584 -20q-244 0 -393.5 152.5t-118.5 371.5l145 1032h182l-141 -1004q-23 -164 79.5 -277.5t270.5 -113.5t309.5 115t163.5 276l140 1004h180l-146 -1032q-31 -219 -228 -371.5t-443 -152.5z" glyph-name="glyph550" horiz-adv-x="1423"/><glyph d="M1221 1536h180l-146 -1032q-27 -190 -184.5 -333.5t-370.5 -180.5l78 6q-94 -43 -167.5 -122t-86.5 -163q-8 -61 23 -98t96 -37q115 0 207 92l45 -82q-129 -113 -295 -106q-104 4 -158.5 60.5t-40.5 154.5q20 162 226 287q-14 -2 -43 -2q-244 0 -393.5 152.5 t-118.5 371.5l145 1032h182l-141 -1004q-23 -164 79.5 -277.5t270.5 -113.5t309.5 115t163.5 276z" glyph-name="glyph551" horiz-adv-x="1423"/><glyph d="M885 1657q-86 0 -139.5 60.5t-43.5 146.5q14 86 84 147.5t156 61.5q84 0 136 -61.5t40 -147.5q-12 -84 -80.5 -145.5t-152.5 -61.5zM895 1739q51 0 92 35.5t49 89t-23.5 91.5t-82.5 38t-93 -38t-50.5 -91.5t23.5 -89t85 -35.5zM584 -20q-244 0 -393.5 152.5t-118.5 371.5 l145 1032h182l-141 -1004q-23 -164 79.5 -277.5t270.5 -113.5t309.5 115t163.5 276l140 1004h180l-146 -1032q-31 -219 -228 -371.5t-443 -152.5z" glyph-name="glyph552" horiz-adv-x="1423"/><glyph d="M1034 1714q-117 0 -174 113q-29 59 -86 59q-47 0 -77.5 -43t-28.5 -110h-111q0 113 66.5 187.5t160.5 74.5q119 0 177 -111q27 -61 86 -61q47 0 77.5 43t28.5 108h109q2 -113 -64 -186.5t-164 -73.5zM584 -20q-244 0 -393.5 152.5t-118.5 371.5l145 1032h182l-141 -1004 q-23 -164 79.5 -277.5t270.5 -113.5t309.5 115t163.5 276l140 1004h180l-146 -1032q-31 -219 -228 -371.5t-443 -152.5z" glyph-name="glyph553" horiz-adv-x="1423"/><glyph d="M1554 1536l-831 -1536h-201l-403 1536h205l327 -1325l701 1325h202z" glyph-name="glyph554" horiz-adv-x="1429"/><glyph d="M2206 1536l-684 -1536h-211l-174 1204l-506 -1204h-211l-266 1536h194l205 -1327l543 1327h184l166 -1329l565 1329h195z" glyph-name="glyph555" horiz-adv-x="2129"/><glyph d="M1331 1733h-143l227 315h182zM2206 1536l-684 -1536h-211l-174 1204l-506 -1204h-211l-266 1536h194l205 -1327l543 1327h184l166 -1329l565 1329h195z" glyph-name="glyph556" horiz-adv-x="2129"/><glyph d="M1092 1698h-144l256 350h187l159 -350h-143l-121 266zM2206 1536l-684 -1536h-211l-174 1204l-506 -1204h-211l-266 1536h194l205 -1327l543 1327h184l166 -1329l565 1329h195z" glyph-name="glyph557" horiz-adv-x="2129"/><glyph d="M1063 1720q-49 0 -79 35t-23 84q8 47 47 82t88 35q47 0 77.5 -35t22.5 -82q-8 -49 -47 -84t-86 -35zM1442 1720q-47 0 -77 35t-24 84q8 47 47 82t89 35q47 0 76.5 -35t21.5 -82q-8 -49 -47 -84t-86 -35zM2206 1536l-684 -1536h-211l-174 1204l-506 -1204h-211l-266 1536 h194l205 -1327l543 1327h184l166 -1329l565 1329h195z" glyph-name="glyph558" horiz-adv-x="2129"/><glyph d="M1176 1733l-179 315h181l139 -315h-141zM2206 1536l-684 -1536h-211l-174 1204l-506 -1204h-211l-266 1536h194l205 -1327l543 1327h184l166 -1329l565 1329h195z" glyph-name="glyph559" horiz-adv-x="2129"/><glyph d="M979 0l-326 631l-501 -631h-209l632 780l-401 756h205l315 -606l488 606h207l-617 -756l418 -780h-211z" glyph-name="glyph560" horiz-adv-x="1316"/><glyph d="M764 729l-102 -729h-181l101 725l-422 811h202l332 -653l516 653h201z" glyph-name="glyph561" horiz-adv-x="1325"/><glyph d="M891 1733h-143l227 315h182zM764 729l-102 -729h-181l101 725l-422 811h202l332 -653l516 653h201z" glyph-name="glyph562" horiz-adv-x="1325"/><glyph d="M651 1698h-143l256 350h186l160 -350h-143l-121 266zM764 729l-102 -729h-181l101 725l-422 811h202l332 -653l516 653h201z" glyph-name="glyph563" horiz-adv-x="1325"/><glyph d="M622.5 1720q-47.5 0 -77 35t-23.5 84q8 47 47 82t88 35q47 0 77 -35t24 -82q-8 -49 -48 -84t-87.5 -35zM1003.5 1720q-47.5 0 -78 35t-22.5 84q8 47 47 82t86 35t77 -35t24 -82q-8 -49 -47 -84t-86.5 -35zM764 729l-102 -729h-181l101 725l-422 811h202l332 -653l516 653 h201z" glyph-name="glyph564" horiz-adv-x="1325"/><glyph d="M582 725l-422 811h202l332 -653l516 653h201l-647 -807l-102 -729h-181zM553 -141q47 0 76.5 -35t23.5 -82q-8 -47 -48 -82t-87 -35t-76.5 35t-23.5 82q8 47 47 82t88 35z" glyph-name="glyph565" horiz-adv-x="1325"/><glyph d="M737 1733l-180 315h182l140 -315h-142zM764 729l-102 -729h-181l101 725l-422 811h202l332 -653l516 653h201z" glyph-name="glyph566" horiz-adv-x="1325"/><glyph d="M479 1733q0 113 66.5 187.5t161.5 74.5q119 0 176 -111q27 -61 86 -61q47 0 77.5 43t28.5 108h109q2 -113 -63.5 -186.5t-164.5 -73.5q-117 0 -174 113q-29 59 -86 59q-47 0 -77.5 -43t-28.5 -110h-111zM764 729l-102 -729h-181l101 725l-422 811h202l332 -653l516 653 h201z" glyph-name="glyph567" horiz-adv-x="1325"/><glyph d="M1182 162l-23 -162h-1163l12 94l1069 1282h-864l20 160h1115l-15 -94l-1067 -1280h916z" glyph-name="glyph568" horiz-adv-x="1343"/><glyph d="M905 1733h-141l227 315h180zM1182 162l-23 -162h-1163l12 94l1069 1282h-864l20 160h1115l-15 -94l-1067 -1280h916z" glyph-name="glyph569" horiz-adv-x="1343"/><glyph d="M731 1698l-158 350h138l127 -260l200 260h138l-258 -350h-187zM1182 162l-23 -162h-1163l12 94l1069 1282h-864l20 160h1115l-15 -94l-1067 -1280h916z" glyph-name="glyph570" horiz-adv-x="1343"/><glyph d="M829 1720q-49 0 -78.5 35t-21.5 84q6 47 46 82t87 35t78 -35t23 -82q-6 -49 -46.5 -84t-87.5 -35zM1182 162l-23 -162h-1163l12 94l1069 1282h-864l20 160h1115l-15 -94l-1067 -1280h916z" glyph-name="glyph571" horiz-adv-x="1343"/><glyph d="M1182 162l-23 -162h-1163l12 94l1069 1282h-864l20 160h1115l-15 -94l-1067 -1280h916zM553 -141q47 0 78 -35t22.5 -82t-47.5 -82t-86 -35q-49 0 -78.5 35t-23.5 82q8 47 47 82t88 35z" glyph-name="glyph572" horiz-adv-x="1343"/><glyph d="M291 -20q-141 4 -222 85.5t-61 217.5q18 133 145.5 220t346.5 87h237l11 80q33 229 -203 229q-242 0 -289 -182h-150q33 143 149 233t316 90q182 0 276.5 -94t67.5 -280l-92 -666h-151l6 143q-145 -165 -387 -163zM336 117q100 0 205.5 50t154.5 140l23 166l-221 -2 q-154 0 -231 -52t-87 -132q-12 -76 33 -123t123 -47z" glyph-name="glyph573" horiz-adv-x="970"/><glyph d="M981 1536l-266 -315h-144l230 315h180zM924 301q-12 -86 3 -121t60 -33l-20 -147q-23 0 -64 4q-152 25 -160 156q-57 -74 -168.5 -122t-234.5 -48q-164 0 -256 91t-72 236q23 154 150 250.5t364 112.5l279 18l6 37q16 125 -46.5 188.5t-189.5 63.5q-115 0 -196.5 -62.5 t-108.5 -164.5h-170q37 160 166 270.5t336 110.5q205 0 306.5 -107.5t74.5 -302.5q-12 -82 -25.5 -182t-22.5 -170t-11 -78zM762 385l22 172l-260 -20q-309 -25 -334 -215q-12 -82 49.5 -131.5t149.5 -49.5q123 0 234.5 74t138.5 170z" glyph-name="glyph574" horiz-adv-x="1114"/><glyph d="M563.5 1159q-149.5 0 -232.5 86t-63 232h109q-12 -86 45 -147.5t156 -61.5q100 0 175.5 61.5t88.5 147.5h106q-20 -145 -127.5 -231.5t-257 -86.5zM340 -10q-164 0 -256 91t-72 236q23 154 150 250.5t364 112.5l279 18l6 37q16 125 -46.5 188.5t-189.5 63.5 q-115 0 -196.5 -62.5t-108.5 -164.5h-170q37 160 166 270.5t336 110.5q205 0 306.5 -107.5t74.5 -302.5q-12 -82 -25.5 -182t-22.5 -170t-11 -78q-12 -86 3 -121t60 -33l-20 -147q-23 0 -64 4q-152 25 -160 156q-57 -74 -168.5 -122t-234.5 -48zM389 141q123 0 234.5 74 t138.5 170l22 172l-260 -20q-309 -25 -334 -215q-12 -82 49.5 -131.5t149.5 -49.5z" glyph-name="glyph575" horiz-adv-x="1114"/><glyph d="M494 1186l-158 350h137l127 -260l201 260h137l-258 -350h-186zM340 -10q-164 0 -256 91t-72 236q23 154 150 250.5t364 112.5l279 18l6 37q16 125 -46.5 188.5t-189.5 63.5q-115 0 -196.5 -62.5t-108.5 -164.5h-170q37 160 166 270.5t336 110.5q205 0 306.5 -107.5 t74.5 -302.5q-12 -82 -25.5 -182t-22.5 -170t-11 -78q-12 -86 3 -121t60 -33l-20 -147q-23 0 -64 4q-152 25 -160 156q-57 -74 -168.5 -122t-234.5 -48zM389 141q123 0 234.5 74t138.5 170l22 172l-260 -20q-309 -25 -334 -215q-12 -82 49.5 -131.5t149.5 -49.5z" glyph-name="glyph576" horiz-adv-x="1114"/><glyph d="M616 1452l-194 -266h-143l256 350h186l160 -350h-144zM924 301q-12 -86 3 -121t60 -33l-20 -147q-23 0 -64 4q-152 25 -160 156q-57 -74 -168.5 -122t-234.5 -48q-164 0 -256 91t-72 236q23 154 150 250.5t364 112.5l279 18l6 37q16 125 -46.5 188.5t-189.5 63.5 q-115 0 -196.5 -62.5t-108.5 -164.5h-170q37 160 166 270.5t336 110.5q205 0 306.5 -107.5t74.5 -302.5q-12 -82 -25.5 -182t-22.5 -170t-11 -78zM762 385l22 172l-260 -20q-309 -25 -334 -215q-12 -82 49.5 -131.5t149.5 -49.5q123 0 234.5 74t138.5 170z" glyph-name="glyph577" horiz-adv-x="1114"/><glyph d="M381 1208q-47 0 -77 35t-23 84q8 47 47 82t88 35q47 0 76.5 -35t23.5 -82q-8 -49 -48 -84t-87 -35zM762 1208q-47 0 -78 35t-22 84q6 47 46 82t87 35t76.5 -35t23.5 -82q-8 -49 -47 -84t-86 -35zM340 -10q-164 0 -256 91t-72 236q23 154 150 250.5t364 112.5l279 18l6 37 q16 125 -46.5 188.5t-189.5 63.5q-115 0 -196.5 -62.5t-108.5 -164.5h-170q37 160 166 270.5t336 110.5q205 0 306.5 -107.5t74.5 -302.5q-12 -82 -25.5 -182t-22.5 -170t-11 -78q-12 -86 3 -121t60 -33l-20 -147q-23 0 -64 4q-152 25 -160 156q-57 -74 -168.5 -122 t-234.5 -48zM389 141q123 0 234.5 74t138.5 170l22 172l-260 -20q-309 -25 -334 -215q-12 -82 49.5 -131.5t149.5 -49.5z" glyph-name="glyph578" horiz-adv-x="1114"/><glyph d="M340 -10q-164 0 -256 91t-72 236q23 154 150 250.5t364 112.5l279 18l6 37q16 125 -46.5 188.5t-189.5 63.5q-115 0 -196.5 -62.5t-108.5 -164.5h-170q37 160 166 270.5t336 110.5q205 0 306.5 -107.5t74.5 -302.5q-12 -82 -25.5 -182t-22.5 -170t-11 -78q-12 -86 3 -121 t60 -33l-20 -147q-23 0 -64 4q-152 25 -160 156q-57 -74 -168.5 -122t-234.5 -48zM389 141q123 0 234.5 74t138.5 170l22 172l-260 -20q-309 -25 -334 -215q-12 -82 49.5 -131.5t149.5 -49.5zM416 -141q47 0 76.5 -35t23.5 -82q-8 -47 -48 -82t-87 -35t-77 35t-23 82 q8 47 47 82t88 35z" glyph-name="glyph579" horiz-adv-x="1114"/><glyph d="M702 1221h-141l-178 315h180zM924 301q-12 -86 3 -121t60 -33l-20 -147q-23 0 -64 4q-152 25 -160 156q-57 -74 -168.5 -122t-234.5 -48q-164 0 -256 91t-72 236q23 154 150 250.5t364 112.5l279 18l6 37q16 125 -46.5 188.5t-189.5 63.5q-115 0 -196.5 -62.5 t-108.5 -164.5h-170q37 160 166 270.5t336 110.5q205 0 306.5 -107.5t74.5 -302.5q-12 -82 -25.5 -182t-22.5 -170t-11 -78zM762 385l22 172l-260 -20q-309 -25 -334 -215q-12 -82 49.5 -131.5t149.5 -49.5q123 0 234.5 74t138.5 170z" glyph-name="glyph580" horiz-adv-x="1114"/><glyph d="M887 1231h-635l16 119h635zM340 -10q-164 0 -256 91t-72 236q23 154 150 250.5t364 112.5l279 18l6 37q16 125 -46.5 188.5t-189.5 63.5q-115 0 -196.5 -62.5t-108.5 -164.5h-170q37 160 166 270.5t336 110.5q205 0 306.5 -107.5t74.5 -302.5q-12 -82 -25.5 -182 t-22.5 -170t-11 -78q-12 -86 3 -121t60 -33l-20 -147q-23 0 -64 4q-152 25 -160 156q-57 -74 -168.5 -122t-234.5 -48zM389 141q123 0 234.5 74t138.5 170l22 172l-260 -20q-309 -25 -334 -215q-12 -82 49.5 -131.5t149.5 -49.5z" glyph-name="glyph581" horiz-adv-x="1114"/><glyph d="M340 -10q-164 0 -256 91t-72 236q23 154 150 250.5t364 112.5l279 18l6 37q16 125 -46.5 188.5t-189.5 63.5q-115 0 -196.5 -62.5t-108.5 -164.5h-170q37 160 166 270.5t336 110.5q205 0 306.5 -107.5t74.5 -302.5q-12 -82 -25.5 -182t-22.5 -170t-11 -78q-12 -86 3 -121 t60 -33l-20 -147q-23 0 -64 4q-152 25 -160 156q-57 -74 -168.5 -122t-234.5 -48zM389 141q123 0 234.5 74t138.5 170l22 172l-260 -20q-309 -25 -334 -215q-12 -82 49.5 -131.5t149.5 -49.5zM584 -532q-104 6 -158.5 62t-42.5 153q29 184 283 317h151q-113 -35 -204 -120 t-105 -181q-8 -61 22.5 -98t96.5 -37q117 0 207 94l45 -84q-129 -112 -295 -106z" glyph-name="glyph582" horiz-adv-x="1114"/><glyph d="M578 1145q-86 0 -138.5 60.5t-42.5 146.5q12 86 82 147.5t158 61.5q84 0 135 -61.5t41 -147.5q-12 -84 -81.5 -145.5t-153.5 -61.5zM624.5 1481q-51.5 0 -93.5 -38t-50 -91.5t24 -89t85 -35.5q51 0 92 35.5t49 89t-23.5 91.5t-83 38zM340 -10q-164 0 -256 91t-72 236 q23 154 150 250.5t364 112.5l279 18l6 37q16 125 -46.5 188.5t-189.5 63.5q-115 0 -196.5 -62.5t-108.5 -164.5h-170q37 160 166 270.5t336 110.5q205 0 306.5 -107.5t74.5 -302.5q-12 -82 -25.5 -182t-22.5 -170t-11 -78q-12 -86 3 -121t60 -33l-20 -147q-23 0 -64 4 q-152 25 -160 156q-57 -74 -168.5 -122t-234.5 -48zM389 141q123 0 234.5 74t138.5 170l22 172l-260 -20q-309 -25 -334 -215q-12 -82 49.5 -131.5t149.5 -49.5z" glyph-name="glyph583" horiz-adv-x="1114"/><glyph d="M242 1221q0 113 66.5 187.5t160.5 74.5q119 0 176 -111q27 -61 86 -61q47 0 77 43t30 108h108q2 -113 -63.5 -186.5t-163.5 -73.5q-117 0 -174 113q-29 59 -86 59q-47 0 -78 -43t-29 -110h-110zM340 -10q-164 0 -256 91t-72 236q23 154 150 250.5t364 112.5l279 18l6 37 q16 125 -46.5 188.5t-189.5 63.5q-115 0 -196.5 -62.5t-108.5 -164.5h-170q37 160 166 270.5t336 110.5q205 0 306.5 -107.5t74.5 -302.5q-12 -82 -25.5 -182t-22.5 -170t-11 -78q-12 -86 3 -121t60 -33l-20 -147q-23 0 -64 4q-152 25 -160 156q-57 -74 -168.5 -122 t-234.5 -48zM389 141q123 0 234.5 74t138.5 170l22 172l-260 -20q-309 -25 -334 -215q-12 -82 49.5 -131.5t149.5 -49.5z" glyph-name="glyph584" horiz-adv-x="1114"/><glyph d="M1874 565q-2 -6 -5 -29.5t-7 -37.5h-863q-14 -178 76 -274.5t244 -96.5q104 0 207.5 55.5t144.5 147.5h156q-49 -156 -198.5 -253t-352.5 -97q-252 0 -371 182l-24 -162h-140l2 164q-53 -74 -166.5 -124t-236.5 -50q-164 0 -256 91t-72 236q20 143 146.5 238.5 t367.5 124.5l281 33l4 22q18 129 -45.5 193.5t-190.5 64.5q-117 0 -197.5 -63.5t-107.5 -167.5h-164q37 162 162 270.5t334 108.5q152 0 247 -58.5t124 -169.5q182 229 467 228q236 -2 352.5 -161t81.5 -415zM1024 641h682q6 156 -68.5 248t-218.5 92q-147 0 -250.5 -93 t-144.5 -247zM762 385l24 195l-260 -35q-313 -39 -338 -230q-12 -86 47.5 -132t151.5 -46q125 0 236.5 74t138.5 174z" glyph-name="glyph585" horiz-adv-x="1892"/><glyph d="M727 1044q209 0 319.5 -152.5t79.5 -379.5q-33 -225 -186.5 -378.5t-361.5 -153.5q-223 0 -330 186l-29 -166h-158l215 1536h175l-95 -668q150 176 371 176zM571 135q147 0 254 108.5t129 268.5q23 162 -53 269.5t-223 107.5q-119 0 -216 -77t-143 -202l-26 -196 q10 -123 84.5 -201t193.5 -78z" glyph-name="glyph586" horiz-adv-x="1226"/><glyph d="M745 1137q229 0 350.5 -166t86.5 -412t-201 -409.5t-395 -163.5q-248 0 -361 196l-45 -182h-157l215 1536h188l-82 -588q161 189 401 189zM578 150q162 0 277.5 117.5t139.5 291.5q25 176 -57 294t-244 118q-129 0 -235.5 -85t-155.5 -218l-29 -215q10 -133 92.5 -218 t211.5 -85zM524 -141q47 0 77 -35t24 -82q-8 -47 -48 -82t-87.5 -35t-77 35t-23.5 82q8 47 47 82t88 35z" glyph-name="glyph587" horiz-adv-x="1226"/><glyph d="M442 -20q-219 0 -329.5 150.5t-77.5 381.5t185.5 381.5t371.5 150.5q197 0 305.5 -105t106.5 -255h-160q-2 90 -74 150.5t-182 60.5q-154 0 -257.5 -103.5t-125.5 -279.5q-25 -178 48 -280.5t226 -102.5q111 0 196 61.5t122 153.5h153q-49 -152 -181 -258t-327 -106z" glyph-name="glyph588" horiz-adv-x="1075"/><glyph d="M795 1536h182l-266 -315h-144zM487 -12q-233 0 -356 164.5t-88 414.5t203 410t403 160q215 0 333 -113t114 -274h-172q-4 98 -84 163.5t-201 65.5q-164 0 -275.5 -111.5t-136.5 -300.5q-29 -190 53 -303.5t246 -113.5q117 0 210 66.5t136 168.5h168 q-55 -168 -198.5 -282.5t-354.5 -114.5z" glyph-name="glyph589" horiz-adv-x="1159"/><glyph d="M387 1536h137l127 -260l201 260h137l-258 -350h-186zM487 -12q-233 0 -356 164.5t-88 414.5t203 410t403 160q215 0 333 -113t114 -274h-172q-4 98 -84 163.5t-201 65.5q-164 0 -275.5 -111.5t-136.5 -300.5q-29 -190 53 -303.5t246 -113.5q117 0 210 66.5t136 168.5h168 q-55 -168 -198.5 -282.5t-354.5 -114.5z" glyph-name="glyph590" horiz-adv-x="1159"/><glyph d="M639 979q-164 0 -275.5 -111.5t-136.5 -300.5q-29 -190 53 -303.5t246 -113.5q117 0 210 66.5t136 168.5h168q-55 -168 -198.5 -282.5t-354.5 -114.5h-18l-59 -97q111 20 178 -33t53 -151q-12 -88 -82 -148.5t-158 -60.5q-70 0 -132 38t-85 91l86 35q18 -33 60.5 -54.5 t83.5 -21.5q51 0 90 35t45 86q10 72 -46.5 99.5t-146.5 -5.5l-67 49l94 148q-186 37 -278.5 193.5t-61.5 375.5q35 250 203 410t403 160q215 0 333 -113t114 -274h-172q-4 98 -84 163.5t-201 65.5z" glyph-name="glyph591" horiz-adv-x="1159"/><glyph d="M647 1208q-47 0 -76.5 35t-23.5 84q8 47 47 82t88 35q47 0 76.5 -35t23.5 -82q-8 -49 -48 -84t-87 -35zM487 -12q-233 0 -356 164.5t-88 414.5t203 410t403 160q215 0 333 -113t114 -274h-172q-4 98 -84 163.5t-201 65.5q-164 0 -275.5 -111.5t-136.5 -300.5 q-29 -190 53 -303.5t246 -113.5q117 0 210 66.5t136 168.5h168q-55 -168 -198.5 -282.5t-354.5 -114.5z" glyph-name="glyph592" horiz-adv-x="1159"/><glyph d="M1196 1536l-215 -1536h-156l13 164q-158 -184 -379 -184q-211 0 -321.5 153.5t-78.5 378.5q31 227 184.5 379.5t364.5 152.5q217 0 324 -176l92 668h172zM508 135q119 0 217 78t141 201l29 198q-10 123 -87 200t-194 77q-147 0 -253.5 -107.5t-129.5 -269.5 q-23 -160 53.5 -268.5t223.5 -108.5z" glyph-name="glyph593" horiz-adv-x="1226"/><glyph d="M909 1399q156 -139 224.5 -372.5t29.5 -514.5q-33 -221 -216 -376.5t-412.5 -155.5t-368.5 155.5t-107 376.5q31 223 213.5 377.5t411.5 154.5q178 0 297 -100q-45 215 -178 338l-129 -137l-53 49l122 131q-133 90 -303 94l52 142q207 0 362 -115l109 117l55 -47z M557 135q156 0 282 110.5t148 266.5q20 158 -74 267.5t-249 109.5q-158 0 -284 -109.5t-147 -267.5q-23 -158 72.5 -267.5t251.5 -109.5z" glyph-name="glyph594" horiz-adv-x="1261"/><glyph d="M1470 1309q-76 31 -63 112q6 47 45 82t88 35q47 0 74.5 -34t21.5 -83q-8 -55 -68.5 -141t-94.5 -121h-76zM1260 1536l-216 -1536h-161l6 178q-164 -188 -412 -188q-229 0 -350 160.5t-86 406.5t203 413t397 167q238 0 350 -191l82 590h187zM530 147q129 0 235.5 84 t156.5 218l30 217q-12 133 -95 217t-212 84q-160 0 -276.5 -117t-141.5 -293q-25 -174 58 -292t245 -118z" glyph-name="glyph595" horiz-adv-x="1556"/><glyph d="M1290 1210h-139l-170 -1210h-156l13 164q-158 -184 -379 -184q-211 0 -321.5 153.5t-78.5 378.5q31 227 184.5 379.5t364.5 152.5q217 0 324 -176l47 342h-295l16 119h295l29 207h172l-29 -207h142zM508 135q119 0 217 78t141 201l29 198q-10 123 -87 200t-194 77 q-147 0 -253.5 -107.5t-129.5 -269.5q-23 -160 53.5 -268.5t223.5 -108.5z" glyph-name="glyph596" horiz-adv-x="1226"/><glyph d="M997 518q-4 -41 -10 -61h-788q-14 -164 66.5 -252t221.5 -88q96 0 192.5 50t133.5 136h143q-45 -143 -182 -233t-323 -90q-221 0 -336 151.5t-82 380.5q31 231 186.5 381.5t380.5 150.5q215 0 323.5 -145t73.5 -381zM580 899q-135 0 -229.5 -85t-131.5 -226h627 q4 143 -64.5 227t-201.5 84z" glyph-name="glyph597" horiz-adv-x="1077"/><glyph d="M997 1546l-266 -315h-141l227 315h180zM647 1135q231 0 346 -156t80 -410q-4 -31 -12 -67h-844q-18 -166 70 -262.5t215 -98.5q123 -2 212 51.5t130 143.5h162q-16 -57 -54.5 -113.5t-99.5 -112t-155.5 -88t-207.5 -32.5q-236 2 -356.5 164.5t-87.5 406.5 q37 250 198.5 412t403.5 162zM909 643q4 156 -67.5 246t-214.5 90q-145 0 -245.5 -91t-139.5 -245h667z" glyph-name="glyph598" horiz-adv-x="1155"/><glyph d="M557 1196l-158 350h138l127 -260l200 260h137l-258 -350h-186zM1073 569q-4 -31 -12 -67h-844q-18 -166 70 -262.5t215 -98.5q123 -2 212 51.5t130 143.5h162q-16 -57 -54.5 -113.5t-99.5 -112t-155.5 -88t-207.5 -32.5q-236 2 -356.5 164.5t-87.5 406.5q37 250 199 412 t403 162q231 0 346 -156t80 -410zM627 979q-145 0 -245.5 -91t-139.5 -245h667q4 156 -67.5 246t-214.5 90z" glyph-name="glyph599" horiz-adv-x="1155"/><glyph d="M647 1135q231 0 346 -156t80 -410q-4 -31 -12 -67h-844q-18 -166 70 -262.5t215 -98.5q123 -2 212 51.5t130 143.5h162q-37 -123 -159 -229.5t-319 -116.5l-4 -4q-2 -4 -4 -6l-76 -119q111 20 178.5 -34t53.5 -151q-12 -88 -82 -148t-158 -60q-68 0 -131 36.5t-86 89.5 l88 37q18 -33 59.5 -54t82.5 -21q51 0 90 34.5t45 85.5q10 72 -46.5 99.5t-146.5 -4.5l-65 49l102 162q-10 6 -12 14q-201 27 -301.5 184.5t-69.5 380.5q37 250 198.5 412t403.5 162zM909 643q4 156 -67.5 246t-214.5 90q-145 0 -245.5 -91t-139.5 -245h667z" glyph-name="glyph600" horiz-adv-x="1155"/><glyph d="M492 1196h-142l256 350h187l159 -350h-143l-121 266zM1073 569q-4 -31 -12 -67h-844q-18 -166 70 -262.5t215 -98.5q123 -2 212 51.5t130 143.5h162q-16 -57 -54.5 -113.5t-99.5 -112t-155.5 -88t-207.5 -32.5q-236 2 -356.5 164.5t-87.5 406.5q37 250 199 412t403 162 q231 0 346 -156t80 -410zM627 979q-145 0 -245.5 -91t-139.5 -245h667q4 156 -67.5 246t-214.5 90z" glyph-name="glyph601" horiz-adv-x="1155"/><glyph d="M463 1219q-47 0 -78 34.5t-23 81.5q8 49 47.5 84t86.5 35t77.5 -35t22.5 -84q-6 -47 -46 -81.5t-87 -34.5zM844 1219q-47 0 -78 34.5t-23 81.5q6 49 46 84t87.5 35t77 -35t21.5 -84q-6 -47 -45 -81.5t-86 -34.5zM1073 569q-4 -31 -12 -67h-844q-18 -166 70 -262.5 t215 -98.5q123 -2 212 51.5t130 143.5h162q-16 -57 -54.5 -113.5t-99.5 -112t-155.5 -88t-207.5 -32.5q-236 2 -356.5 164.5t-87.5 406.5q37 250 199 412t403 162q231 0 346 -156t80 -410zM627 979q-145 0 -245.5 -91t-139.5 -245h667q4 156 -67.5 246t-214.5 90z" glyph-name="glyph602" horiz-adv-x="1155"/><glyph d="M655 1219q-49 0 -78.5 34.5t-23.5 81.5q8 49 47 84t88 35q47 0 78 -35t22 -84q-8 -47 -47 -81.5t-86 -34.5zM1073 569q-4 -31 -12 -67h-844q-18 -166 70 -262.5t215 -98.5q123 -2 212 51.5t130 143.5h162q-16 -57 -54.5 -113.5t-99.5 -112t-155.5 -88t-207.5 -32.5 q-236 2 -356.5 164.5t-87.5 406.5q37 250 199 412t403 162q231 0 346 -156t80 -410zM627 979q-145 0 -245.5 -91t-139.5 -245h667q4 156 -67.5 246t-214.5 90z" glyph-name="glyph603" horiz-adv-x="1155"/><glyph d="M1073 569q-4 -31 -12 -67h-844q-18 -166 70 -262.5t215 -98.5q123 -2 212 51.5t130 143.5h162q-16 -57 -54.5 -113.5t-99.5 -112t-155.5 -88t-207.5 -32.5q-236 2 -356.5 164.5t-87.5 406.5q37 250 199 412t403 162q231 0 346 -156t80 -410zM627 979q-145 0 -245.5 -91 t-139.5 -245h667q4 156 -67.5 246t-214.5 90zM467 -141q47 0 77.5 -35t22.5 -82t-47 -82t-86 -35q-49 0 -78.5 35t-23.5 82q8 47 47 82t88 35z" glyph-name="glyph604" horiz-adv-x="1155"/><glyph d="M575 1231l-178 315h181l141 -315h-144zM1073 569q-4 -31 -12 -67h-844q-18 -166 70 -262.5t215 -98.5q123 -2 212 51.5t130 143.5h162q-16 -57 -54.5 -113.5t-99.5 -112t-155.5 -88t-207.5 -32.5q-236 2 -356.5 164.5t-87.5 406.5q37 250 199 412t403 162q231 0 346 -156 t80 -410zM627 979q-145 0 -245.5 -91t-139.5 -245h667q4 156 -67.5 246t-214.5 90z" glyph-name="glyph605" horiz-adv-x="1155"/><glyph d="M975 1241h-635l16 119h635zM1073 569q-4 -31 -12 -67h-844q-18 -166 70 -262.5t215 -98.5q123 -2 212 51.5t130 143.5h162q-16 -57 -54.5 -113.5t-99.5 -112t-155.5 -88t-207.5 -32.5q-236 2 -356.5 164.5t-87.5 406.5q37 250 199 412t403 162q231 0 346 -156t80 -410z M627 979q-145 0 -245.5 -91t-139.5 -245h667q4 156 -67.5 246t-214.5 90z" glyph-name="glyph606" horiz-adv-x="1155"/><glyph d="M647 1135q231 0 346 -156t80 -410q-4 -31 -12 -67h-844q-18 -166 70 -262.5t215 -98.5q123 -2 212 51.5t130 143.5h162q-31 -104 -125.5 -200.5t-243.5 -129.5q-2 0 -6 -3t-8 -5q-70 -76 -82 -158q-10 -61 20.5 -98t95.5 -37q117 0 205 92l47 -82q-129 -113 -295 -106 q-104 4 -158.5 60.5t-39.5 154.5q12 82 73 160q0 4 3 6h-3q-236 2 -356.5 164.5t-87.5 406.5q37 250 198.5 412t403.5 162zM909 643q4 156 -67.5 246t-214.5 90q-145 0 -245.5 -91t-139.5 -245h667z" glyph-name="glyph607" horiz-adv-x="1155"/><glyph d="M319 1229q0 113 67 187.5t161 74.5q117 0 174 -111q27 -61 88 -61q47 0 76.5 42t29.5 109h109q0 -113 -64.5 -186.5t-162.5 -73.5q-119 0 -176 111q-29 61 -84 61q-49 0 -79 -43t-28 -110h-111zM1073 569q-4 -31 -12 -67h-844q-18 -166 70 -262.5t215 -98.5 q123 -2 212 51.5t130 143.5h162q-16 -57 -54.5 -113.5t-99.5 -112t-155.5 -88t-207.5 -32.5q-236 2 -356.5 164.5t-87.5 406.5q37 250 199 412t403 162q231 0 346 -156t80 -410zM627 979q-145 0 -245.5 -91t-139.5 -245h667q4 156 -67.5 246t-214.5 90z" glyph-name="glyph608" horiz-adv-x="1155"/><glyph d="M160 0l125 889h-172l18 135h172l31 209q18 139 121.5 231t230.5 92q106 0 168 -45l-16 -122q-72 37 -160 26q-150 -18 -172 -188l-29 -203h273l-19 -135h-272l-125 -889h-174z" glyph-name="glyph609" horiz-adv-x="749"/><glyph d="M1126 1024l-141 -997q-35 -256 -186.5 -397.5t-390.5 -141.5q-117 0 -205 34t-132 88t-63.5 109.5t-15.5 106.5h149q0 -74 82 -138.5t213 -62.5q150 2 252.5 107.5t126.5 310.5l16 119q-156 -182 -372 -182q-211 0 -321.5 153.5t-78.5 378.5q31 227 184.5 379.5 t364.5 152.5q109 0 194 -50t134 -138l33 168h157zM508 135q115 0 215 79t143 202l29 194q-10 121 -88 200t-193 79q-147 0 -253.5 -107.5t-129.5 -269.5q-23 -160 53.5 -268.5t223.5 -108.5z" glyph-name="glyph610" horiz-adv-x="1228"/><glyph d="M671.5 1159q-149.5 0 -232.5 86t-62 232h108q-12 -86 45.5 -147.5t155.5 -61.5q100 0 176 61.5t88 147.5h107q-20 -145 -128 -231.5t-257.5 -86.5zM385 -498q-217 -2 -344 89.5t-113 238.5q6 78 55.5 150.5t131.5 111.5q-113 78 -103 174q10 63 52 107.5t118 89.5 q-94 102 -73 282q25 164 162 277t323 113q150 0 248 -70q31 63 106.5 101t147.5 34l-21 -145q-43 4 -85 -16.5t-60 -61.5q68 -111 49 -238q-23 -176 -160 -285.5t-334 -111.5q-145 -4 -219 49q-39 -14 -61.5 -45t-18.5 -63q16 -90 170 -93l224 -2q356 -6 362 -262 q-2 -180 -151.5 -301t-405.5 -123zM801 741q14 100 -50.5 168t-179.5 68q-113 0 -194.5 -67.5t-97.5 -170.5q-14 -100 50 -168.5t175 -68.5q115 0 199 68.5t98 170.5zM764 -90q-2 131 -272 131h-224q-66 -16 -108.5 -67.5t-50.5 -114.5q-12 -92 70.5 -146.5t211.5 -54.5 q176 0 276.5 70.5t96.5 181.5z" glyph-name="glyph611" horiz-adv-x="1097"/><glyph d="M571 1186l-157 350h137l127 -260l201 260h137l-258 -350h-187zM385 -498q-217 -2 -344 89.5t-113 238.5q6 78 55.5 150.5t131.5 111.5q-113 78 -103 174q10 63 52 107.5t118 89.5q-94 102 -73 282q25 164 162 277t323 113q150 0 248 -70q31 63 106.5 101t147.5 34 l-21 -145q-43 4 -85 -16.5t-60 -61.5q68 -111 49 -238q-23 -176 -160 -285.5t-334 -111.5q-145 -4 -219 49q-39 -14 -61.5 -45t-18.5 -63q16 -90 170 -93l224 -2q356 -6 362 -262q-2 -180 -151.5 -301t-405.5 -123zM801 741q14 100 -50.5 168t-179.5 68q-113 0 -194.5 -67.5 t-97.5 -170.5q-14 -100 50 -168.5t175 -68.5q115 0 199 68.5t98 170.5zM764 -90q-2 131 -272 131h-224q-66 -16 -108.5 -67.5t-50.5 -114.5q-12 -92 70.5 -146.5t211.5 -54.5q176 0 276.5 70.5t96.5 181.5z" glyph-name="glyph612" horiz-adv-x="1097"/><glyph d="M739 1403q74 -29 64 -111q-8 -49 -46 -82.5t-87 -33.5t-77 33.5t-20 82.5q12 96 164 262h74zM385 -498q-217 -2 -344 89.5t-113 238.5q6 78 55.5 150.5t131.5 111.5q-113 78 -103 174q10 63 52 107.5t118 89.5q-94 102 -73 282q25 164 162 277t323 113q150 0 248 -70 q31 63 106.5 101t147.5 34l-21 -145q-43 4 -85 -16.5t-60 -61.5q68 -111 49 -238q-23 -176 -160 -285.5t-334 -111.5q-145 -4 -219 49q-39 -14 -61.5 -45t-18.5 -63q16 -90 170 -93l224 -2q356 -6 362 -262q-2 -180 -151.5 -301t-405.5 -123zM801 741q14 100 -50.5 168 t-179.5 68q-113 0 -194.5 -67.5t-97.5 -170.5q-14 -100 50 -168.5t175 -68.5q115 0 199 68.5t98 170.5zM764 -90q-2 131 -272 131h-224q-66 -16 -108.5 -67.5t-50.5 -114.5q-12 -92 70.5 -146.5t211.5 -54.5q176 0 276.5 70.5t96.5 181.5z" glyph-name="glyph613" horiz-adv-x="1097"/><glyph d="M670 1208q-49 0 -79 35t-22 84q6 47 46 82t87.5 35t78 -35t22.5 -82q-6 -49 -46 -84t-87 -35zM385 -498q-217 -2 -344 89.5t-113 238.5q6 78 55.5 150.5t131.5 111.5q-113 78 -103 174q10 63 52 107.5t118 89.5q-94 102 -73 282q25 164 162 277t323 113q150 0 248 -70 q31 63 106.5 101t147.5 34l-21 -145q-43 4 -85 -16.5t-60 -61.5q68 -111 49 -238q-23 -176 -160 -285.5t-334 -111.5q-145 -4 -219 49q-39 -14 -61.5 -45t-18.5 -63q16 -90 170 -93l224 -2q356 -6 362 -262q-2 -180 -151.5 -301t-405.5 -123zM801 741q14 100 -50.5 168 t-179.5 68q-113 0 -194.5 -67.5t-97.5 -170.5q-14 -100 50 -168.5t175 -68.5q115 0 199 68.5t98 170.5zM764 -90q-2 131 -272 131h-224q-66 -16 -108.5 -67.5t-50.5 -114.5q-12 -92 70.5 -146.5t211.5 -54.5q176 0 276.5 70.5t96.5 181.5z" glyph-name="glyph614" horiz-adv-x="1097"/><glyph d="M729 1044q172 0 261 -102t65 -274l-92 -668h-177l91 649q16 111 -42.5 175.5t-172.5 64.5q-121 0 -220.5 -69.5t-113.5 -178.5l-90 -641h-177l215 1536h177l-91 -649q66 72 165.5 114.5t201.5 42.5z" glyph-name="glyph615" horiz-adv-x="1204"/><glyph d="M766 1139q186 0 283.5 -112t70.5 -298l-102 -729h-193l101 707q16 121 -47.5 191.5t-188.5 70.5q-131 0 -239.5 -77t-124.5 -194l-99 -698h-190l170 1219h-86l16 116h86l29 199h190l-28 -199h329l-16 -116h-330l-35 -252q72 78 181.5 125t222.5 47z" glyph-name="glyph616" horiz-adv-x="1204"/><glyph d="M766 1139q186 0 283.5 -112t70.5 -298l-102 -729h-193l101 707q16 121 -47.5 191.5t-188.5 70.5q-131 0 -239.5 -77t-124.5 -194l-99 -698h-190l215 1534h190l-80 -567q72 78 181.5 125t222.5 47zM479 -141q47 0 78 -35t23 -82q-6 -47 -46 -82t-87.5 -35t-78 35t-22.5 82 t47 82t86 35z" glyph-name="glyph617" horiz-adv-x="1204"/><glyph d="M334 1214q-47 0 -78 35t-23 82q8 49 47 83t87 34q49 0 78.5 -34t23.5 -83q-8 -47 -47 -82t-88 -35zM219 1024h176l-143 -1024h-176z" glyph-name="glyph618" horiz-adv-x="501"/><glyph d="M205 1024h176l-143 -1024h-177z" glyph-name="glyph619" horiz-adv-x="483"/><glyph d="M483 1536h181l-267 -315h-141zM205 1024h176l-143 -1024h-177z" glyph-name="glyph620" horiz-adv-x="483"/><glyph d="M61 1536h140l127 -260l200 260h138l-258 -350h-187zM205 1024h176l-143 -1024h-177z" glyph-name="glyph621" horiz-adv-x="483"/><glyph d="M270 1536h187l159 -350h-143l-121 266l-196 -266h-144zM205 1024h176l-143 -1024h-177z" glyph-name="glyph622" horiz-adv-x="483"/><glyph d="M129 1208q-49 0 -80 35t-22 84q6 47 47 82t88 35t77.5 -35t22.5 -82q-6 -49 -46 -84t-87 -35zM510 1208q-47 0 -78 35t-22 84q6 47 46 82t87 35t76.5 -35t21.5 -82q-6 -49 -45 -84t-86 -35zM205 1024h176l-143 -1024h-177z" glyph-name="glyph623" horiz-adv-x="483"/><glyph d="M334 1214q-47 0 -78 35t-23 82q8 49 47 83t87 34q49 0 78.5 -34t23.5 -83q-8 -47 -47 -82t-88 -35zM219 1024h176l-143 -1024h-176z" glyph-name="glyph624" horiz-adv-x="589"/><glyph d="M352 1214q-47 0 -77.5 35t-22.5 82q8 49 47 83t86 34q49 0 79 -34t23 -83q-8 -47 -47 -82t-88 -35zM238 1024h176l-144 -1024h-176zM137 -401q-49 0 -78.5 33.5t-23.5 82.5q8 47 47 82t86 35t77.5 -35t24.5 -82q-6 -49 -45 -82.5t-88 -33.5z" glyph-name="glyph625" horiz-adv-x="550"/><glyph d="M61 1536h183l139 -315h-141zM205 1024h176l-143 -1024h-177z" glyph-name="glyph626" horiz-adv-x="483"/><glyph d="M387 1305q-49 0 -81 36.5t-25 88.5q8 51 50 87.5t91 36.5q51 0 80.5 -35.5t23.5 -88.5q-8 -51 -48 -88t-91 -37zM983 1305q-47 0 -76.5 34.5t-23.5 81.5t46 82t87 35q45 0 75.5 -35t22.5 -82q-6 -47 -45 -81.5t-86 -34.5zM432 -508l23 162h47q90 0 129 42t51 124 l182 1306h178l-184 -1327q-43 -307 -381 -307h-45zM266 1102h183l-154 -1102h-182z" glyph-name="glyph627" horiz-adv-x="1204"/><glyph d="M18 1350h637l-16 -119h-637zM205 1024h176l-143 -1024h-177z" glyph-name="glyph628" horiz-adv-x="483"/><glyph d="M319 1208q-49 0 -78.5 35t-23.5 84q8 47 47 82t88 35q47 0 77 -35t24 -82q-8 -49 -47.5 -84t-86.5 -35zM283 -426q-131 -113 -297 -106q-104 4 -159.5 61t-41.5 154q29 180 283 317h-7l144 1024h176l-143 -1024h-15q-111 -29 -204 -117t-107 -184q-8 -59 22.5 -97 t94.5 -38q119 0 207 94z" glyph-name="glyph629" horiz-adv-x="483"/><glyph d="M461 1202q-119 0 -172 113q-31 59 -86 59q-49 0 -80 -43t-29 -110h-112q2 115 68.5 188.5t162.5 73.5q117 0 174 -111q29 -61 86 -61q47 0 78 43t29 108h110q0 -113 -65.5 -186.5t-163.5 -73.5zM205 1024h176l-143 -1024h-177z" glyph-name="glyph630" horiz-adv-x="483"/><glyph d="M334 1214q-49 0 -79 35t-24 82q8 49 48 83t88 34q49 0 78.5 -34t21.5 -83q-6 -47 -46 -82t-87 -35zM-193 -528l21 151q96 -4 151.5 42t73.5 183l166 1176h176l-166 -1182q-31 -217 -148.5 -301.5t-273.5 -68.5z" glyph-name="glyph631" horiz-adv-x="495"/><glyph d="M-82 -532q-86 0 -129 32l23 154q43 -39 108.5 -39t116.5 46t59 116l176 1247h177l-179 -1257q-16 -125 -119.5 -212t-232.5 -87z" glyph-name="glyph632" horiz-adv-x="583"/><glyph d="M61 2l215 1536h177l-134 -948l433 434h204l-489 -475l424 -549h-203l-381 500l-69 -498h-177z" glyph-name="glyph633" horiz-adv-x="999"/><glyph d="M29 0l215 1536h190l-125 -893l477 483h222l-543 -530l453 -596h-222l-403 530l-74 -530h-190zM358 -354q-74 31 -63 112q8 49 47 83t88 34q47 0 74.5 -35t19.5 -82q-6 -55 -66.5 -140t-97.5 -122h-73z" glyph-name="glyph634" horiz-adv-x="1026"/><glyph d="M96 0l217 1536h174l-215 -1536h-176z" glyph-name="glyph635" horiz-adv-x="555"/><glyph d="M547 2048h182l-266 -315h-144zM88 0l215 1536h178l-215 -1536h-178z" glyph-name="glyph636" horiz-adv-x="655"/><glyph d="M717 1317q-33 12 -51.5 43t-10.5 67q4 47 43 82t88 35q47 0 75 -33.5t24 -83.5q-8 -55 -66.5 -136t-99.5 -126h-76zM88 0l215 1536h178l-215 -1536h-178z" glyph-name="glyph637" horiz-adv-x="847"/><glyph d="M88 0l215 1536h178l-215 -1536h-178zM98 -362q-72 27 -61 110q8 49 46 83t87 34q47 0 75.5 -34t20.5 -83q-8 -55 -65.5 -136t-98.5 -126h-75z" glyph-name="glyph638" horiz-adv-x="655"/><glyph d="M88 0l215 1536h178l-215 -1536h-178zM596 643q-39 0 -62.5 27.5t-17.5 66.5q4 39 37 66.5t70 27.5q39 0 62.5 -27.5t16.5 -66.5q-4 -39 -36.5 -66.5t-69.5 -27.5z" glyph-name="glyph639" horiz-adv-x="774"/><glyph d="M88 0l215 1536h178l-215 -1536h-178zM133 -375q-47 0 -76.5 35t-23.5 82q8 47 47 82t88 35q47 0 76.5 -35t23.5 -82q-8 -47 -48 -82t-87 -35z" glyph-name="glyph640" horiz-adv-x="655"/><glyph d="M647 1024l-264 -242l-8 -8l-109 -774h-178l82 588l-121 -111h-127l266 246l115 813h178l-88 -625l10 9l113 104h131z" glyph-name="glyph641" horiz-adv-x="655"/><glyph d="M1391 1042q166 0 248.5 -97t60.5 -265l-94 -680h-176l92 662q14 104 -38 165.5t-159 61.5q-113 0 -206 -66.5t-107 -173.5l-90 -649h-177l93 662q14 104 -38 165.5t-159 61.5q-113 0 -206 -67.5t-107 -172.5l-90 -649h-177l144 1024h162l-15 -141q63 72 160.5 115.5 t194.5 43.5q207 0 284 -202q70 88 179.5 145t220.5 57z" glyph-name="glyph642" horiz-adv-x="1845"/><glyph d="M692 1044q172 0 260 -102t64 -274l-92 -668h-176l92 649q14 111 -44.5 175.5t-172.5 64.5q-121 0 -220.5 -69.5t-113.5 -178.5l-90 -641h-176l143 1024h162l-13 -145q68 76 170.5 120.5t206.5 44.5z" glyph-name="glyph643" horiz-adv-x="1122"/><glyph d="M760 1221h-144l230 315h180zM752 1139q184 0 278 -112t68 -300l-101 -727h-188l98 709q16 119 -46 190.5t-183 71.5q-131 0 -237.5 -76t-123.5 -195l-98 -700h-188l157 1126h164l-4 -168q70 82 180.5 131.5t223.5 49.5z" glyph-name="glyph644" horiz-adv-x="1204"/><glyph d="M586 1186l-158 350h137l127 -260l201 260h137l-258 -350h-186zM752 1139q184 0 278 -112t68 -300l-101 -727h-188l98 709q16 119 -46 190.5t-183 71.5q-131 0 -237.5 -76t-123.5 -195l-98 -700h-188l157 1126h164l-4 -168q70 82 180.5 131.5t223.5 49.5z" glyph-name="glyph645" horiz-adv-x="1204"/><glyph d="M752 1139q184 0 278 -112t68 -300l-101 -727h-188l98 709q16 119 -46 190.5t-183 71.5q-131 0 -237.5 -76t-123.5 -195l-98 -700h-188l157 1126h164l-4 -168q70 82 180.5 131.5t223.5 49.5zM416 -367q-74 29 -62 111q6 47 45 82t88 35q47 0 75 -34t22 -83 q-8 -55 -65.5 -136t-98.5 -126h-76z" glyph-name="glyph646" horiz-adv-x="1204"/><glyph d="M682 1208q-47 0 -77 35t-23 84q8 47 47 82t88 35q47 0 76.5 -35t23.5 -82q-8 -49 -48 -84t-87 -35zM752 1139q184 0 278 -112t68 -300l-101 -727h-188l98 709q16 119 -46 190.5t-183 71.5q-131 0 -237.5 -76t-123.5 -195l-98 -700h-188l157 1126h164l-4 -168 q70 82 180.5 131.5t223.5 49.5z" glyph-name="glyph647" horiz-adv-x="1204"/><glyph d="M752 1139q184 0 278 -112t68 -300l-101 -727h-188l98 709q16 119 -46 190.5t-183 71.5q-131 0 -237.5 -76t-123.5 -195l-98 -700h-188l157 1126h164l-4 -168q70 82 180.5 131.5t223.5 49.5zM494 -141q47 0 77.5 -35t22.5 -82t-47 -82t-86 -35q-49 0 -79 35t-24 82 q8 47 47.5 82t88.5 35z" glyph-name="glyph648" horiz-adv-x="1204"/><glyph d="M752 1139q184 0 278 -112t68 -300l-101 -727h-8l-22 -166q-18 -129 -117.5 -194.5t-239.5 -61.5l19 121q143 -4 162 135l22 166h-4l98 709q16 119 -46 190.5t-183 71.5q-131 0 -237.5 -76t-123.5 -195l-98 -700h-188l157 1126h164l-4 -168q70 82 180.5 131.5t223.5 49.5z " glyph-name="glyph649" horiz-adv-x="1204"/><glyph d="M346 1221q2 115 67.5 188.5t161.5 73.5q117 0 175 -111q29 -61 86 -61q47 0 77.5 43t28.5 108h111q0 -113 -65.5 -186.5t-164.5 -73.5q-119 0 -172 113q-29 59 -86 59q-49 0 -78.5 -43t-27.5 -110h-113zM752 1139q184 0 278 -112t68 -300l-101 -727h-188l98 709 q16 119 -46 190.5t-183 71.5q-131 0 -237.5 -76t-123.5 -195l-98 -700h-188l157 1126h164l-4 -168q70 82 180.5 131.5t223.5 49.5z" glyph-name="glyph650" horiz-adv-x="1204"/><glyph d="M453 -20q-221 0 -341 153.5t-87 378.5q31 225 193.5 378.5t383.5 153.5q219 0 340 -153.5t90 -378.5q-33 -225 -196.5 -378.5t-382.5 -153.5zM473.5 135q147.5 0 254 108.5t130.5 268.5q23 162 -54 269.5t-224.5 107.5t-254 -107.5t-128.5 -269.5q-23 -160 53 -268.5 t223.5 -108.5z" glyph-name="glyph651" horiz-adv-x="1095"/><glyph d="M823 1536h181l-267 -315h-141zM500 -14q-242 0 -373 166.5t-96 412.5q37 246 213 413t417.5 167t371.5 -167t95.5 -413t-211.5 -412.5t-417 -166.5zM522 156q162 0 277.5 117.5t140.5 291.5q25 176 -58 294t-245 118t-277.5 -118t-140.5 -294q-25 -174 58 -291.5 t245 -117.5z" glyph-name="glyph652" horiz-adv-x="1187"/><glyph d="M371 1536h137l127 -260l201 260h137l-258 -350h-187zM453 -20q-221 0 -341 153.5t-87 378.5q31 225 193.5 378.5t383.5 153.5q219 0 340 -153.5t90 -378.5q-33 -225 -196.5 -378.5t-382.5 -153.5zM473.5 135q147.5 0 254 108.5t130.5 268.5q23 162 -54 269.5 t-224.5 107.5t-254 -107.5t-128.5 -269.5q-23 -160 53 -268.5t223.5 -108.5z" glyph-name="glyph653" horiz-adv-x="1095"/><glyph d="M627 1536h186l160 -350h-144l-120 266l-197 -266h-141zM500 -14q-242 0 -373 166.5t-96 412.5q37 246 213 413t417.5 167t371.5 -167t95.5 -413t-211.5 -412.5t-417 -166.5zM522 156q162 0 277.5 117.5t140.5 291.5q25 176 -58 294t-245 118t-277.5 -118t-140.5 -294 q-25 -174 58 -291.5t245 -117.5z" glyph-name="glyph654" horiz-adv-x="1187"/><glyph d="M485 1208q-47 0 -76.5 35t-23.5 84q8 47 47 82t88 35q47 0 77 -35t24 -82q-8 -49 -48.5 -84t-87.5 -35zM866 1208q-47 0 -77.5 35t-22.5 84q6 47 46 82t87 35t77 -35t23 -82q-8 -49 -47 -84t-86 -35zM500 -14q-242 0 -373 166.5t-96 412.5q37 246 213 413t417.5 167 t371.5 -167t95.5 -413t-211.5 -412.5t-417 -166.5zM522 156q162 0 277.5 117.5t140.5 291.5q25 176 -58 294t-245 118t-277.5 -118t-140.5 -294q-25 -174 58 -291.5t245 -117.5z" glyph-name="glyph655" horiz-adv-x="1187"/><glyph d="M453 -20q-221 0 -341 153.5t-87 378.5q31 225 193.5 378.5t383.5 153.5q219 0 340 -153.5t90 -378.5q-33 -225 -196.5 -378.5t-382.5 -153.5zM473.5 135q147.5 0 254 108.5t130.5 268.5q23 162 -54 269.5t-224.5 107.5t-254 -107.5t-128.5 -269.5q-23 -160 53 -268.5 t223.5 -108.5zM403.5 -375q-47.5 0 -78 35t-22.5 82t47 82t86 35t78 -35t23 -82q-6 -47 -46 -82t-87.5 -35z" glyph-name="glyph656" horiz-adv-x="1095"/><glyph d="M403 1536h183l139 -315h-141zM500 -14q-242 0 -373 166.5t-96 412.5q37 246 213 413t417.5 167t371.5 -167t95.5 -413t-211.5 -412.5t-417 -166.5zM522 156q162 0 277.5 117.5t140.5 291.5q25 176 -58 294t-245 118t-277.5 -118t-140.5 -294q-25 -174 58 -291.5 t245 -117.5z" glyph-name="glyph657" horiz-adv-x="1187"/><glyph d="M733 1536h172l-389 -356h-133zM1081 1536h170l-389 -356h-133zM453 -20q-221 0 -341 153.5t-87 378.5q31 225 193.5 378.5t383.5 153.5q219 0 340 -153.5t90 -378.5q-33 -225 -196.5 -378.5t-382.5 -153.5zM473.5 135q147.5 0 254 108.5t130.5 268.5q23 162 -54 269.5 t-224.5 107.5t-254 -107.5t-128.5 -269.5q-23 -160 53 -268.5t223.5 -108.5z" glyph-name="glyph658" horiz-adv-x="1171"/><glyph d="M328 1350h635l-15 -119h-635zM453 -20q-221 0 -341 153.5t-87 378.5q31 225 193.5 378.5t383.5 153.5q219 0 340 -153.5t90 -378.5q-33 -225 -196.5 -378.5t-382.5 -153.5zM473.5 135q147.5 0 254 108.5t130.5 268.5q23 162 -54 269.5t-224.5 107.5t-254 -107.5 t-128.5 -269.5q-23 -160 53 -268.5t223.5 -108.5z" glyph-name="glyph659" horiz-adv-x="1095"/><glyph d="M985 1026q164 -174 127 -457q-37 -248 -213 -416.5t-412 -168.5q-156 0 -270 79l-102 -126h-97l142 176q-168 172 -127 456q35 248 210 417t410 169q162 0 273 -82l102 129h96zM217 569q-29 -182 64 -303l528 660q-76 59 -180 59q-158 0 -272.5 -119t-139.5 -297z M514 156q158 0 271.5 118.5t138.5 294.5q25 184 -62 303l-528 -661q76 -55 180 -55z" glyph-name="glyph660" horiz-adv-x="1167"/><glyph d="M702 1221h-141l227 315h181zM911 928q156 -156 121 -416q-33 -225 -196.5 -378.5t-382.5 -153.5q-147 0 -254 73l-95 -116h-90l131 159q-160 156 -120 416q31 225 193.5 378.5t383.5 153.5q147 0 254 -73l96 114h88zM197 512q-27 -170 61 -276l492 600q-72 53 -170 53 q-147 0 -253.5 -107.5t-129.5 -269.5zM473 135q147 0 254 108.5t131 268.5q23 168 -61 276l-488 -602q68 -51 164 -51z" glyph-name="glyph661" horiz-adv-x="1095"/><glyph d="M803 1202q-119 0 -174 113q-31 59 -86 59q-47 0 -78 -43t-29 -110h-110q0 113 66.5 187.5t160.5 74.5q119 0 176 -111q27 -61 86 -61q47 0 77 43t30 108h108q2 -113 -63.5 -186.5t-163.5 -73.5zM500 -14q-242 0 -373 166.5t-96 412.5q37 246 213 413t417.5 167 t371.5 -167t95.5 -413t-211.5 -412.5t-417 -166.5zM522 156q162 0 277.5 117.5t140.5 291.5q25 176 -58 294t-245 118t-277.5 -118t-140.5 -294q-25 -174 58 -291.5t245 -117.5z" glyph-name="glyph662" horiz-adv-x="1187"/><glyph d="M1532 1135q231 0 346 -156t80 -410q-4 -31 -12 -67h-844q-18 -166 70 -262.5t214 -98.5q123 -2 212.5 51.5t130.5 143.5h161q-16 -57 -54 -113.5t-99.5 -112t-155.5 -88t-207 -32.5q-152 2 -257 71.5t-154 190.5l-5 -25q-86 -117 -213 -182t-272 -65q-240 0 -370 166.5 t-95 412.5t212 413t417 167q145 0 253.5 -66.5t162.5 -181.5l-2 -10q176 254 481 254zM1794 643q4 156 -67.5 246t-215.5 90q-145 0 -245.5 -91t-139.5 -245h668zM915 559q25 176 -58 293t-245 117q-160 0 -276.5 -118t-138.5 -292q-25 -174 57 -291.5t242 -117.5 q162 0 278 117.5t141 291.5z" glyph-name="glyph663" horiz-adv-x="2035"/><glyph d="M727 1044q209 0 319.5 -152.5t79.5 -379.5q-33 -225 -186.5 -378.5t-361.5 -153.5q-217 0 -322 176l-94 -668h-174l217 1536h174l-23 -156q150 176 371 176zM571 135q147 0 254 108.5t129 268.5q23 162 -53 269.5t-223 107.5q-119 0 -216 -77t-143 -202l-26 -196 q10 -123 84.5 -201t193.5 -78z" glyph-name="glyph664" horiz-adv-x="1226"/><glyph d="M782 1044q217 0 346 -154.5t99 -377.5q-33 -221 -205 -376.5t-389 -155.5q-125 0 -221.5 57t-147.5 158l-98 -705h-176l286 2046h177l-99 -707q172 215 428 215zM630.5 135q155.5 0 282.5 109.5t150 267.5q20 158 -74 267.5t-252 109.5q-156 0 -281.5 -109.5 t-146.5 -267.5q-23 -156 71.5 -266.5t250 -110.5z" glyph-name="glyph665" horiz-adv-x="1327"/><glyph d="M1124 1024l-217 -1536h-172l96 668q-156 -176 -372 -176q-211 0 -321.5 153.5t-78.5 378.5q31 227 184.5 379.5t364.5 152.5q217 0 324 -176l20 156h172zM508 135q119 0 217 78t141 201l29 198q-10 123 -87 200t-194 77q-147 0 -253.5 -107.5t-129.5 -269.5 q-23 -160 53.5 -268.5t223.5 -108.5z" glyph-name="glyph666" horiz-adv-x="1226"/><glyph d="M731 1042l-22 -143q-164 10 -280 -75t-140 -255l-80 -569h-176l143 1024h176l-26 -186q122 216 405 204z" glyph-name="glyph667" horiz-adv-x="722"/><glyph d="M555 1221h-143l227 315h182zM795 1137l-27 -162q-178 10 -304 -83t-155 -282l-84 -610h-192l157 1126h172l-8 -204q134 229 441 215z" glyph-name="glyph668" horiz-adv-x="772"/><glyph d="M408 1186l-158 350h137l127 -260l201 260h137l-258 -350h-186zM807 1137l-27 -162q-178 10 -304 -83t-154 -282l-84 -610h-193l158 1126h172l-8 -204q133 229 440 215z" glyph-name="glyph669" horiz-adv-x="784"/><glyph d="M801 1137l-27 -162q-178 10 -304 -83t-155 -282l-84 -610h-192l158 1126h172l-9 -204q134 229 441 215zM61 -360q-76 33 -63 112q6 47 45 82t88 35q47 0 74.5 -34t21.5 -83q-8 -55 -68.5 -141t-95.5 -121h-75z" glyph-name="glyph670" horiz-adv-x="778"/><glyph d="M373 -20q-190 0 -281.5 99t-83.5 222h152q2 -74 67.5 -132t161.5 -56t164 51t78 127q12 78 -49.5 118t-186.5 64q-68 14 -116 30.5t-96 46.5t-68.5 80t-10.5 118q18 135 137 215.5t273 80.5q162 0 252 -75.5t86 -216.5h-147q-4 80 -63.5 115.5t-127.5 39.5 q-86 4 -152.5 -32.5t-76.5 -106.5q-10 -74 47 -107.5t178 -58.5q332 -63 299 -303q-20 -137 -144 -228t-292 -91z" glyph-name="glyph671" horiz-adv-x="927"/><glyph d="M735 1536h180l-266 -315h-141zM410 -18q-209 0 -307.5 108.5t-90.5 241.5h166q2 -80 74 -143.5t176 -61.5t179 55.5t85 136.5q12 86 -56.5 130.5t-201.5 68.5q-160 33 -248 98.5t-67 202.5q18 147 148 235.5t298 88.5q176 0 273.5 -82t93.5 -238h-160q-6 88 -69.5 127 t-137.5 43q-94 4 -167.5 -35.5t-84.5 -115.5q-10 -82 53.5 -119t192.5 -61q72 -14 127 -35t108.5 -58t78 -97t12.5 -140q-23 -152 -157 -251t-318 -99z" glyph-name="glyph672" horiz-adv-x="999"/><glyph d="M317 1536h138l127 -260l200 260h138l-258 -350h-187zM410 -18q-209 0 -307.5 108.5t-90.5 241.5h166q2 -80 74 -143.5t176 -61.5t179 55.5t85 136.5q12 86 -56.5 130.5t-201.5 68.5q-160 33 -248 98.5t-67 202.5q18 147 148 235.5t298 88.5q176 0 273.5 -82t93.5 -238 h-160q-6 88 -69.5 127t-137.5 43q-94 4 -167.5 -35.5t-84.5 -115.5q-10 -82 53.5 -119t192.5 -61q72 -14 127 -35t108.5 -58t78 -97t12.5 -140q-23 -152 -157 -251t-318 -99z" glyph-name="glyph673" horiz-adv-x="999"/><glyph d="M410 -18q-209 0 -307.5 108.5t-90.5 241.5h166q2 -80 74 -143.5t176 -61.5t179 55.5t85 136.5q12 86 -56.5 130.5t-201.5 68.5q-160 33 -248 98.5t-67 202.5q18 147 148 235.5t298 88.5q176 0 273.5 -82t93.5 -238h-160q-6 88 -69.5 127t-137.5 43q-94 4 -167.5 -35.5 t-84.5 -115.5q-10 -82 53.5 -119t192.5 -61q72 -14 127 -35t108.5 -58t78 -97t12.5 -140q-23 -152 -157 -251t-318 -99zM446 -18l-73 -121q111 20 177 -33t52 -152q-12 -88 -80.5 -148t-156.5 -60q-70 0 -132.5 37.5t-85.5 91.5l89 34q18 -33 59 -54t82 -21q51 0 89 34.5 t46 85.5q10 72 -46 99.5t-149 -4.5l-65 49l102 162h92z" glyph-name="glyph674" horiz-adv-x="999"/><glyph d="M410 -18q-209 0 -307.5 108.5t-90.5 241.5h166q2 -80 74 -143.5t176 -61.5t179 55.5t85 136.5q12 86 -56.5 130.5t-201.5 68.5q-160 33 -248 98.5t-67 202.5q18 147 148 235.5t298 88.5q176 0 273.5 -82t93.5 -238h-160q-6 88 -69.5 127t-137.5 43q-94 4 -167.5 -35.5 t-84.5 -115.5q-10 -82 53.5 -119t192.5 -61q72 -14 127 -35t108.5 -58t78 -97t12.5 -140q-23 -152 -157 -251t-318 -99zM317 -375q-74 29 -61 111q4 47 43 82t90 35q47 0 75 -34t21 -83q-6 -39 -45 -101.5t-68.5 -99.5t-52.5 -61h-73z" glyph-name="glyph675" horiz-adv-x="999"/><glyph d="M410 -18q-209 0 -307.5 108.5t-90.5 241.5h166q2 -80 74 -143.5t176 -61.5t179 55.5t85 136.5q12 86 -56.5 130.5t-201.5 68.5q-160 33 -248 98.5t-67 202.5q18 147 148 235.5t298 88.5q176 0 273.5 -82t93.5 -238h-160q-6 88 -69.5 127t-137.5 43q-94 4 -167.5 -35.5 t-84.5 -115.5q-10 -82 53.5 -119t192.5 -61q72 -14 127 -35t108.5 -58t78 -97t12.5 -140q-23 -152 -157 -251t-318 -99zM360.5 -375q-47.5 0 -78 35t-22.5 82t47 82t86 35t78 -35t23 -82q-6 -47 -46 -82t-87.5 -35z" glyph-name="glyph676" horiz-adv-x="999"/><glyph d="M991 786q106 -53 160.5 -156.5t36.5 -228.5q-25 -176 -161 -298.5t-302 -122.5q-88 0 -178 35.5t-139 90.5l92 132q37 -39 96 -67t121 -28q104 4 193 80t104 187q16 117 -56.5 197.5t-193.5 80.5h-117l23 148h47q115 0 207 81.5t108.5 196.5t-55.5 190.5t-203 75.5 q-135 0 -237.5 -80.5t-118.5 -203.5l-154 -1096h-174l154 1096q27 190 183.5 315t365.5 125q203 0 318.5 -119t88.5 -299q-27 -205 -209 -332z" glyph-name="glyph677" horiz-adv-x="1363"/><glyph d="M516 -6q-61 -27 -135 -19.5t-135.5 33t-96 100t-20.5 181.5l86 600h-137l18 135h137l50 348h176l-49 -348h262l-19 -135h-262l-86 -600q-12 -82 21.5 -125t90 -44t122.5 13z" glyph-name="glyph678" horiz-adv-x="688"/><glyph d="M715 979l-271 2l-57 -412h260l-16 -116h-260l-19 -127q-10 -84 15.5 -125t119.5 -41h125l-22 -162h-125q-104 0 -171 22.5t-103.5 93t-18.5 191.5l21 148h-170l16 116h170l59 412h-178l23 149h176l57 406h182l-57 -406h264z" glyph-name="glyph679" horiz-adv-x="759"/><glyph d="M686 1350q-74 29 -63 112q8 47 46 82t87 35q47 0 75.5 -35t20.5 -82q-8 -57 -65.5 -138t-98.5 -126h-76zM465 -2q-162 0 -241 65.5t-54 241.5l96 676h-176l21 149h176l57 406h182l-57 -406h266l-20 -151l-271 2l-92 -655q-12 -84 13.5 -125t121.5 -41h125l-24 -162h-123z " glyph-name="glyph680" horiz-adv-x="806"/></font>
</defs>
</svg>
