<?xml version="1.0" standalone="no"?>
<!DOCTYPE svg PUBLIC "-//W3C//DTD SVG 1.1//EN" "http://www.w3.org/Graphics/SVG/1.1/DTD/svg11.dtd">
<svg xmlns="http://www.w3.org/2000/svg"><metadata>This SVG WebFont was generated by YouWorkForThem.
\(c\)2017 Oakes is a trademark of Samuel Oakes. All rights reserved.</metadata><defs><font horiz-adv-x="0" id="ywftsvg"><font-face ascent="1536" bbox="-1575 -743 2568 2122" cap-height="1536" descent="-512" font-family="" font-stretch="normal" font-weight="700" panose-1="0 0 4 0 0 0 0 0 0 0" underline-position="0" underline-thickness="0" unicode-range="U+000D-FB02" units-per-em="2048" x-height="1126"/><missing-glyph d="M274 1536h932l-215 -1536h-932zM799 225l153 1088h-485l-154 -1088h486z" horiz-adv-x="1234"/><glyph d="M170 0l121 872h-172l33 224h172l8 63q23 158 132 267.5t269 121.5q78 6 156 -12t102 -41l-30 -227q-43 29 -103.5 40t-122.5 -12q-92 -45 -108 -157l-6 -43h245l-32 -224h-246l-121 -872h-297zM1260 1210q-66 0 -107 47.5t-33 115t63.5 115.5t121.5 48q68 0 109.5 -48 t31.5 -116q-8 -68 -63 -115t-123 -47zM1092 1126h319l-158 -1126h-319z" glyph-name="uniFB01" horiz-adv-x="1480" unicode="fi"/><glyph d="M170 0l121 872h-172l33 224h172l8 63q23 158 132 267.5t269 121.5q78 6 156 -12t102 -41l-30 -227q-43 29 -103.5 40t-122.5 -12q-92 -45 -108 -157l-6 -43h245l-32 -224h-246l-121 -872h-297zM1001 0l216 1536h299l-216 -1536h-299z" glyph-name="uniFB02" horiz-adv-x="1560" unicode="fl"/><glyph d="M274 1536h932l-215 -1536h-932zM799 225l153 1088h-485l-154 -1088h486z" glyph-name=".notdef" horiz-adv-x="1234"/><glyph glyph-name="glyph1"/><glyph glyph-name="glyph2" horiz-adv-x="681"/><glyph glyph-name="space" horiz-adv-x="501" unicode=" "/><glyph d="M299 1536h272l-159 -1053h-248zM221.5 0q-67.5 0 -109.5 48t-34 118t63.5 118t125 48t111.5 -49.5t31.5 -117t-65.5 -116.5t-122.5 -49z" glyph-name="exclam" horiz-adv-x="630" unicode="!"/><glyph d="M264 1538q49 0 83 -30.5t24 -96.5q-6 -45 -34 -95t-54 -79l-25 -27h-82q-8 10 -18.5 30t-26.5 73t-10 98q10 66 51 96.5t92 30.5zM592 1538q49 0 83 -30.5t23 -96.5q-6 -45 -34.5 -95t-53.5 -79l-26 -27h-80q-8 10 -18.5 30t-27 73t-9.5 98q10 66 51 96.5t92 30.5z" glyph-name="quotedbl" horiz-adv-x="606" unicode="&quot;"/><glyph d="M358 338h-288l57 211h289l114 393h-292l65 209h285l96 342h209l-94 -342h344l94 342h211l-96 -342h293l-66 -209h-287l-110 -393h286l-57 -211h-287l-98 -338h-207l94 338h-348l-92 -338h-209zM971 549l112 393h-346l-110 -393h344z" glyph-name="numbersign" horiz-adv-x="1687" unicode="#"/><glyph d="M844 907q92 -41 150.5 -73.5t123 -88t90 -133t11.5 -176.5q-29 -193 -165 -306.5t-339 -141.5l-23 -160h-200l22 156q-217 20 -330.5 157.5t-103.5 354.5l266 -2q20 -188 207 -222l61 428q-4 0 -11 4.5t-11 4.5q-94 39 -148.5 67.5t-120 79.5t-90 119.5t-12.5 157.5 q25 170 168 283.5t344 135.5l21 150h200l-20 -154q367 -53 385 -491h-287q4 74 -30.5 136t-106.5 89zM541 1145q-10 -86 112 -154l43 295q-139 -39 -155 -141zM903 432q14 102 -102 178l-45 -329q131 36 147 151z" glyph-name="dollar" horiz-adv-x="1349" unicode="$"/><glyph d="M422 821q-137 0 -217 107.5t-58 259.5q23 154 131.5 261t245.5 107q135 0 215 -107.5t58 -260.5q-23 -152 -131.5 -259.5t-243.5 -107.5zM1311 1536h307l-1249 -1536h-308zM453 1044q39 0 75.5 42t45 101.5t-16.5 102.5t-63 43q-41 0 -77 -42t-44 -103 q-8 -59 15.5 -101.5t64.5 -42.5zM1157 -20q-135 0 -215 107.5t-59 260.5q23 152 132 260.5t247 108.5q135 0 213.5 -107.5t56.5 -261.5q-20 -152 -130 -260t-245 -108zM1188 205q41 0 75.5 42t43 101.5t-15 101.5t-64.5 42t-77 -41t-44 -102.5t16.5 -102.5t65.5 -41z" glyph-name="percent" horiz-adv-x="1650" unicode="%"/><glyph d="M537 -12q-201 0 -327 133t-99 319q35 246 262 404q-92 143 -72 280q27 186 148.5 295t302.5 107q154 -2 244.5 -112.5t68.5 -266.5q-29 -217 -264 -359l184 -213l193 287h307l-328 -481l297 -379h-377l-125 152q-190 -166 -415 -166zM645 977q145 68 158 172 q8 55 -17.5 92t-74.5 37q-125 0 -146 -154q-10 -61 80 -147zM578 258q115 0 221 92l-273 307q-133 -80 -149 -206q-12 -88 42.5 -140.5t158.5 -52.5z" glyph-name="ampersand" horiz-adv-x="1433" unicode="&amp;"/><glyph d="M348 1538q49 0 83 -30.5t24 -96.5q-6 -45 -35 -95t-55 -79l-25 -27h-80q-8 10 -18.5 30t-26.5 73t-10 98q10 66 51 96.5t92 30.5z" glyph-name="quotesingle" horiz-adv-x="376" unicode="'"/><glyph d="M375 -428q-147 150 -214 418t-22 579q51 358 206 625.5t362 423.5h176q-195 -178 -333 -469t-177 -580q-39 -268 25.5 -555.5t174.5 -443.5z" glyph-name="parenleft" horiz-adv-x="829" unicode="("/><glyph d="M475 1616q147 -147 214 -416.5t24 -581.5q-51 -358 -206 -625t-362 -423h-176q195 178 334 470t178 578q37 266 -27.5 554t-174.5 446z" glyph-name="parenright" horiz-adv-x="829" unicode=")"/><glyph d="M203 1061l141 158l-199 -25l21 147l192 -24l-96 158l137 75l52 -184l106 184l117 -75l-144 -158l203 24l-20 -147l-197 25l98 -158l-137 -76l-53 184l-105 -184z" glyph-name="asterisk" horiz-adv-x="704" unicode="*"/><glyph d="M653 522h-522l33 226h522l74 522h225l-74 -522h523l-33 -226h-522l-72 -522h-225z" glyph-name="plus" horiz-adv-x="1570" unicode="+"/><glyph d="M63 2q-49 18 -72.5 61t-15.5 97q8 70 63.5 118t125.5 48q68 0 108.5 -48.5t30.5 -117.5q-18 -119 -190 -301h-170z" glyph-name="comma" horiz-adv-x="479" unicode=","/><glyph d="M147 633h717l-28 -199h-717z" glyph-name="hyphen" horiz-adv-x="1017" unicode="-"/><glyph d="M133 -20q-68 0 -110.5 50t-32.5 117q8 70 65.5 120t124.5 50q70 0 113 -50t35 -120q-10 -68 -67.5 -117.5t-127.5 -49.5z" glyph-name="period" horiz-adv-x="460" unicode="."/><glyph d="M1143 1536h278l-1378 -2048h-281z" glyph-name="slash" horiz-adv-x="1255" unicode="/"/><glyph d="M586 -20q-209 0 -330 102t-153.5 273t1.5 413q51 360 233.5 574t469.5 214q307 0 418.5 -209.5t60.5 -578.5q-51 -371 -222 -579.5t-478 -208.5zM623 242q291 0 364 526q76 528 -215 528q-166 0 -249 -135t-120 -393q-73 -526 220 -526z" glyph-name="zero" horiz-adv-x="1361" unicode="0"/><glyph d="M446 1198l-354 -246l45 328l375 256h281l-215 -1536h-299z" glyph-name="one" horiz-adv-x="882" unicode="1"/><glyph d="M31 219q379 352 537.5 511t208.5 228.5t61 137.5q14 102 -37 150t-131 50q-90 0 -154.5 -59t-69.5 -158l-286 2q12 207 179 342.5t382 135.5q201 0 316.5 -122t90.5 -313q-8 -61 -22 -109t-54 -109.5t-79 -111t-130 -140.5t-175 -168.5t-244 -223.5h616l-36 -262h-1004z " glyph-name="two" horiz-adv-x="1167" unicode="2"/><glyph d="M500 -20q-213 0 -351.5 131t-111.5 315l293 4q2 -80 60.5 -126t148.5 -46q92 0 161.5 64.5t83.5 160.5q12 96 -39 159t-143 63h-121l31 235h104q76 0 132.5 52t68.5 130q8 68 -43 114t-129 46q-68 0 -129 -40t-70 -95l-284 6q23 168 177.5 285.5t342.5 117.5t309 -117.5 t99 -285.5q-25 -178 -201 -281q104 -61 154.5 -162.5t33.5 -228.5q-31 -211 -197.5 -356t-379.5 -145z" glyph-name="three" horiz-adv-x="1212" unicode="3"/><glyph d="M1145 324h-135l-45 -324h-297l45 324h-729l26 188l795 1024h375l-133 -950h135zM750 586l92 657l-482 -657h390z" glyph-name="four" horiz-adv-x="1280" unicode="4"/><glyph d="M540.5 -20q-233.5 0 -362.5 119.5t-115 303.5h259q8 -74 79.5 -114.5t157.5 -36.5q115 6 196 76.5t97 181.5q16 115 -46.5 190.5t-172.5 75.5q-68 0 -140.5 -29.5t-125.5 -80.5l-224 108l181 758h870l-37 -260h-639l-82 -330q125 94 314 94q207 0 320.5 -145.5 t80.5 -368.5q-33 -238 -205 -390t-405.5 -152z" glyph-name="five" horiz-adv-x="1261" unicode="5"/><glyph d="M567 -14q-199 0 -346 142t-141 359q8 164 20 242q51 365 218 576t432 237q49 4 65 4q211 0 340 -131t121 -321h-285q8 90 -45 140t-155 50q-305 0 -412 -342q57 63 160.5 93t177.5 30q246 0 374 -140.5t109 -375.5q-23 -231 -208 -397t-425 -166zM598 229q121 0 216 85 t112 204q18 127 -60 208t-207 81q-111 0 -199.5 -84t-105.5 -201q-16 -125 53.5 -209t190.5 -84z" glyph-name="six" horiz-adv-x="1312" unicode="6"/><glyph d="M887 1276h-729l37 260h1052l-30 -217l-893 -1319h-324z" glyph-name="seven" horiz-adv-x="1155" unicode="7"/><glyph d="M932 856q100 -61 147 -164.5t29 -228.5q-29 -207 -201 -345t-403 -138q-229 0 -362.5 138t-104.5 345q18 125 94 227.5t191 163.5q-139 131 -115 297q23 172 174 288.5t344 116.5t311.5 -116.5t96.5 -288.5q-27 -168 -201 -295zM694 1323q-84 0 -156.5 -56.5t-85 -138 t45 -138t143.5 -56.5q84 0 155.5 56.5t84.5 137.5q12 80 -45.5 137.5t-141.5 57.5zM541 242q100 0 178 70.5t92 172.5q14 100 -43 167t-160 67q-100 0 -177 -66.5t-91 -167.5q-14 -102 44.5 -172.5t156.5 -70.5z" glyph-name="eight" horiz-adv-x="1200" unicode="8"/><glyph d="M551 -8q-215 0 -340 115.5t-117 322.5l289 -4q-10 -80 46 -126t165 -46q31 0 45 2q106 16 189 95t128 212q-147 -92 -301 -92q-236 0 -370.5 144.5t-112.5 371.5q25 233 212 404.5t425 171.5q215 0 352 -146.5t131 -369.5q0 -106 -18 -246q-53 -379 -235.5 -594 t-487.5 -215zM694 713q121 0 214 84t110 207q18 121 -53.5 203.5t-192.5 82.5t-216 -85t-112 -206q-16 -123 55.5 -204.5t194.5 -81.5z" glyph-name="nine" horiz-adv-x="1312" unicode="9"/><glyph d="M325.5 709q-69.5 0 -111.5 49t-32 119q8 70 64.5 118.5t126 48.5t112.5 -49t33 -118.5t-66.5 -118.5t-126 -49zM223.5 -20q-69.5 0 -111.5 50t-32 117q10 70 65.5 120t125 50t112.5 -50t33 -120q-10 -68 -66.5 -117.5t-126 -49.5z" glyph-name="colon" horiz-adv-x="638" unicode=":"/><glyph d="M299 692q-68 0 -110 49.5t-33 116.5q10 68 66.5 117t123.5 49q70 0 111 -48t30 -118q-10 -68 -64 -117t-124 -49zM150 0q-47 18 -72 61t-19 97q10 70 66.5 118t124 48t107.5 -48.5t30 -117.5q-16 -119 -188 -301h-168z" glyph-name="semicolon" horiz-adv-x="645" unicode=";"/><glyph d="M1360 1212l-967 -454l838 -457l-35 -248l-1051 572l39 266l1211 567z" glyph-name="less" horiz-adv-x="1431" unicode="&lt;"/><glyph d="M115 840h1228l-26 -187h-1229zM57 434h1229l-26 -188h-1229z" glyph-name="equal" horiz-adv-x="1406" unicode="="/><glyph d="M1315 891l-39 -266l-1210 -572l34 248l967 457l-838 454l35 246z" glyph-name="greater" horiz-adv-x="1431" unicode=">"/><glyph d="M432 489q12 90 61.5 165t111 126t121.5 96.5t106.5 98.5t54.5 110q12 88 -48.5 148.5t-160.5 60.5q-115 0 -193.5 -76.5t-78.5 -187.5h-265q14 221 179 372.5t395 151.5q211 0 337 -136t97 -333q-12 -92 -82 -181t-146.5 -147.5t-143 -127t-75.5 -121.5l-14 -111h-268z M501.5 -20q-69.5 0 -111.5 49t-32 118q8 70 64.5 120t126 50t111.5 -50t34 -120q-10 -70 -66.5 -118.5t-126 -48.5z" glyph-name="question" horiz-adv-x="1179" unicode="?"/><glyph d="M588 -51q-279 0 -434.5 178t-116.5 453q39 272 257 463.5t490 191.5q266 0 415 -161t114 -410q-25 -180 -126.5 -296t-236.5 -116q-119 0 -166 76q-100 -84 -211 -84q-125 0 -191.5 84t-47.5 219q23 158 135.5 270.5t249.5 112.5q80 0 135 -37l4 25h197l-103 -404 q-27 -86 23 -86q55 0 97 62.5t56 171.5q27 182 -72.5 288.5t-295.5 106.5q-201 0 -352.5 -135.5t-178.5 -339.5q-29 -205 77 -330t306 -125zM612 420q59 0 111.5 59.5t62.5 138.5q18 133 -86 134q-59 0 -108 -59.5t-62 -145.5q-18 -127 82 -127z" glyph-name="at" horiz-adv-x="1214" unicode="@"/><glyph d="M1071 311h-668l-159 -311h-334l831 1536h346l402 -1536h-334zM1020 578l-150 645l-340 -645h490z" glyph-name="A" horiz-adv-x="1585" unicode="A"/><glyph d="M1038 793q127 -41 190.5 -135.5t43.5 -239.5q-27 -193 -170.5 -305.5t-337.5 -112.5h-733l215 1536h635q197 0 309.5 -114.5t85.5 -309.5q-31 -208 -238 -319zM965 1081q10 76 -36 131.5t-122 55.5h-291l-51 -355h291q78 0 138.5 47t70.5 121zM756 270q78 0 140 55.5 t73 131.5q10 78 -36 142.5t-122 64.5h-381l-55 -394h381z" glyph-name="B" horiz-adv-x="1339" unicode="B"/><glyph d="M731 -20q-328 0 -507 228t-132 560q47 334 289 561t571 227q295 0 466 -173t151 -451h-291q0 129 -89 229.5t-278 100.5q-211 0 -353 -140.5t-173 -353.5q-31 -215 72.5 -355.5t314.5 -140.5q182 0 303 100.5t154 221.5h291q-55 -246 -286 -430t-503 -184z" glyph-name="C" horiz-adv-x="1669" unicode="C"/><glyph d="M246 1536h532q332 0 521.5 -203t138.5 -565q-51 -365 -296 -566.5t-579 -201.5h-532zM598 270q209 0 353.5 122t178.5 376q37 260 -71.5 380t-319.5 120h-223l-141 -998h223z" glyph-name="D" horiz-adv-x="1499" unicode="D"/><glyph d="M518 1268l-51 -365h616l-39 -270h-616l-51 -363h702l-37 -270h-1011l215 1536h1011l-36 -268h-703z" glyph-name="E" horiz-adv-x="1249" unicode="E"/><glyph d="M518 1268l-51 -365h598l-39 -270h-598l-88 -633h-309l215 1536h993l-37 -268h-684z" glyph-name="F" horiz-adv-x="1159" unicode="F"/><glyph d="M1522 821l-43 -311l-72 -510h-207l-12 186q-180 -197 -494 -196q-330 0 -499.5 210t-120.5 560t276.5 565t546.5 215q281 0 453 -138t163 -405h-296q-2 119 -93.5 192t-234.5 73q-223 0 -359.5 -132.5t-169.5 -369.5q-31 -223 79 -357.5t292 -134.5q166 0 293 79t145 216 h-366l37 258h682z" glyph-name="G" horiz-adv-x="1599" unicode="G"/><glyph d="M1524 1536l-215 -1536h-310l88 633h-659l-88 -633h-309l215 1536h309l-88 -631h659l88 631h310z" glyph-name="H" horiz-adv-x="1523" unicode="H"/><glyph d="M246 1536h309l-215 -1536h-309z" glyph-name="I" horiz-adv-x="555" unicode="I"/><glyph d="M141 -20q-104 0 -159 20l43 313q63 -25 139 -24q45 0 83 32.5t44 77.5l160 1137h307l-164 -1167q-25 -174 -152 -281.5t-301 -107.5z" glyph-name="J" horiz-adv-x="763" unicode="J"/><glyph d="M942 0l-506 686l-96 -686h-309l215 1536h309l-96 -682l614 682h354l-661 -752l580 -784h-404z" glyph-name="K" horiz-adv-x="1435" unicode="K"/><glyph d="M246 1536h309l-178 -1266h518l-37 -270h-827z" glyph-name="L" horiz-adv-x="1015" unicode="L"/><glyph d="M1917 1536l-215 -1536h-307l153 1102l-518 -1102h-319l-217 1102l-154 -1102h-309l215 1536h434l242 -1139l565 1139h430z" glyph-name="M" horiz-adv-x="1916" unicode="M"/><glyph d="M1655 1536l-215 -1536h-316l-635 1069l-149 -1069h-309l215 1536h315l637 -1067l150 1067h307z" glyph-name="N" horiz-adv-x="1654" unicode="N"/><glyph d="M731 -20q-330 0 -508 227t-131 561t289 561t571 227q328 0 507 -228t132 -560t-289.5 -560t-570.5 -228zM774 279q209 0 348.5 138t169.5 351q31 215 -70.5 353.5t-310.5 138.5q-211 0 -352 -138.5t-172 -353.5q-31 -213 72.5 -351t314.5 -138z" glyph-name="O" horiz-adv-x="1652" unicode="O"/><glyph d="M942 1536q188 0 300 -151.5t85 -346.5q-29 -195 -182.5 -341t-341.5 -146h-387l-76 -551h-309l215 1536h696zM811 803q82 0 152.5 71.5t83.5 161.5q10 88 -39.5 160t-130.5 72h-359l-65 -465h358z" glyph-name="P" horiz-adv-x="1310" unicode="P"/><glyph d="M1559 233l-33 -233h-66q-164 0 -256 115l-8 8q-211 -143 -465 -143q-330 0 -508 227t-131 561t289 561t571 227q328 0 507 -228t132 -560q-37 -258 -198 -463l20 -24q41 -47 127 -48h19zM774 279q137 0 248 61l-182 225l194 174l176 -213q63 104 82 242 q31 215 -70.5 353.5t-310.5 138.5q-211 0 -352 -138.5t-172 -353.5q-31 -213 72.5 -351t314.5 -138z" glyph-name="Q" horiz-adv-x="1644" unicode="Q"/><glyph d="M1255 0h-346l-276 569h-213l-80 -569h-309l215 1536h696q186 0 299 -151.5t86 -348.5q-23 -154 -131.5 -282.5t-251.5 -163.5zM827 809q80 0 142.5 63.5t77.5 165.5q14 98 -30 164t-124 66h-375l-65 -459h374z" glyph-name="R" horiz-adv-x="1415" unicode="R"/><glyph d="M584 -20q-250 0 -382 140t-122 376l266 -2q27 -227 289 -228q242 0 268 166q6 41 -10 78t-39 60.5t-76 53t-83.5 43t-102.5 42.5q-94 39 -148.5 67.5t-120 79.5t-90 119.5t-12.5 157.5q27 188 199 305.5t399 117.5q479 0 500 -499h-287q4 98 -55 169.5t-184 71.5 q-96 0 -169 -42t-83 -111q-6 -37 10 -67.5t60 -59.5t80 -46.5t108 -45.5q72 -31 108.5 -47.5t100 -51t96.5 -68.5t68.5 -82t46 -108.5t0.5 -132.5q-33 -223 -209 -339.5t-426 -116.5z" glyph-name="S" horiz-adv-x="1325" unicode="S"/><glyph d="M1309 1268h-435l-178 -1268h-305l178 1268h-436l37 268h1176z" glyph-name="T" horiz-adv-x="1269" unicode="T"/><glyph d="M659.5 -20q-264.5 0 -425 149.5t-130.5 366.5l146 1040h309l-139 -985q-16 -127 64.5 -214t213.5 -87t238.5 88t122.5 213l139 985h309l-145 -1040q-31 -217 -234.5 -366.5t-468 -149.5z" glyph-name="U" horiz-adv-x="1511" unicode="U"/><glyph d="M1704 1536l-832 -1536h-346l-401 1536h346l279 -1178l608 1178h346z" glyph-name="V" horiz-adv-x="1585" unicode="V"/><glyph d="M2460 1536l-639 -1536h-336l-236 1024l-481 -1024h-334l-252 1536h334l143 -1198l510 1198h306l213 -1200l440 1200h332z" glyph-name="W" horiz-adv-x="2396" unicode="W"/><glyph d="M950 0l-270 537l-418 -537h-352l641 788l-397 748h350l248 -494l389 494h350l-608 -745l420 -791h-353z" glyph-name="X" horiz-adv-x="1398" unicode="X"/><glyph d="M858 727l-100 -727h-307l100 721l-426 815h344l270 -551l430 551h340z" glyph-name="Y" horiz-adv-x="1388" unicode="Y"/><glyph d="M1184 270l-37 -270h-1174l23 166l911 1102h-735l37 268h1149l-23 -166l-913 -1100h762z" glyph-name="Z" horiz-adv-x="1308" unicode="Z"/><glyph d="M289 1767h524l-25 -180h-264l-303 -2150h264l-24 -180h-524z" glyph-name="bracketleft" horiz-adv-x="626" unicode="["/><glyph d="M51 1536h281l801 -2048h-279z" glyph-name="backslash" horiz-adv-x="1255" unicode="\"/><glyph d="M-39 -563h264l303 2150h-264l25 180h524l-352 -2510h-524z" glyph-name="bracketright" horiz-adv-x="626" unicode="]"/><glyph d="M1147 406l-328 901l-579 -901h-248l729 1130h264l410 -1130h-248z" glyph-name="asciicircum" horiz-adv-x="1460" unicode="^"/><glyph d="M59 0h1024l-28 -197h-1024z" glyph-name="underscore" horiz-adv-x="1325" unicode="_"/><glyph d="M152 1536h299l122 -342h-223z" glyph-name="grave" horiz-adv-x="47" unicode="`"/><glyph d="M334 -16q-166 0 -253 88t-65 247q20 150 165 243t345 112l224 20l4 19q12 94 -25 135t-123 41q-203 0 -241 -172h-263q37 182 171.5 300t373.5 118q215 0 322.5 -104.5t77.5 -319.5q-14 -113 -48 -338q-18 -135 72 -135l-33 -238q-10 0 -38.5 -1t-45.5 -1h-27.5h-30.5 t-28.5 1t-31 3t-28 6t-28.5 9.5t-23.5 14.5t-23.5 20t-17 25.5t-16 33.5q-55 -57 -155 -92t-211 -35zM453 217q117 0 243 100l25 175l-156 -21q-215 -29 -229 -133q-8 -55 25 -88t92 -33z" glyph-name="a" horiz-adv-x="1181" unicode="a"/><glyph d="M791 1137q225 0 348 -163t88 -409t-204 -409.5t-394 -163.5q-203 0 -307 133l-33 -125l-285 2l215 1536h322l-72 -512q129 111 322 111zM604 270q115 0 200 85t101 210q18 127 -42 212t-175 85q-82 0 -154.5 -50t-113.5 -130l-31 -231q16 -82 74.5 -131.5t140.5 -49.5z " glyph-name="b" horiz-adv-x="1275" unicode="b"/><glyph d="M489 -10q-246 0 -372.5 159.5t-91.5 415.5q37 256 207.5 414t418.5 158q125 0 219.5 -32t146.5 -79t84 -112.5t40 -122t6 -115.5h-285q2 80 -60.5 138t-160.5 58q-123 0 -198.5 -83.5t-96.5 -223.5q-18 -137 34 -222t175 -85q96 0 175 62.5t101 140.5h285 q-14 -63 -38.5 -121.5t-75 -125.5t-116 -114t-169 -78.5t-228.5 -31.5z" glyph-name="c" horiz-adv-x="1179" unicode="c"/><glyph d="M1323 1534l-215 -1532l-281 -2l-10 111q-135 -121 -336 -121q-227 0 -350 159.5t-88 405.5q35 248 204 415t396 167q180 0 285 -121l73 518h322zM582 260q80 0 151.5 48t114.5 128l33 238q-20 80 -78 129t-137 49q-117 0 -201 -85t-100 -212q-18 -125 41 -210t176 -85z " glyph-name="d" horiz-adv-x="1275" unicode="d"/><glyph d="M1106 565q-6 -41 -19 -96h-757q-2 -111 56 -173.5t159 -62.5q176 0 262 132h258q-53 -164 -199.5 -269.5t-363.5 -105.5q-248 0 -378 161.5t-95 411.5q37 254 205.5 414t431.5 160q242 0 360.5 -154t79.5 -418zM627 891q-188 0 -260 -203h448q-4 203 -188 203z" glyph-name="e" horiz-adv-x="1167" unicode="e"/><glyph d="M170 0l121 872h-172l33 224h172l8 63q23 158 132 267.5t269 121.5q78 6 156 -12t102 -41l-30 -227q-43 29 -103.5 40t-122.5 -12q-92 -45 -108 -157l-6 -43h245l-32 -224h-246l-121 -872h-297z" glyph-name="f" horiz-adv-x="909" unicode="f"/><glyph d="M428 -512q-227 -8 -348 69.5t-133 200.5q-8 76 36 172.5t134 143.5q-47 12 -73 63t-17 109q20 131 184 207q-45 47 -72.5 129t-15.5 174q25 158 176.5 273.5t357.5 115.5q76 0 165 -23.5t126 -60.5q35 82 136.5 126t164.5 21q-8 -53 -26 -186q-43 20 -97.5 5t-83.5 -66 q76 -125 62 -226q-25 -184 -183.5 -302t-365.5 -126q-123 -6 -207 37q-33 -10 -50 -29.5t-11 -38.5q10 -51 141 -51l221 -4q184 -4 288.5 -82t98.5 -211q-12 -213 -179 -322.5t-429 -117.5zM803 739q10 74 -40 115t-140 41q-88 0 -148.5 -42t-71 -118t39 -119t135.5 -43 q90 0 152.5 44t72.5 122zM737 -133q10 66 -65.5 91.5t-196.5 25.5h-151q-37 -10 -64 -45t-33 -72q-8 -66 47.5 -99.5t165.5 -33.5q121 0 205 36t92 97z" glyph-name="g" horiz-adv-x="1218" unicode="g"/><glyph d="M856 1135q197 0 291 -106.5t67 -303.5l-100 -725h-326l97 684q20 168 -164 168q-100 0 -182 -51t-95 -135l-92 -666h-325l215 1536h325l-75 -537q155 136 364 136z" glyph-name="h" horiz-adv-x="1267" unicode="h"/><glyph d="M350 1210q-66 0 -106.5 47.5t-32.5 115t63.5 115.5t120.5 48q68 0 110 -48t32 -116q-8 -68 -63.5 -115t-123.5 -47zM182 1126h320l-158 -1126h-319z" glyph-name="i" horiz-adv-x="571" unicode="i"/><glyph d="M422 1200q-70 0 -113 49t-35 119q10 70 67.5 119t127.5 49q68 0 111 -49t32 -119q-8 -70 -65 -119t-125 -49zM-186 -512l36 260h50q86 0 132 32t58 118l172 1228h299l-176 -1249q-16 -121 -73.5 -204t-140.5 -119.5t-154.5 -51t-153.5 -14.5h-49z" glyph-name="j" horiz-adv-x="606" unicode="j"/><glyph d="M12 0l215 1536h326l-113 -807l367 397h326l-490 -512l375 -614h-334l-281 471l-65 -471h-326z" glyph-name="k" horiz-adv-x="1142" unicode="k"/><glyph d="M41 0l215 1536h299l-215 -1536h-299z" glyph-name="l" horiz-adv-x="600" unicode="l"/><glyph d="M1544 1139q188 0 276.5 -105.5t59.5 -300.5l-102 -733h-326l96 692q25 164 -139 164q-92 0 -166 -51t-86 -135l-94 -670h-328l96 692q25 164 -137 164q-92 0 -166.5 -51t-87.5 -135l-94 -670h-326l158 1126h291l-2 -129q68 66 165 104t195 38q209 0 301 -174 q76 80 188.5 127t227.5 47z" glyph-name="m" horiz-adv-x="1953" unicode="m"/><glyph d="M838 1141q197 0 291 -107.5t67 -304.5l-102 -729h-326l96 690q25 168 -164 168q-100 0 -181 -51t-93 -135l-94 -672h-326l158 1126h293l-2 -137q74 70 177.5 111t205.5 41z" glyph-name="n" horiz-adv-x="1267" unicode="n"/><glyph d="M547 -14q-252 0 -394.5 166.5t-107.5 412.5t223.5 413t440.5 167t393 -167t106.5 -413t-222 -412.5t-439.5 -166.5zM586 270q115 0 200.5 85t102.5 210q18 125 -43.5 211t-175.5 86q-117 0 -202 -85t-103 -212q-16 -127 44 -211t177 -84z" glyph-name="o" horiz-adv-x="1275" unicode="o"/><glyph d="M793 1137q225 0 349 -162t89 -407.5t-205 -411.5t-395 -166q-184 0 -289 116l-92 -657l-322 2l236 1673h301l6 -98q129 111 322 111zM606 272q115 0 200 84t103 211q16 127 -44 212t-175 85q-82 0 -154.5 -50t-111.5 -130l-33 -233q16 -80 74.5 -129.5t140.5 -49.5z" glyph-name="p" horiz-adv-x="1275" unicode="p"/><glyph d="M1264 1130l-236 -1673l-321 -2l92 658q-143 -123 -320 -123q-225 0 -348 168t-88 415q35 246 203 405t395 159q197 0 287 -105l35 98h301zM584 279q80 0 150.5 48t113.5 128l33 237q-20 80 -78 129t-137 49q-117 0 -201 -85t-100.5 -212t43 -210.5t176.5 -83.5z" glyph-name="q" horiz-adv-x="1273" unicode="q"/><glyph d="M903 1139l-41 -285q-215 0 -328.5 -81t-142.5 -286l-67 -487h-326l158 1126h305l-4 -153q41 68 156.5 117t289.5 49z" glyph-name="r" horiz-adv-x="862" unicode="r"/><glyph d="M479 -14q-225 0 -343 114.5t-111 266.5h274q8 -74 66.5 -114t134.5 -36q137 8 151 109q4 27 -9 47t-50 37.5t-64.5 26.5t-89.5 28q-80 23 -128 42t-106.5 56t-82 92.5t-12.5 130.5q23 162 164 260.5t352 98.5q164 0 286.5 -92t114.5 -267h-276q-16 111 -150 119 q-66 4 -107.5 -17.5t-48.5 -64.5q-2 -16 2.5 -29.5t17.5 -24.5t24.5 -18.5t37 -17.5t42 -15t50 -15.5t52.5 -16.5q74 -25 122 -47.5t100 -61t72.5 -98t10.5 -137.5q-23 -166 -157 -261t-339 -95z" glyph-name="s" horiz-adv-x="1081" unicode="s"/><glyph d="M614 -2q-43 0 -73.5 1t-69.5 4t-65.5 9t-58.5 15.5t-52.5 25t-41 37t-31.5 49t-19 63.5t-8 82t8 99l69 491h-190l35 256h190l58 406h299l-58 -406h305l-34 -256h-306l-67 -471q-12 -86 26.5 -117.5t120.5 -31.5h142l-37 -256h-142z" glyph-name="t" horiz-adv-x="913" unicode="t"/><glyph d="M1274 1126l-158 -1126h-291v141q-72 -72 -174 -111.5t-205 -39.5q-186 0 -286.5 121.5t-71.5 312.5l98 702h326l-94 -663q-12 -86 31 -137.5t131 -51.5q98 0 181 53.5t95 135.5l94 663h324z" glyph-name="u" horiz-adv-x="1306" unicode="u"/><glyph d="M1311 1126l-606 -1126h-308l-288 1126h348l145 -761l361 761h348z" glyph-name="v" horiz-adv-x="1263" unicode="v"/><glyph d="M1815 1126l-519 -1126h-366l-66 481l-200 -481h-367l-205 1126h369l80 -751l290 751h273l74 -751l272 751h365z" glyph-name="w" horiz-adv-x="1755" unicode="w"/><glyph d="M831 559l304 -559h-369l-162 330l-250 -330h-370l456 561l-299 565h367l162 -335l256 335h366z" glyph-name="x" horiz-adv-x="1280" unicode="x"/><glyph d="M1343 1126l-913 -1693h-293l352 651h-67l-283 1042h320l200 -716l377 716h307z" glyph-name="y" horiz-adv-x="1329" unicode="y"/><glyph d="M49 238l649 624h-559l37 264h969l-33 -233l-649 -629h567l-37 -264h-977z" glyph-name="z" horiz-adv-x="1146" unicode="z"/><glyph d="M287 -702q-111 0 -170.5 92t-40.5 227l69 496q23 160 3.5 214t-111.5 95l24 176q104 43 139.5 96.5t57.5 212.5l70 492q18 135 104 227t197 92h137l-27 -180q-53 0 -69.5 -1t-45 -6t-37.5 -19.5t-18.5 -38t-15.5 -64.5l-74 -532q-35 -252 -166 -367q98 -113 62 -367 l-76 -544q-10 -70 17.5 -91.5t134.5 -21.5l-27 -188h-137z" glyph-name="braceleft" horiz-adv-x="688" unicode="{"/><glyph d="M319 1536h185l-258 -1843h-185z" glyph-name="bar" horiz-adv-x="577" unicode="|"/><glyph d="M-94 -514q106 0 140 21.5t44 91.5l76 544q37 252 168 367q-98 113 -64 367l74 532q12 94 -13.5 111.5t-135.5 17.5l26 186h139q109 0 169.5 -93t41.5 -228l-69 -496q-20 -162 -1 -214t111 -95l-24 -176q-104 -43 -140 -96.5t-59 -212.5l-70 -496q-18 -133 -105 -226 t-196 -93h-139z" glyph-name="braceright" horiz-adv-x="688" unicode="}"/><glyph d="M727 342q-66 0 -124 32t-76.5 53.5t-57.5 70.5q-61 80 -125 80q-74 0 -124 -63.5t-50 -152.5h-152q2 158 102.5 262.5t246.5 104.5q80 0 136 -37t103 -112q57 -88 129 -88q70 0 121 58t49 152h150q2 -152 -94.5 -256t-233.5 -104z" glyph-name="asciitilde" horiz-adv-x="1112" unicode="~"/><glyph d="M323.5 688q-69.5 0 -111.5 49t-34 119q10 70 66.5 119t126 49t111.5 -49t32 -119q-8 -70 -64.5 -119t-126 -49zM186 510h224l-109 -1022h-297z" glyph-name="exclamdown" horiz-adv-x="638" unicode="¡"/><glyph d="M692 989q-115 0 -205 -80t-104 -192q-16 -113 51.5 -192t181.5 -79q143 0 236 70l-41 -287q-96 -39 -209 -45l-27 -186h-172l31 205q-180 45 -277.5 186t-70.5 327.5t163 328t329 186.5l28 205h172l-26 -187q109 -6 196 -43l-39 -286q-72 69 -217 69z" glyph-name="cent" horiz-adv-x="980" unicode="¢"/><glyph d="M80 842h106q-4 100 9 186q29 205 188.5 339t374.5 134q236 0 348.5 -143.5t62.5 -382.5h-278q12 143 -25 198.5t-147 55.5q-94 0 -155.5 -54.5t-76.5 -146.5q-12 -92 -4 -186h447l-37 -264h-385q4 -78 -8 -162q-6 -47 -21 -86q41 -14 96.5 -42t95.5 -43.5t72 -15.5 q66 0 92.5 42t32.5 153h277q-8 -207 -130 -338t-300 -131q-88 0 -174 34t-150.5 67.5t-99.5 33.5q-41 0 -55.5 -28.5t-6.5 -92.5h-280q-2 125 67.5 227.5t182.5 143.5q16 33 22 78q12 72 0 160h-178z" glyph-name="sterling" horiz-adv-x="1263" unicode="£"/><glyph d="M74 377l125 108q-57 117 -38 258.5t109 260.5l-90 104l180 166l95 -113q129 76 269 76t249 -76l125 111l137 -160l-123 -106q59 -119 38.5 -261.5t-112.5 -261.5l90 -106l-178 -164l-94 111q-129 -74 -271.5 -74t-248.5 74l-127 -111zM434 553q70 -80 182.5 -81t204.5 81 q90 78 105.5 191.5t-52.5 191.5q-70 78 -182 78t-203 -80q-88 -80 -104.5 -192.5t49.5 -188.5z" glyph-name="currency" horiz-adv-x="1286" unicode="¤"/><glyph d="M862 776h346l-26 -188h-363l-22 -154h362l-24 -174h-363l-35 -260h-260l35 260h-360l24 174h361l22 154h-360l26 188h342l-12 23l-383 737h277l290 -586l457 586h274l-585 -731z" glyph-name="yen" horiz-adv-x="1396" unicode="¥"/><glyph d="M319 1536h185l-105 -737h-184zM164 430h184l-102 -737h-185z" glyph-name="brokenbar" horiz-adv-x="577" unicode="¦"/><glyph d="M1087 539q68 -78 54 -189q-20 -147 -192.5 -246.5t-389.5 -99.5q-178 0 -318.5 69.5t-191.5 178.5l199 113q33 -70 125 -113t227 -43q127 0 219 39t103 106q8 59 -69 95t-189.5 59.5t-225 56.5t-183.5 105.5t-56 185.5q16 109 104 188q-68 74 -51 181q23 154 173 242.5 t341 88.5q129 0 245.5 -43t180.5 -114l-166 -123q-92 92 -274 92q-109 0 -191 -36t-90 -95q-6 -51 47 -86t139 -52.5t185.5 -45t182.5 -60t132 -101.5t35 -167q-13 -100 -105 -186zM420 864q-6 -39 21.5 -67.5t83 -48t114.5 -34t141 -33.5t138 -40q49 39 55 86 q6 37 -21.5 64.5t-84 47t-116 33t-140.5 33t-136 39.5q-49 -33 -55 -80z" glyph-name="section" horiz-adv-x="1277" unicode="§"/><glyph d="M336 1180q-70 0 -113 49t-33 119q8 70 65.5 119t127.5 49t112 -49.5t31 -118.5q-8 -70 -64 -119t-126 -49zM782 1180q-68 0 -110.5 49t-34.5 119q8 68 66.5 118t125.5 50q70 0 112 -49.5t32 -118.5q-8 -70 -64.5 -119t-126.5 -49z" glyph-name="dieresis" horiz-adv-x="47" unicode="¨"/><glyph d="M770 -20q-326 0 -524.5 231t-153.5 557q47 326 310.5 557t589 231t524 -231t153.5 -557t-309 -557t-590 -231zM792.5 139q264.5 0 473.5 182.5t245.5 446.5t-120 447.5t-420.5 183.5t-474 -183.5t-247 -447.5t120.5 -446.5t422 -182.5zM817 365q-168 0 -260 117.5 t-70 287.5q25 170 149 287t294 117q152 0 239.5 -88.5t75.5 -231.5h-149q2 66 -44 118t-143 52q-109 0 -181.5 -72.5t-88.5 -181.5q-14 -111 39 -182.5t160 -71.5q92 0 154.5 51t78.5 113h150q-29 -125 -147 -220t-257 -95z" glyph-name="copyright" horiz-adv-x="1730" unicode="©"/><glyph d="M846 1536l-86 -614h-144l15 100q-100 -113 -240 -113q-127 0 -203.5 93.5t-58.5 226.5t121.5 226t230.5 93q139 0 207 -112l14 100h144zM438 1034q82 0 146.5 57.5t75 137.5t-38 137t-129.5 57q-80 0 -144.5 -57t-75 -137t37.5 -137.5t128 -57.5z" glyph-name="ordfeminine" horiz-adv-x="819" unicode="ª"/><glyph d="M180 571l365 377h237l-364 -377l258 -376h-238zM651 571l365 377h237l-364 -377l258 -376h-238z" glyph-name="guillemotleft" horiz-adv-x="1404" unicode="«"/><glyph d="M1274 729h-1112l26 189h1299l-101 -713h-186z" glyph-name="logicalnot" horiz-adv-x="1601" unicode="¬"/><glyph d="M147 633h717l-28 -199h-717z" glyph-name="uni00AD" horiz-adv-x="1208" unicode="­"/><glyph d="M991.5 1556q325.5 0 524 -231t153.5 -557t-309 -557t-590 -231t-524.5 231t-153.5 557q47 326 310.5 557t589 231zM792.5 139q264.5 0 473.5 182.5t245.5 446.5t-120 447.5t-420.5 183.5t-474 -183.5t-247 -447.5t120.5 -446.5t422 -182.5zM1130 414h-161l-129 266h-70 l-37 -266h-145l100 716h299q86 0 138.5 -70.5t39.5 -162.5q-10 -72 -61 -132t-119 -75zM932 793q37 0 66.5 28.5t35.5 75.5q8 47 -13.5 78t-57.5 31h-146l-31 -213h146z" glyph-name="registered" horiz-adv-x="1730" unicode="®"/><glyph d="M131 1384h635l-27 -188h-635z" glyph-name="macron" horiz-adv-x="55" unicode="¯"/><glyph d="M516 1008q-115 0 -183.5 79.5t-51.5 194.5q14 115 105 194.5t206 79.5t183.5 -79.5t53.5 -194.5q-16 -115 -108 -194.5t-205 -79.5zM537 1151q55 0 98 38t51 93q8 57 -24.5 95t-88.5 38q-57 0 -100 -38t-51 -95q-8 -55 25 -93t90 -38z" glyph-name="degree" horiz-adv-x="931" unicode="°"/><glyph d="M1536 930l-27 -189h-620l-51 -368h-189l51 368h-620l26 189h621l53 368h189l-54 -368h621zM0 170h1430l-23 -170h-1430z" glyph-name="plusminus" horiz-adv-x="1566" unicode="±"/><glyph d="M115 883q276 256 340.5 325.5t72.5 118.5q6 53 -20.5 79t-69.5 26q-47 0 -81.5 -31t-37.5 -82h-137q8 104 90 170.5t189 66.5q100 0 158.5 -59t46.5 -154q-12 -88 -74 -161.5t-287 -278.5h318l-19 -125h-504z" glyph-name="uni00B2" horiz-adv-x="659" unicode="²"/><glyph d="M461 819q-96 0 -154.5 59.5t-46.5 143.5l127 2q-4 -35 21.5 -59.5t68.5 -24.5t76 30.5t39 76.5q8 45 -16.5 75.5t-67.5 30.5h-57l14 102h47q37 0 62.5 24t31.5 62q4 33 -15.5 54.5t-55.5 21.5q-31 0 -55.5 -19.5t-28.5 -45.5l-125 2q12 78 77.5 130t147.5 52 q84 0 133 -52t39 -130q-6 -82 -92 -131q106 -55 88 -176q-12 -96 -87 -162t-171 -66z" glyph-name="uni00B3" horiz-adv-x="702" unicode="³"/><glyph d="M322 1536h299l-291 -342h-226z" glyph-name="acute" horiz-adv-x="47" unicode="´"/><glyph d="M1180 1024l-144 -1024h-299l15 115q-139 -135 -316 -135q-98 0 -178 45l-76 -537h-217l217 1536h297l-84 -592q-10 -80 38 -135t128 -55q88 0 156.5 55t79.5 135l84 592h299z" glyph-name="uni00B5" horiz-adv-x="1208" unicode="µ"/><glyph d="M582 727h-37q-170 0 -280.5 120t-88.5 286q25 166 169 284.5t314 118.5h187l-258 -1843h-150zM1038 1536h152l-258 -1843h-152z" glyph-name="paragraph" horiz-adv-x="1277" unicode="¶"/><glyph d="M268 614q-49 0 -81.5 36t-24.5 87t50 88t91 37t82 -37t24.5 -88t-50.5 -87t-91 -36z" glyph-name="periodcentered" horiz-adv-x="550" unicode="·"/><glyph d="M100 -532q-76 0 -139 44t-80 107l137 45q10 -27 40 -45t61 -18q37 0 65.5 26.5t32.5 63.5q10 57 -37 74.5t-123 -15.5l-96 62l129 188h137l-88 -123q104 18 167 -36t48 -150q-12 -94 -86 -158.5t-168 -64.5z" glyph-name="cedilla" horiz-adv-x="47" unicode="¸"/><glyph d="M264 1411h-108l18 125h252l-109 -768h-143z" glyph-name="uni00B9" horiz-adv-x="516" unicode="¹"/><glyph d="M420 909q-139 0 -224 93.5t-67 226.5t130 226t251 93q141 0 226 -93t66.5 -226t-130 -226.5t-252.5 -93.5zM438 1034q82 0 146.5 57.5t75 137.5t-38 137t-129.5 57q-80 0 -144.5 -57t-75 -137t37.5 -137.5t128 -57.5z" glyph-name="ordmasculine" horiz-adv-x="772" unicode="º"/><glyph d="M492 571l-259 377h236l258 -377l-365 -376h-235zM961 571l-259 377h240l258 -377l-364 -376h-240z" glyph-name="guillemotright" horiz-adv-x="1404" unicode="»"/><glyph d="M653.5 1055q69.5 0 111.5 -49.5t32 -118.5q-8 -70 -64.5 -120t-126 -50t-111.5 50t-34 120q10 70 66.5 119t126 49zM723 545q-12 -90 -61.5 -165t-111 -126t-121.5 -96t-106.5 -98.5t-54.5 -110.5q-12 -88 48.5 -148.5t160.5 -60.5q115 0 194 77t79 187h264 q-12 -221 -178 -372.5t-396 -151.5q-211 0 -337 136t-97 333q12 92 82 181t146.5 147.5t143 127t75.5 121.5l14 111h268z" glyph-name="questiondown" horiz-adv-x="1175" unicode="¿"/><glyph d="M817 1706l-199 342h300l122 -342h-223zM1071 311h-668l-159 -311h-334l831 1536h346l402 -1536h-334zM1020 578l-150 645l-340 -645h490z" glyph-name="Agrave" horiz-adv-x="1585" unicode="À"/><glyph d="M1057 1706h-226l218 342h299zM1071 311h-668l-159 -311h-334l831 1536h346l402 -1536h-334zM1020 578l-150 645l-340 -645h490z" glyph-name="Aacute" horiz-adv-x="1585" unicode="Á"/><glyph d="M793 1698h-226l264 350h310l170 -350h-228l-114 221zM1071 311h-668l-159 -311h-334l831 1536h346l402 -1536h-334zM1020 578l-150 645l-340 -645h490z" glyph-name="Acircumflex" horiz-adv-x="1585" unicode="Â"/><glyph d="M600 1690q-12 133 60.5 222t185.5 89q127 0 192 -119q14 -39 49 -39q37 0 53.5 39t4.5 100h174q12 -131 -60.5 -220t-189.5 -89q-121 0 -188 119q-20 39 -52 39q-37 0 -53 -40t-2 -101h-174zM1071 311h-668l-159 -311h-334l831 1536h346l402 -1536h-334zM1020 578 l-150 645l-340 -645h490z" glyph-name="Atilde" horiz-adv-x="1585" unicode="Ã"/><glyph d="M714.5 1692q-69.5 0 -112.5 49t-32.5 118.5t66.5 119t125.5 49.5t111.5 -49.5t32 -118.5q-8 -70 -64.5 -119t-126 -49zM1161 1692q-68 0 -110.5 49t-34.5 119q10 70 67.5 119t124.5 49q70 0 112 -49.5t32 -118.5q-8 -70 -64.5 -119t-126.5 -49zM1071 311h-668l-159 -311 h-334l831 1536h346l402 -1536h-334zM1020 578l-150 645l-340 -645h490z" glyph-name="Adieresis" horiz-adv-x="1585" unicode="Ä"/><glyph d="M1096 1505l393 -1505h-334l-84 311h-668l-159 -311h-334l815 1507q-45 70 -33 152q14 96 95 166.5t182 70.5q98 0 157.5 -70.5t44.5 -166.5q-12 -91 -75 -154zM817 1659q-6 -53 22.5 -86t78.5 -33q51 0 88.5 33t44.5 86q8 47 -21 83t-78 36t-88 -35t-47 -84zM530 578h490 l-150 645z" glyph-name="Aring" horiz-adv-x="1585" unicode="Å"/><glyph d="M741 1536h1227l-37 -260h-608l-55 -391h522l-33 -232h-522l-53 -391h608l-37 -262h-907l45 319h-479l-156 -319h-346zM926 553l100 723h-108l-375 -723h383z" glyph-name="AE" horiz-adv-x="1886" unicode="Æ"/><glyph d="M911 1262q-211 0 -353 -140.5t-173 -353.5q-31 -215 72.5 -355.5t314.5 -140.5q182 0 303 100.5t154 221.5h291q-51 -231 -261 -411.5t-468 -200.5l-74 -105q104 18 166.5 -36t48.5 -150q-12 -94 -86 -158.5t-168 -64.5q-76 0 -139.5 44t-79.5 107l137 45q10 -27 40 -45 t60 -18q37 0 66 26.5t33 63.5q10 57 -37 74.5t-123 -15.5l-96 62l114 172q-293 29 -448.5 251t-112.5 533q47 334 289 561t571 227q295 0 466 -173t151 -451h-291q0 129 -89.5 229.5t-277.5 100.5z" glyph-name="Ccedilla" horiz-adv-x="1669" unicode="Ç"/><glyph d="M602 1706l-199 342h299l123 -342h-223zM518 1268l-51 -365h616l-39 -270h-616l-51 -363h702l-37 -270h-1011l215 1536h1011l-36 -268h-703z" glyph-name="Egrave" horiz-adv-x="1249" unicode="È"/><glyph d="M842 1706h-226l218 342h299zM518 1268l-51 -365h616l-39 -270h-616l-51 -363h702l-37 -270h-1011l215 1536h1011l-36 -268h-703z" glyph-name="Eacute" horiz-adv-x="1249" unicode="É"/><glyph d="M578 1698h-226l264 350h310l170 -350h-228l-114 221zM518 1268l-51 -365h616l-39 -270h-616l-51 -363h702l-37 -270h-1011l215 1536h1011l-36 -268h-703z" glyph-name="Ecircumflex" horiz-adv-x="1249" unicode="Ê"/><glyph d="M499.5 1692q-69.5 0 -112.5 49t-32.5 118.5t66.5 119t125.5 49.5t111.5 -49.5t32 -118.5q-8 -70 -64.5 -119t-126 -49zM946 1692q-68 0 -110.5 49t-34.5 119q10 70 67.5 119t124.5 49q70 0 112 -49.5t32 -118.5q-8 -70 -64.5 -119t-126.5 -49zM518 1268l-51 -365h616 l-39 -270h-616l-51 -363h702l-37 -270h-1011l215 1536h1011l-36 -268h-703z" glyph-name="Edieresis" horiz-adv-x="1249" unicode="Ë"/><glyph d="M317 2048h301l123 -342h-223zM465 1536h309l-215 -1536h-309z" glyph-name="Igrave" horiz-adv-x="774" unicode="Ì"/><glyph d="M530 2048h299l-290 -342h-226zM246 1536h309l-215 -1536h-309z" glyph-name="Iacute" horiz-adv-x="757" unicode="Í"/><glyph d="M535 2048h309l170 -350h-228l-114 221l-176 -221h-228zM467 1536h309l-215 -1536h-309z" glyph-name="Icircumflex" horiz-adv-x="991" unicode="Î"/><glyph d="M438.5 1692q-69.5 0 -112.5 49t-35 119q10 70 67.5 119t127 49t111.5 -49.5t32 -118.5q-8 -70 -64.5 -119t-126 -49zM885 1692q-68 0 -111 49t-35 119q10 70 67.5 119t125.5 49q70 0 111.5 -49.5t31.5 -118.5q-8 -70 -64 -119t-126 -49zM487 1536h310l-215 -1536h-310z " glyph-name="Idieresis" horiz-adv-x="1030" unicode="Ï"/><glyph d="M887 1536q317 0 510.5 -225.5t148.5 -542.5t-301 -542.5t-573 -225.5h-492l96 684h-149l23 168h149l96 684h492zM707 270q195 0 349 144.5t183 353.5q31 211 -83 355.5t-308 144.5h-182l-60 -416h240l-23 -168h-239l-60 -414h183z" glyph-name="Eth" horiz-adv-x="1607" unicode="Ð"/><glyph d="M639 1690q-12 133 60.5 222t185.5 89q127 0 192 -119q14 -39 49 -39q37 0 53.5 39t4.5 100h174q12 -131 -60.5 -220t-189.5 -89q-121 0 -188 119q-20 39 -52 39q-37 0 -53 -40t-2 -101h-174zM1655 1536l-215 -1536h-316l-635 1069l-149 -1069h-309l215 1536h315 l637 -1067l150 1067h307z" glyph-name="Ntilde" horiz-adv-x="1654" unicode="Ñ"/><glyph d="M651 2048h299l123 -342h-223zM731 -20q-330 0 -508 227t-131 561t289 561t571 227q328 0 507 -228t132 -560t-289.5 -560t-570.5 -228zM774 279q209 0 348.5 138t169.5 351q31 215 -70.5 353.5t-310.5 138.5q-211 0 -352 -138.5t-172 -353.5q-31 -213 72.5 -351 t314.5 -138z" glyph-name="Ograve" horiz-adv-x="1652" unicode="Ò"/><glyph d="M1081 2048h299l-290 -342h-226zM731 -20q-330 0 -508 227t-131 561t289 561t571 227q328 0 507 -228t132 -560t-289.5 -560t-570.5 -228zM774 279q209 0 348.5 138t169.5 351q31 215 -70.5 353.5t-310.5 138.5q-211 0 -352 -138.5t-172 -353.5q-31 -213 72.5 -351 t314.5 -138z" glyph-name="Oacute" horiz-adv-x="1652" unicode="Ó"/><glyph d="M866 2048h310l170 -350h-228l-114 221l-177 -221h-225zM731 -20q-330 0 -508 227t-131 561t289 561t571 227q328 0 507 -228t132 -560t-289.5 -560t-570.5 -228zM774 279q209 0 348.5 138t169.5 351q31 215 -70.5 353.5t-310.5 138.5q-211 0 -352 -138.5t-172 -353.5 q-31 -213 72.5 -351t314.5 -138z" glyph-name="Ocircumflex" horiz-adv-x="1652" unicode="Ô"/><glyph d="M1102 1673q-121 0 -189 119q-20 39 -51 39q-37 0 -53 -40t-2 -101h-174q-12 133 60.5 222t185.5 89q127 0 192 -119q14 -39 49 -39q37 0 53.5 39t4.5 100h174q12 -131 -60.5 -220t-189.5 -89zM731 -20q-330 0 -508 227t-131 561t289 561t571 227q328 0 507 -228t132 -560 t-289.5 -560t-570.5 -228zM774 279q209 0 348.5 138t169.5 351q31 215 -70.5 353.5t-310.5 138.5q-211 0 -352 -138.5t-172 -353.5q-31 -213 72.5 -351t314.5 -138z" glyph-name="Otilde" horiz-adv-x="1652" unicode="Õ"/><glyph d="M749.5 1692q-69.5 0 -112.5 49t-33 118.5t66.5 119t126 49.5t111.5 -49.5t32 -118.5q-8 -70 -64.5 -119t-126 -49zM1196 1692q-68 0 -111 49t-34 119q10 70 67.5 119t124.5 49q70 0 112 -49.5t31 -118.5q-8 -70 -64 -119t-126 -49zM731 -20q-330 0 -508 227t-131 561 t289 561t571 227q328 0 507 -228t132 -560t-289.5 -560t-570.5 -228zM774 279q209 0 348.5 138t169.5 351q31 215 -70.5 353.5t-310.5 138.5q-211 0 -352 -138.5t-172 -353.5q-31 -213 72.5 -351t314.5 -138z" glyph-name="Odieresis" horiz-adv-x="1652" unicode="Ö"/><glyph d="M932 635l319 -369l-180 -160l-319 371l-422 -371l-135 160l419 369l-315 371l178 157l320 -370l422 370l137 -157z" glyph-name="multiply" horiz-adv-x="1499" unicode="×"/><glyph d="M1419 1374q106 -111 152.5 -268.5t19.5 -337.5q-47 -332 -289.5 -560t-570.5 -228q-209 0 -356 94l-113 -142h-182l184 230q-106 109 -151 266.5t-21 339.5q47 334 289 561t571 227q201 0 357 -94l110 140h183zM387 768q-31 -219 78 -356l645 802q-86 45 -199 46 q-211 0 -352 -138.5t-172 -353.5zM774 279q209 0 348.5 138t169.5 351q33 221 -71 356l-646 -802q80 -43 199 -43z" glyph-name="Oslash" horiz-adv-x="1652" unicode="Ø"/><glyph d="M580 2048h299l122 -342h-223zM659.5 -20q-264.5 0 -425 149.5t-130.5 366.5l146 1040h309l-139 -985q-16 -127 64.5 -214t213.5 -87t238.5 88t122.5 213l139 985h309l-145 -1040q-31 -217 -234.5 -366.5t-468 -149.5z" glyph-name="Ugrave" horiz-adv-x="1511" unicode="Ù"/><glyph d="M1010 2048h299l-291 -342h-225zM659.5 -20q-264.5 0 -425 149.5t-130.5 366.5l146 1040h309l-139 -985q-16 -127 64.5 -214t213.5 -87t238.5 88t122.5 213l139 985h309l-145 -1040q-31 -217 -234.5 -366.5t-468 -149.5z" glyph-name="Uacute" horiz-adv-x="1511" unicode="Ú"/><glyph d="M795 2048h309l170 -350h-227l-115 221l-176 -221h-226zM659.5 -20q-264.5 0 -425 149.5t-130.5 366.5l146 1040h309l-139 -985q-16 -127 64.5 -214t213.5 -87t238.5 88t122.5 213l139 985h309l-145 -1040q-31 -217 -234.5 -366.5t-468 -149.5z" glyph-name="Ucircumflex" horiz-adv-x="1511" unicode="Û"/><glyph d="M678 1692q-70 0 -113 49t-32.5 118.5t66.5 119t126 49.5t112 -49.5t31 -118.5q-8 -70 -64 -119t-126 -49zM1124 1692q-68 0 -110.5 49t-34.5 119q10 70 67.5 119t124.5 49q70 0 112 -49.5t32 -118.5q-8 -70 -64.5 -119t-126.5 -49zM659.5 -20q-264.5 0 -425 149.5 t-130.5 366.5l146 1040h309l-139 -985q-16 -127 64.5 -214t213.5 -87t238.5 88t122.5 213l139 985h309l-145 -1040q-31 -217 -234.5 -366.5t-468 -149.5z" glyph-name="Udieresis" horiz-adv-x="1511" unicode="Ü"/><glyph d="M961 1706h-226l217 342h299zM858 727l-100 -727h-307l100 721l-426 815h344l270 -551l430 551h340z" glyph-name="Yacute" horiz-adv-x="1388" unicode="Ý"/><glyph d="M846 1315q188 0 299.5 -134t85.5 -327q-27 -186 -175.5 -314t-336.5 -128h-332l-57 -412h-299l184 1315l31 221h299l-31 -221h332zM745 674q80 0 143.5 56t74 134t-36.5 132.5t-127 54.5h-322l-53 -377h321z" glyph-name="Thorn" horiz-adv-x="1234" unicode="Þ"/><glyph d="M1102 803q88 -63 130 -163.5t25 -217.5q-27 -184 -167 -313t-316 -129q-84 0 -183 27.5t-151 72.5l148 231q74 -59 168 -55q72 4 133 56.5t72 127.5q12 88 -46.5 150.5t-152.5 62.5h-82l35 244h33q84 0 153.5 58.5t81.5 140.5q10 78 -46 129t-153 51q-106 0 -186 -61.5 t-94 -155.5l-148 -1059h-297l148 1059q29 207 204 342t406 135q221 0 347 -124t100 -312q-25 -172 -162 -297z" glyph-name="germandbls" horiz-adv-x="1398" unicode="ß"/><glyph d="M776 1194h-223l-199 342h299zM999 373q-18 -135 72 -135l-33 -238q-10 0 -38.5 -1t-45.5 -1h-27.5h-30.5t-28.5 1t-31 3t-28 6t-28.5 9.5t-23.5 14.5t-23.5 20t-17 25.5t-16 33.5q-55 -57 -155.5 -92t-210.5 -35q-166 0 -253 88t-65 247q20 150 165 243t345 112l224 20 l4 19q12 94 -25 135t-123 41q-203 0 -241 -172h-263q37 182 171.5 300t373.5 118q215 0 322.5 -104.5t77.5 -319.5q-15 -113 -48 -338zM696 317l25 175l-156 -21q-215 -29 -229 -133q-8 -55 24.5 -88t92.5 -33q116 0 243 100z" glyph-name="agrave" horiz-adv-x="1181" unicode="à"/><glyph d="M1083 1536l-290 -342h-226l217 342h299zM999 373q-18 -135 72 -135l-33 -238q-10 0 -38.5 -1t-45.5 -1h-27.5h-30.5t-28.5 1t-31 3t-28 6t-28.5 9.5t-23.5 14.5t-23.5 20t-17 25.5t-16 33.5q-55 -57 -155.5 -92t-210.5 -35q-166 0 -253 88t-65 247q20 150 165 243 t345 112l224 20l4 19q12 94 -25 135t-123 41q-203 0 -241 -172h-263q37 182 171.5 300t373.5 118q215 0 322.5 -104.5t77.5 -319.5q-15 -113 -48 -338zM696 317l25 175l-156 -21q-215 -29 -229 -133q-8 -55 24.5 -88t92.5 -33q116 0 243 100z" glyph-name="aacute" horiz-adv-x="1181" unicode="á"/><glyph d="M625 1407l-176 -221h-226l264 350h310l170 -350h-228zM999 373q-18 -135 72 -135l-33 -238q-10 0 -38.5 -1t-45.5 -1h-27.5h-30.5t-28.5 1t-31 3t-28 6t-28.5 9.5t-23.5 14.5t-23.5 20t-17 25.5t-16 33.5q-55 -57 -155.5 -92t-210.5 -35q-166 0 -253 88t-65 247 q20 150 165 243t345 112l224 20l4 19q12 94 -25 135t-123 41q-203 0 -241 -172h-263q37 182 171.5 300t373.5 118q215 0 322.5 -104.5t77.5 -319.5q-15 -113 -48 -338zM696 317l25 175l-156 -21q-215 -29 -229 -133q-8 -55 24.5 -88t92.5 -33q116 0 243 100z" glyph-name="acircumflex" horiz-adv-x="1181" unicode="â"/><glyph d="M270 1178q-10 133 64 222t184 89q127 0 193 -119q14 -39 49 -39q37 0 53 39t4 100h174q10 -131 -61.5 -220t-188.5 -89q-121 0 -190 119q-18 39 -49 39q-35 0 -52.5 -40t-5.5 -101h-174zM334 -16q-166 0 -253 88t-65 247q20 150 165 243t345 112l224 20l4 19 q12 94 -25 135t-123 41q-203 0 -241 -172h-263q37 182 171.5 300t373.5 118q215 0 322.5 -104.5t77.5 -319.5q-14 -113 -48 -338q-18 -135 72 -135l-33 -238q-10 0 -38.5 -1t-45.5 -1h-27.5h-30.5t-28.5 1t-31 3t-28 6t-28.5 9.5t-23.5 14.5t-23.5 20t-17 25.5t-16 33.5 q-55 -57 -155 -92t-211 -35zM453 217q117 0 243 100l25 175l-156 -21q-215 -29 -229 -133q-8 -55 25 -88t92 -33z" glyph-name="atilde" horiz-adv-x="1181" unicode="ã"/><glyph d="M370.5 1180q-69.5 0 -112.5 49t-33 119q8 70 65.5 119t127 49t111.5 -49.5t32 -118.5q-8 -70 -64.5 -119t-126 -49zM817 1180q-68 0 -110.5 49t-34.5 119q8 68 66.5 118t125.5 50q70 0 112 -49.5t32 -118.5q-8 -70 -64.5 -119t-126.5 -49zM334 -16q-166 0 -253 88 t-65 247q20 150 165 243t345 112l224 20l4 19q12 94 -25 135t-123 41q-203 0 -241 -172h-263q37 182 171.5 300t373.5 118q215 0 322.5 -104.5t77.5 -319.5q-14 -113 -48 -338q-18 -135 72 -135l-33 -238q-10 0 -38.5 -1t-45.5 -1h-27.5h-30.5t-28.5 1t-31 3t-28 6 t-28.5 9.5t-23.5 14.5t-23.5 20t-17 25.5t-16 33.5q-55 -57 -155 -92t-211 -35zM453 217q117 0 243 100l25 175l-156 -21q-215 -29 -229 -133q-8 -55 25 -88t92 -33z" glyph-name="adieresis" horiz-adv-x="1181" unicode="ä"/><glyph d="M999 373q-18 -135 72 -135l-33 -238q-10 0 -38.5 -1t-45.5 -1h-27.5h-30.5t-28.5 1t-31 3t-28 6t-28.5 9.5t-23.5 14.5t-23.5 20t-17 25.5t-16 33.5q-55 -57 -155.5 -92t-210.5 -35q-166 0 -253 88t-65 247q20 150 165 243t345 112l224 20l4 19q12 94 -25 135t-123 41 q-203 0 -241 -172h-263q35 166 149 280.5t318 132.5q-94 6 -149 77t-41 165q14 96 94 167t180 71q98 0 158.5 -71t46.5 -167q-12 -88 -77.5 -154.5t-151.5 -82.5h18q215 0 322.5 -104.5t77.5 -319.5q-15 -113 -48 -338zM506 1372q-8 -53 20.5 -86t77.5 -33t87 33t46 86 q6 49 -22.5 84t-77.5 35t-87 -35t-44 -84zM696 317l25 175l-156 -21q-215 -29 -229 -133q-8 -55 24.5 -88t92.5 -33q116 0 243 100z" glyph-name="aring" horiz-adv-x="1181" unicode="å"/><glyph d="M2028 563q-6 -49 -21 -96h-756q-2 -111 55.5 -173.5t157.5 -62.5q176 0 262 131h259q-53 -164 -200 -272t-364 -108q-301 0 -430 235l-28 -215h-263l-4 111q-115 -145 -381 -127q-156 10 -235.5 96t-56.5 240q20 152 165.5 242.5t341.5 90.5h222l8 60q12 94 -25 135 t-123 41q-201 0 -241 -172h-260q37 182 171 300t373 118q168 0 274.5 -64.5t131.5 -195.5q188 266 526 266q242 0 360 -157t81 -423zM1288 686h449q-6 203 -191 203q-186 0 -258 -203zM705 319l18 134h-152q-96 0 -158.5 -29t-70.5 -84t25.5 -88t95.5 -33q111 0 242 100z " glyph-name="ae" horiz-adv-x="2084" unicode="æ"/><glyph d="M1147 676h-285q2 80 -60.5 138t-160.5 58q-123 0 -198.5 -83.5t-96.5 -223.5q-18 -137 34 -222t175 -85q96 0 175 62.5t101 140.5h285q-18 -80 -55 -151.5t-103.5 -147.5t-181 -122t-262.5 -50l-6 -8l-74 -105q104 18 167 -36t48 -150q-12 -94 -86 -158.5t-168 -64.5 q-76 0 -139 44t-80 107l137 45q10 -27 40 -45t61 -18q37 0 65.5 26.5t32.5 63.5q10 57 -37 74.5t-123 -15.5l-96 62l121 176l10 10q-199 33 -297 187.5t-65 379.5q37 256 207.5 414t418.5 158q125 0 219.5 -32t146.5 -79t84 -112.5t40 -122t6 -115.5z" glyph-name="ccedilla" horiz-adv-x="1179" unicode="ç"/><glyph d="M535 1196l-199 342h299l123 -342h-223zM1106 565q-6 -41 -19 -96h-757q-2 -111 56 -173.5t159 -62.5q176 0 262 132h258q-53 -164 -199.5 -269.5t-363.5 -105.5q-248 0 -378 161.5t-95 411.5q37 254 205.5 414t431.5 160q242 0 360.5 -154t79.5 -418zM627 891 q-188 0 -260 -203h448q-4 203 -188 203z" glyph-name="egrave" horiz-adv-x="1187" unicode="è"/><glyph d="M1065 1538l-291 -342h-225l217 342h299zM666 1137q242 0 360.5 -154t79.5 -418q-6 -41 -19 -96h-757q-2 -111 56 -173.5t159 -62.5q176 0 262 132h258q-53 -164 -199.5 -269.5t-363.5 -105.5q-248 0 -378 161.5t-95 411.5q37 254 206 414t431 160zM367 688h448 q-4 203 -188 203q-188 0 -260 -203z" glyph-name="eacute" horiz-adv-x="1187" unicode="é"/><glyph d="M510 1188h-225l264 350h309l170 -350h-227l-115 221zM1106 565q-6 -41 -19 -96h-757q-2 -111 56 -173.5t159 -62.5q176 0 262 132h258q-53 -164 -199.5 -269.5t-363.5 -105.5q-248 0 -378 161.5t-95 411.5q37 254 205.5 414t431.5 160q242 0 360.5 -154t79.5 -418z M627 891q-188 0 -260 -203h448q-4 203 -188 203z" glyph-name="ecircumflex" horiz-adv-x="1187" unicode="ê"/><glyph d="M432 1182q-70 0 -113 49t-32.5 118.5t67 119t126 49.5t111.5 -49.5t32 -118.5q-8 -70 -64.5 -119t-126.5 -49zM879 1182q-68 0 -111 49t-35 119q10 70 67.5 119t125.5 49q70 0 111.5 -49.5t31.5 -118.5q-8 -70 -64 -119t-126 -49zM1106 565q-6 -41 -19 -96h-757 q-2 -111 56 -173.5t159 -62.5q176 0 262 132h258q-53 -164 -199.5 -269.5t-363.5 -105.5q-248 0 -378 161.5t-95 411.5q37 254 205.5 414t431.5 160q242 0 360.5 -154t79.5 -418zM627 891q-188 0 -260 -203h448q-4 203 -188 203z" glyph-name="edieresis" horiz-adv-x="1187" unicode="ë"/><glyph d="M174 1536h301l123 -342h-223zM326 1024h299l-144 -1024h-299z" glyph-name="igrave" horiz-adv-x="686" unicode="ì"/><glyph d="M426 1536h299l-291 -342h-225zM143 1024h299l-143 -1024h-299z" glyph-name="iacute" horiz-adv-x="673" unicode="í"/><glyph d="M432 1536h309l170 -350h-227l-115 221l-176 -221h-227zM367 1024h299l-144 -1024h-299z" glyph-name="icircumflex" horiz-adv-x="950" unicode="î"/><glyph d="M336 1180q-70 0 -113 49t-34.5 118.5t66.5 119t128 49.5t112 -49.5t31 -118.5q-8 -70 -64 -119t-126 -49zM782 1180q-68 0 -110.5 49t-34.5 119q8 68 66.5 118t125.5 50q70 0 112 -49.5t32 -118.5q-8 -70 -64.5 -119t-126.5 -49zM387 1024h299l-143 -1024h-299z" glyph-name="idieresis" horiz-adv-x="989" unicode="ï"/><glyph d="M905 1413q166 -139 241 -376.5t36 -524.5q-33 -223 -220.5 -377.5t-424.5 -154.5q-240 0 -383.5 154.5t-110.5 377.5q31 223 217 377.5t426 154.5q90 0 174 -26q-41 129 -133 203l-109 -117l-79 70l96 102q-88 41 -236 49l95 236q178 0 325 -86l101 108l81 -67zM573 242 q113 0 203 78.5t107 191.5q14 113 -53.5 192.5t-180.5 79.5q-115 0 -205 -79.5t-104 -192.5q-16 -113 51 -191.5t182 -78.5z" glyph-name="eth" horiz-adv-x="1249" unicode="ð"/><glyph d="M354 1178q-10 133 64 222t184 89q127 0 193 -119q14 -39 49 -39q37 0 53 39t4 100h174q10 -131 -61.5 -220t-188.5 -89q-121 0 -190 119q-18 39 -49 39q-35 0 -52.5 -40t-5.5 -101h-174zM838 1141q197 0 291 -107.5t67 -304.5l-102 -729h-326l96 690q25 168 -164 168 q-100 0 -181 -51t-93 -135l-94 -672h-326l158 1126h293l-2 -137q74 70 177.5 111t205.5 41z" glyph-name="ntilde" horiz-adv-x="1267" unicode="ñ"/><glyph d="M350 1536h299l123 -342h-223zM547 -14q-252 0 -394.5 166.5t-107.5 412.5t223.5 413t440.5 167t393 -167t106.5 -413t-222 -412.5t-439.5 -166.5zM586 270q115 0 200.5 85t102.5 210q18 125 -43.5 211t-175.5 86q-117 0 -202 -85t-103 -212q-16 -127 44 -211t177 -84z " glyph-name="ograve" horiz-adv-x="1275" unicode="ò"/><glyph d="M780 1536h299l-291 -342h-225zM547 -14q-252 0 -394.5 166.5t-107.5 412.5t223.5 413t440.5 167t393 -167t106.5 -413t-222 -412.5t-439.5 -166.5zM586 270q115 0 200.5 85t102.5 210q18 125 -43.5 211t-175.5 86q-117 0 -202 -85t-103 -212q-16 -127 44 -211t177 -84z " glyph-name="oacute" horiz-adv-x="1275" unicode="ó"/><glyph d="M565 1536h309l170 -350h-227l-115 221l-176 -221h-225zM547 -14q-252 0 -394.5 166.5t-107.5 412.5t223.5 413t440.5 167t393 -167t106.5 -413t-222 -412.5t-439.5 -166.5zM586 270q115 0 200.5 85t102.5 210q18 125 -43.5 211t-175.5 86q-117 0 -202 -85t-103 -212 q-16 -127 44 -211t177 -84z" glyph-name="ocircumflex" horiz-adv-x="1275" unicode="ô"/><glyph d="M801 1161q-121 0 -191 119q-18 39 -49 39q-35 0 -52 -40t-5 -101h-174q-10 133 63.5 222t184.5 89q127 0 192 -119q14 -39 49 -39q37 0 53.5 39t4.5 100h174q10 -131 -61.5 -220t-188.5 -89zM547 -14q-252 0 -394.5 166.5t-107.5 412.5t223.5 413t440.5 167t393 -167 t106.5 -413t-222 -412.5t-439.5 -166.5zM586 270q115 0 200.5 85t102.5 210q18 125 -43.5 211t-175.5 86q-117 0 -202 -85t-103 -212q-16 -127 44 -211t177 -84z" glyph-name="otilde" horiz-adv-x="1275" unicode="õ"/><glyph d="M489.5 1180q-69.5 0 -112.5 49t-33 119q8 70 65.5 119t127 49t111.5 -49.5t32 -118.5q-8 -70 -64.5 -119t-126 -49zM936 1180q-68 0 -111 49t-34 119q8 68 66 118t126 50q70 0 112 -49.5t31 -118.5q-8 -70 -64 -119t-126 -49zM547 -14q-252 0 -394.5 166.5t-107.5 412.5 t223.5 413t440.5 167t393 -167t106.5 -413t-222 -412.5t-439.5 -166.5zM586 270q115 0 200.5 85t102.5 210q18 125 -43.5 211t-175.5 86q-117 0 -202 -85t-103 -212q-16 -127 44 -211t177 -84z" glyph-name="odieresis" horiz-adv-x="1275" unicode="ö"/><glyph d="M718.5 762q-61.5 0 -99 44t-29.5 105q10 59 60 104.5t109.5 45.5t98.5 -45t31 -105q-8 -61 -58.5 -105t-112 -44zM147 674h1127l-33 -232h-1126zM621 66q-59 0 -98.5 43t-30.5 106q10 59 61 104.5t110.5 45.5t97.5 -45.5t30 -104.5q-8 -61 -58.5 -105t-111.5 -44z" glyph-name="divide" horiz-adv-x="1406" unicode="÷"/><glyph d="M1047 1030q184 -174 143 -461q-35 -248 -222.5 -416.5t-432.5 -168.5q-145 0 -261 63l-92 -117h-135l139 181q-180 174 -139 458q35 250 220.5 418t432.5 168q141 0 261 -61l92 116h135zM362 569q-18 -119 31 -196l369 469q-45 29 -103 28q-115 0 -198 -86t-99 -215z M575 272q113 0 197 85t102 212q14 115 -34 199l-371 -471q43 -25 106 -25z" glyph-name="oslash" horiz-adv-x="1255" unicode="ø"/><glyph d="M575 1194l-198 342h299l123 -342h-224zM1274 1126l-158 -1126h-291v141q-72 -72 -174 -111.5t-205 -39.5q-186 0 -286.5 121.5t-71.5 312.5l98 702h326l-94 -663q-12 -86 31 -137.5t131 -51.5q98 0 181 53.5t95 135.5l94 663h324z" glyph-name="ugrave" horiz-adv-x="1306" unicode="ù"/><glyph d="M815 1194h-225l217 342h299zM1274 1126l-158 -1126h-291v141q-72 -72 -174 -111.5t-205 -39.5q-186 0 -286.5 121.5t-71.5 312.5l98 702h326l-94 -663q-12 -86 31 -137.5t131 -51.5q98 0 181 53.5t95 135.5l94 663h324z" glyph-name="uacute" horiz-adv-x="1306" unicode="ú"/><glyph d="M553 1186h-225l264 350h309l170 -350h-227l-115 221zM1274 1126l-158 -1126h-291v141q-72 -72 -174 -111.5t-205 -39.5q-186 0 -286.5 121.5t-71.5 312.5l98 702h326l-94 -663q-12 -86 31 -137.5t131 -51.5q98 0 181 53.5t95 135.5l94 663h324z" glyph-name="ucircumflex" horiz-adv-x="1306" unicode="û"/><glyph d="M475.5 1180q-69.5 0 -113 49t-32.5 119q8 70 65.5 119t127 49t111.5 -49.5t32 -118.5q-8 -70 -64.5 -119t-126 -49zM922 1180q-68 0 -111 49t-35 119q8 68 66.5 118t126.5 50q70 0 111.5 -49.5t31.5 -118.5q-8 -70 -64 -119t-126 -49zM1274 1126l-158 -1126h-291v141 q-72 -72 -174 -111.5t-205 -39.5q-186 0 -286.5 121.5t-71.5 312.5l98 702h326l-94 -663q-12 -86 31 -137.5t131 -51.5q98 0 181 53.5t95 135.5l94 663h324z" glyph-name="udieresis" horiz-adv-x="1306" unicode="ü"/><glyph d="M815 1194h-225l217 342h299zM1343 1126l-913 -1693h-293l352 651h-67l-283 1042h320l200 -716l377 716h307z" glyph-name="yacute" horiz-adv-x="1329" unicode="ý"/><glyph d="M791 1044q213 0 337.5 -153.5t94.5 -378.5q-33 -223 -201 -377.5t-381 -154.5q-188 0 -297 131l-88 -623h-299l289 2048h299l-88 -623q144 131 334 131zM632.5 242q112.5 0 203 77.5t106.5 192.5t-52.5 193.5t-181 78.5t-202.5 -79.5t-105 -192.5q-16 -113 51.5 -191.5 t180 -78.5z" glyph-name="thorn" horiz-adv-x="1304" unicode="þ"/><glyph d="M475.5 1180q-69.5 0 -113 49t-32.5 119q8 70 65.5 119t127 49t111.5 -49.5t32 -118.5q-8 -70 -64.5 -119t-126 -49zM922 1180q-68 0 -111 49t-35 119q8 68 66.5 118t126.5 50q70 0 111.5 -49.5t31.5 -118.5q-8 -70 -64 -119t-126 -49zM1343 1126l-913 -1693h-293l352 651 h-67l-283 1042h320l200 -716l377 716h307z" glyph-name="ydieresis" horiz-adv-x="1329" unicode="ÿ"/><glyph d="M1260 1708h-635l26 188h635zM1071 311h-668l-159 -311h-334l831 1536h346l402 -1536h-334zM1020 578l-150 645l-340 -645h490z" glyph-name="Amacron" horiz-adv-x="1585" unicode="Ā"/><glyph d="M895 1196h-635l27 188h635zM334 -16q-166 0 -253 88t-65 247q20 150 165 243t345 112l224 20l4 19q12 94 -25 135t-123 41q-203 0 -241 -172h-263q37 182 171.5 300t373.5 118q215 0 322.5 -104.5t77.5 -319.5q-14 -113 -48 -338q-18 -135 72 -135l-33 -238 q-10 0 -38.5 -1t-45.5 -1h-27.5h-30.5t-28.5 1t-31 3t-28 6t-28.5 9.5t-23.5 14.5t-23.5 20t-17 25.5t-16 33.5q-55 -57 -155 -92t-211 -35zM453 217q117 0 243 100l25 175l-156 -21q-215 -29 -229 -133q-8 -55 25 -88t92 -33z" glyph-name="amacron" horiz-adv-x="1181" unicode="ā"/><glyph d="M932 1653q-166 0 -253 91t-63 261h170q-10 -72 37 -127t133 -55q88 0 150.5 54t73.5 128h170q-25 -170 -136.5 -261t-281.5 -91zM1071 311h-668l-159 -311h-334l831 1536h346l402 -1536h-334zM1020 578l-150 645l-340 -645h490z" glyph-name="Abreve" horiz-adv-x="1585" unicode="Ă"/><glyph d="M586 1141q-166 0 -253 91t-63 261h170q-10 -72 37 -127t133 -55q88 0 150.5 54t73.5 128h170q-25 -170 -136.5 -261t-281.5 -91zM334 -16q-166 0 -253 88t-65 247q20 150 165 243t345 112l224 20l4 19q12 94 -25 135t-123 41q-203 0 -241 -172h-263q37 182 171.5 300 t373.5 118q215 0 322.5 -104.5t77.5 -319.5q-14 -113 -48 -338q-18 -135 72 -135l-33 -238q-10 0 -38.5 -1t-45.5 -1h-27.5h-30.5t-28.5 1t-31 3t-28 6t-28.5 9.5t-23.5 14.5t-23.5 20t-17 25.5t-16 33.5q-55 -57 -155 -92t-211 -35zM453 217q117 0 243 100l25 175l-156 -21 q-215 -29 -229 -133q-8 -55 25 -88t92 -33z" glyph-name="abreve" horiz-adv-x="1181" unicode="ă"/><glyph d="M1450 -276l76 -132q-156 -137 -348 -122q-117 8 -182.5 66t-51.5 169q31 195 277 295h-66l-84 311h-668l-159 -311h-334l831 1536h346l402 -1536q-160 -6 -244 -90t-98 -180q-8 -51 19.5 -83t82.5 -32q53 0 108.5 31t92.5 78zM530 578h490l-150 645z" glyph-name="Aogonek" horiz-adv-x="1679" unicode="Ą"/><glyph d="M1012 -276l75 -132q-156 -137 -348 -122q-117 8 -182 66t-51 169q12 80 92 166t193 143q-66 25 -91 97q-55 -57 -155.5 -92t-210.5 -35q-166 0 -253 88t-65 247q20 150 165 243t345 112l224 20l4 19q12 94 -25 135t-123 41q-203 0 -241 -172h-263q37 182 171.5 300 t373.5 118q215 0 322.5 -104.5t77.5 -319.5q-14 -113 -48 -338q-18 -135 72 -135l-33 -238q-145 -25 -230 -101.5t-99 -168.5q-8 -51 19.5 -83t82.5 -32q53 0 108.5 31t92.5 78zM696 317l25 175l-156 -21q-215 -29 -229 -133q-8 -55 24.5 -88t92.5 -33q116 0 243 100z" glyph-name="aogonek" horiz-adv-x="1144" unicode="ą"/><glyph d="M1081 2048h299l-290 -342h-226zM731 -20q-328 0 -507 228t-132 560q47 334 289 561t571 227q295 0 466 -173t151 -451h-291q0 129 -89 229.5t-278 100.5q-211 0 -353 -140.5t-173 -353.5q-31 -215 72.5 -355.5t314.5 -140.5q182 0 303 100.5t154 221.5h291 q-55 -246 -286 -430t-503 -184z" glyph-name="Cacute" horiz-adv-x="1669" unicode="Ć"/><glyph d="M729 1536h299l-291 -342h-225zM489 -10q-246 0 -372.5 159.5t-91.5 415.5q37 256 207.5 414t418.5 158q125 0 219.5 -32t146.5 -79t84 -112.5t40 -122t6 -115.5h-285q2 80 -60.5 138t-160.5 58q-123 0 -198.5 -83.5t-96.5 -223.5q-18 -137 34 -222t175 -85q96 0 175 62.5 t101 140.5h285q-14 -63 -38.5 -121.5t-75 -125.5t-116 -114t-169 -78.5t-228.5 -31.5z" glyph-name="cacute" horiz-adv-x="1179" unicode="ć"/><glyph d="M972.5 1692q-69.5 0 -112.5 49t-32.5 118.5t66.5 119t126 49.5t112 -49.5t31 -118.5q-8 -70 -64.5 -119t-126 -49zM731 -20q-328 0 -507 228t-132 560q47 334 289 561t571 227q295 0 466 -173t151 -451h-291q0 129 -89 229.5t-278 100.5q-211 0 -353 -140.5t-173 -353.5 q-31 -215 72.5 -355.5t314.5 -140.5q182 0 303 100.5t154 221.5h291q-55 -246 -286 -430t-503 -184z" glyph-name="Cdotaccent" horiz-adv-x="1669" unicode="Ċ"/><glyph d="M680 1180q-70 0 -113 49t-32 119q8 70 65 119t127 49t112 -49.5t31 -118.5q-8 -70 -64 -119t-126 -49zM489 -10q-246 0 -372.5 159.5t-91.5 415.5q37 256 207.5 414t418.5 158q125 0 219.5 -32t146.5 -79t84 -112.5t40 -122t6 -115.5h-285q2 80 -60.5 138t-160.5 58 q-123 0 -198.5 -83.5t-96.5 -223.5q-18 -137 34 -222t175 -85q96 0 175 62.5t101 140.5h285q-14 -63 -38.5 -121.5t-75 -125.5t-116 -114t-169 -78.5t-228.5 -31.5z" glyph-name="cdotaccent" horiz-adv-x="1179" unicode="ċ"/><glyph d="M651 2048h217l123 -221l187 221h217l-269 -350h-309zM731 -20q-328 0 -507 228t-132 560q47 334 289 561t571 227q295 0 466 -173t151 -451h-291q0 129 -89 229.5t-278 100.5q-211 0 -353 -140.5t-173 -353.5q-31 -215 72.5 -355.5t314.5 -140.5q182 0 303 100.5 t154 221.5h291q-55 -246 -286 -430t-503 -184z" glyph-name="Ccaron" horiz-adv-x="1669" unicode="Č"/><glyph d="M338 1536h217l123 -221l186 221h217l-268 -350h-309zM489 -10q-246 0 -372.5 159.5t-91.5 415.5q37 256 207.5 414t418.5 158q125 0 219.5 -32t146.5 -79t84 -112.5t40 -122t6 -115.5h-285q2 80 -60.5 138t-160.5 58q-123 0 -198.5 -83.5t-96.5 -223.5q-18 -137 34 -222 t175 -85q96 0 175 62.5t101 140.5h285q-14 -63 -38.5 -121.5t-75 -125.5t-116 -114t-169 -78.5t-228.5 -31.5z" glyph-name="ccaron" horiz-adv-x="1179" unicode="č"/><glyph d="M436 2048h217l123 -221l187 221h217l-269 -350h-309zM246 1536h532q332 0 521.5 -203t138.5 -565q-51 -365 -296 -566.5t-579 -201.5h-532zM598 270q209 0 353.5 122t178.5 376q37 260 -71.5 380t-319.5 120h-223l-141 -998h223z" glyph-name="Dcaron" horiz-adv-x="1499" unicode="Ď"/><glyph d="M1475 1219q-47 18 -72 61t-17 96q8 70 63.5 118t125.5 48q68 0 108.5 -48t30.5 -118q-16 -119 -190 -301h-170zM1323 1534l-215 -1532l-281 -2l-10 111q-135 -121 -336 -121q-227 0 -350 159.5t-88 405.5q35 248 204 415t396 167q180 0 285 -121l73 518h322zM582 260 q80 0 151.5 48t114.5 128l33 238q-20 80 -78 129t-137 49q-117 0 -201 -85t-100 -212q-18 -125 41 -210t176 -85z" glyph-name="dcaron" horiz-adv-x="1689" unicode="ď"/><glyph d="M928 1536q332 0 521 -203t138 -565q-51 -365 -295.5 -566.5t-578.5 -201.5h-533l96 684h-149l23 168h149l96 684h533zM1280 768q37 260 -71.5 380t-319.5 120h-223l-60 -416h199l-23 -168h-198l-60 -414h224q209 0 353 122t179 376z" glyph-name="Dcroat" horiz-adv-x="1648" unicode="Đ"/><glyph d="M1323 1176h-145l-164 -1176l-266 -2v106q-137 -125 -312 -124q-209 0 -320.5 152.5t-78.5 379.5q31 227 185.5 379.5t363.5 152.5q164 0 264 -110l33 242h-254l24 167h254l27 193h295l-27 -193h146zM532 242q74 0 139.5 44t102.5 117l31 218q-16 74 -69.5 118.5 t-127.5 44.5q-106 0 -183 -77.5t-93.5 -194.5t39 -193.5t161.5 -76.5z" glyph-name="dcroat" horiz-adv-x="1327" unicode="đ"/><glyph d="M1044 1708h-634l26 188h635zM518 1268l-51 -365h616l-39 -270h-616l-51 -363h702l-37 -270h-1011l215 1536h1011l-36 -268h-703z" glyph-name="Emacron" horiz-adv-x="1249" unicode="Ē"/><glyph d="M977 1198h-635l27 188h635zM1106 565q-6 -41 -19 -96h-757q-2 -111 56 -173.5t159 -62.5q176 0 262 132h258q-53 -164 -199.5 -269.5t-363.5 -105.5q-248 0 -378 161.5t-95 411.5q37 254 205.5 414t431.5 160q242 0 360.5 -154t79.5 -418zM627 891q-188 0 -260 -203h448 q-4 203 -188 203z" glyph-name="emacron" horiz-adv-x="1187" unicode="ē"/><glyph d="M725 1692q-70 0 -113 49t-32.5 118.5t66.5 119t126 49.5t112 -49.5t31 -118.5q-8 -70 -64 -119t-126 -49zM518 1268l-51 -365h616l-39 -270h-616l-51 -363h702l-37 -270h-1011l215 1536h1011l-36 -268h-703z" glyph-name="Edotaccent" horiz-adv-x="1249" unicode="Ė"/><glyph d="M657.5 1182q-69.5 0 -112.5 49t-33 118.5t66.5 119t126 49.5t111.5 -49.5t32 -118.5q-8 -70 -64.5 -119t-126 -49zM1106 565q-6 -41 -19 -96h-757q-2 -111 56 -173.5t159 -62.5q176 0 262 132h258q-53 -164 -199.5 -269.5t-363.5 -105.5q-248 0 -378 161.5t-95 411.5 q37 254 205.5 414t431.5 160q242 0 360.5 -154t79.5 -418zM627 891q-188 0 -260 -203h448q-4 203 -188 203z" glyph-name="edotaccent" horiz-adv-x="1187" unicode="ė"/><glyph d="M1221 1268h-703l-51 -365h616l-39 -270h-616l-51 -363h702l-37 -270h-100q-137 0 -232.5 -87t-109.5 -183q-8 -51 19.5 -83t82.5 -32q53 0 108.5 30.5t92.5 78.5l76 -132q-156 -137 -348 -122q-117 8 -182.5 66t-51.5 169q31 195 277 295h-643l215 1536h1011z" glyph-name="Eogonek" horiz-adv-x="1249" unicode="Ę"/><glyph d="M666 1137q242 0 360.5 -154t79.5 -418q-6 -41 -19 -96h-757q-2 -111 56 -173.5t159 -62.5q176 0 262 132h258q-47 -150 -175 -252.5t-319 -118.5l-6 -10q-57 -66 -71 -146q-6 -51 21.5 -82.5t82.5 -31.5q53 0 108.5 30.5t90.5 77.5l75 -131q-152 -137 -346 -123 q-119 8 -184.5 66.5t-48.5 169.5q12 98 86 174q0 6 4 14q-193 39 -289 191.5t-65 369.5q37 254 206 414t431 160zM367 688h448q-4 203 -188 203q-188 0 -260 -203z" glyph-name="eogonek" horiz-adv-x="1140" unicode="ę"/><glyph d="M567 1698l-166 350h217l123 -221l187 221h217l-268 -350h-310zM518 1268l-51 -365h616l-39 -270h-616l-51 -363h702l-37 -270h-1011l215 1536h1011l-36 -268h-703z" glyph-name="Ecaron" horiz-adv-x="1249" unicode="Ě"/><glyph d="M500 1188l-166 350h217l123 -221l186 221h217l-268 -350h-309zM1106 565q-6 -41 -19 -96h-757q-2 -111 56 -173.5t159 -62.5q176 0 262 132h258q-53 -164 -199.5 -269.5t-363.5 -105.5q-248 0 -378 161.5t-95 411.5q37 254 205.5 414t431.5 160q242 0 360.5 -154 t79.5 -418zM627 891q-188 0 -260 -203h448q-4 203 -188 203z" glyph-name="ecaron" horiz-adv-x="1187" unicode="ě"/><glyph d="M987 1653q-166 0 -253 91t-62 261h170q-10 -72 37 -127t133 -55q88 0 150.5 54t72.5 128h170q-25 -170 -136.5 -261t-281.5 -91zM1522 821l-43 -311l-72 -510h-207l-12 186q-180 -197 -494 -196q-330 0 -499.5 210t-120.5 560t276.5 565t546.5 215q281 0 453 -138 t163 -405h-296q-2 119 -93.5 192t-234.5 73q-223 0 -359.5 -132.5t-169.5 -369.5q-31 -223 79 -357.5t292 -134.5q166 0 293 79t145 216h-366l37 258h682z" glyph-name="Gbreve" horiz-adv-x="1599" unicode="Ğ"/><glyph d="M948 1061q35 82 136.5 126t164.5 21q-8 -53 -26 -186q-43 20 -97.5 5t-83.5 -66q76 -125 62 -226q-25 -184 -183.5 -302t-365.5 -126q-123 -6 -207 37q-33 -10 -50 -29.5t-11 -38.5q10 -51 141 -51l221 -4q184 -4 288.5 -82t98.5 -211q-12 -213 -179 -322.5t-429 -117.5 q-227 -8 -348 69.5t-133 200.5q-8 76 36 172.5t134 143.5q-47 12 -73 63t-17 109q20 131 184 207q-45 47 -72.5 129t-15.5 174q25 154 168 267.5t342 121.5q-137 16 -206 105t-48 243h170q-10 -72 37 -127t133 -55q88 0 150.5 54t72.5 128h170q-23 -164 -129 -255t-266 -97 q168 -21 231 -80zM803 739q10 74 -40 115t-140 41q-88 0 -148.5 -42t-71 -118t39 -119t135.5 -43q90 0 152.5 44t72.5 122zM324 -16q-37 -10 -64 -45t-33 -72q-8 -66 47.5 -99.5t165.5 -33.5q121 0 205 35.5t92 97.5q10 66 -65.5 91.5t-196.5 25.5h-151z" glyph-name="gbreve" horiz-adv-x="1218" unicode="ğ"/><glyph d="M1036.5 1692q-69.5 0 -112.5 49t-33 118.5t66.5 119t126 49.5t111.5 -49.5t32 -118.5q-8 -70 -64.5 -119t-126 -49zM1522 821l-43 -311l-72 -510h-207l-12 186q-180 -197 -494 -196q-330 0 -499.5 210t-120.5 560t276.5 565t546.5 215q281 0 453 -138t163 -405h-296 q-2 119 -93.5 192t-234.5 73q-223 0 -359.5 -132.5t-169.5 -369.5q-31 -223 79 -357.5t292 -134.5q166 0 293 79t145 216h-366l37 258h682z" glyph-name="Gdotaccent" horiz-adv-x="1599" unicode="Ġ"/><glyph d="M661.5 1180q-69.5 0 -112.5 49t-33 119q8 70 65.5 119t127 49t111.5 -49.5t32 -118.5q-8 -70 -64.5 -119t-126 -49zM428 -512q-227 -8 -348 69.5t-133 200.5q-8 76 36 172.5t134 143.5q-47 12 -73 63t-17 109q20 131 184 207q-45 47 -72.5 129t-15.5 174 q25 158 176.5 273.5t357.5 115.5q76 0 165 -23.5t126 -60.5q35 82 136.5 126t164.5 21q-8 -53 -26 -186q-43 20 -97.5 5t-83.5 -66q76 -125 62 -226q-25 -184 -183.5 -302t-365.5 -126q-123 -6 -207 37q-33 -10 -50 -29.5t-11 -38.5q10 -51 141 -51l221 -4q184 -4 288.5 -82 t98.5 -211q-12 -213 -179 -322.5t-429 -117.5zM803 739q10 74 -40 115t-140 41q-88 0 -148.5 -42t-71 -118t39 -119t135.5 -43q90 0 152.5 44t72.5 122zM737 -133q10 66 -65.5 91.5t-196.5 25.5h-151q-37 -10 -64 -45t-33 -72q-8 -66 47.5 -99.5t165.5 -33.5q121 0 205 36 t92 97z" glyph-name="gdotaccent" horiz-adv-x="1218" unicode="ġ"/><glyph d="M1522 821l-43 -311l-72 -510h-207l-12 186q-180 -197 -494 -196q-330 0 -499.5 210t-120.5 560t276.5 565t546.5 215q281 0 453 -138t163 -405h-296q-2 119 -93.5 192t-234.5 73q-223 0 -359.5 -132.5t-169.5 -369.5q-31 -223 79 -357.5t292 -134.5q166 0 293 79t145 216 h-366l37 258h682zM655 -426q-47 18 -71.5 61t-16.5 97q10 70 65.5 118t125.5 48q68 0 107.5 -48.5t29.5 -117.5q-16 -119 -188 -301h-170z" glyph-name="Gcommaaccent" horiz-adv-x="1599" unicode="Ģ"/><glyph d="M772 1477q47 -18 71.5 -61.5t16.5 -96.5q-8 -70 -63.5 -118t-124.5 -48q-68 0 -109 48t-31 118q16 115 191 301h170zM428 -512q-227 -8 -348 69.5t-133 200.5q-8 76 36 172.5t134 143.5q-47 12 -73 63t-17 109q20 131 184 207q-45 47 -72.5 129t-15.5 174 q25 158 176.5 273.5t357.5 115.5q76 0 165 -23.5t126 -60.5q35 82 136.5 126t164.5 21q-8 -53 -26 -186q-43 20 -97.5 5t-83.5 -66q76 -125 62 -226q-25 -184 -183.5 -302t-365.5 -126q-123 -6 -207 37q-33 -10 -50 -29.5t-11 -38.5q10 -51 141 -51l221 -4q184 -4 288.5 -82 t98.5 -211q-12 -213 -179 -322.5t-429 -117.5zM803 739q10 74 -40 115t-140 41q-88 0 -148.5 -42t-71 -118t39 -119t135.5 -43q90 0 152.5 44t72.5 122zM737 -133q10 66 -65.5 91.5t-196.5 25.5h-151q-37 -10 -64 -45t-33 -72q-8 -66 47.5 -99.5t165.5 -33.5q121 0 205 36 t92 97z" glyph-name="gcommaaccent" horiz-adv-x="1218" unicode="ģ"/><glyph d="M1712 1151h-121l-161 -1151h-310l88 633h-659l-88 -633h-309l161 1151h-120l14 115h121l39 270h309l-39 -270h659l39 270h310l-39 -270h120zM1282 1151h-659l-35 -246h659z" glyph-name="Hbar" horiz-adv-x="1765" unicode="Ħ"/><glyph d="M973 1135q197 0 291 -106.5t67 -303.5l-100 -725h-326l96 684q20 168 -163 168q-100 0 -182.5 -51t-94.5 -135l-92 -666h-326l166 1188h-116l24 168h117l24 180h326l-25 -180h252l-24 -168h-252l-27 -189q156 136 365 136z" glyph-name="hbar" horiz-adv-x="1384" unicode="ħ"/><glyph d="M551 1673q-121 0 -189 119q-20 39 -51 39q-37 0 -53 -40t-2 -101h-176q-10 133 63.5 222t184.5 89q127 0 192 -119q14 -39 49 -39q37 0 53.5 39t4.5 100h174q12 -131 -60.5 -220t-189.5 -89zM246 1536h309l-215 -1536h-309z" glyph-name="Itilde" horiz-adv-x="555" unicode="Ĩ"/><glyph d="M475 1161q-121 0 -190 119q-18 39 -49 39q-35 0 -52.5 -40t-5.5 -101h-176q-8 133 65.5 222t184.5 89q127 0 192 -119q14 -39 50 -39q37 0 53 39t4 100h174q10 -131 -61.5 -220t-188.5 -89zM174 1024h299l-143 -1024h-299z" glyph-name="itilde" horiz-adv-x="544" unicode="ĩ"/><glyph d="M131 1896h637l-27 -188h-637zM246 1536h309l-215 -1536h-309z" glyph-name="Imacron" horiz-adv-x="555" unicode="Ī"/><glyph d="M55 1384h637l-26 -188h-637zM174 1024h299l-143 -1024h-299z" glyph-name="imacron" horiz-adv-x="544" unicode="ī"/><glyph d="M342 -408q-156 -137 -348 -122q-117 8 -183.5 66t-52.5 169q31 195 279 295h-6l215 1536h309l-215 -1536h-35q-137 0 -232.5 -87t-109.5 -183q-8 -51 19.5 -83t83.5 -32q53 0 108 30.5t92 78.5z" glyph-name="Iogonek" horiz-adv-x="555" unicode="Į"/><glyph d="M346 1180q-70 0 -113 49t-32 119q8 70 65.5 119t127 49t111.5 -49.5t32 -118.5q-8 -70 -64.5 -119t-126.5 -49zM338 -408q-156 -137 -348 -122q-117 8 -183.5 66t-52.5 169q31 195 279 295h-2l143 1024h299l-143 -1024h-29q-137 0 -232.5 -87t-109.5 -183 q-8 -51 19.5 -83t82.5 -32q53 0 108.5 30.5t92.5 78.5z" glyph-name="iogonek" horiz-adv-x="544" unicode="į"/><glyph d="M422 1692q-70 0 -113 49t-32.5 118.5t66.5 119t126 49.5t112 -49.5t31 -118.5q-8 -70 -64 -119t-126 -49zM246 1536h309l-215 -1536h-309z" glyph-name="Idotaccent" horiz-adv-x="555" unicode="İ"/><glyph d="M174 1024h299l-143 -1024h-299z" glyph-name="dotlessi" horiz-adv-x="544" unicode="ı"/><glyph d="M266 1536h309l-215 -1536h-309zM838 -20q-104 0 -160 20l43 313q63 -25 139 -24q45 0 83 32.5t44 77.5l160 1137h307l-164 -1167q-25 -174 -151.5 -281.5t-300.5 -107.5z" glyph-name="IJ" horiz-adv-x="1585" unicode="Ĳ"/><glyph d="M391 1200q-68 0 -110.5 49t-34.5 119q10 70 67.5 119t124.5 49q70 0 113 -49t33 -119q-8 -70 -65.5 -119t-127.5 -49zM1057 1200q-70 0 -113 49t-35 119q10 70 67.5 119t127.5 49q68 0 110.5 -49t32.5 -119q-8 -70 -65 -119t-125 -49zM449 -512l36 260h50q86 0 132 32 t58 118l172 1228h299l-176 -1249q-16 -121 -73.5 -204t-140.5 -119.5t-154.5 -51t-153.5 -14.5h-49zM217 1024h299l-143 -1024h-299z" glyph-name="ij" horiz-adv-x="1298" unicode="ĳ"/><glyph d="M942 0l-506 686l-96 -686h-309l215 1536h309l-96 -682l614 682h354l-661 -752l580 -784h-404zM512 -371q-47 18 -71.5 61.5t-16.5 96.5q8 70 63.5 118t124.5 48q68 0 109 -48t31 -118q-16 -115 -191 -301h-170z" glyph-name="Kcommaaccent" horiz-adv-x="1437" unicode="Ķ"/><glyph d="M12 0l215 1536h326l-113 -807l367 397h326l-490 -512l375 -614h-334l-281 471l-65 -471h-326zM416 -369q-47 18 -72 61.5t-16 96.5q8 70 64.5 118t125.5 48q68 0 108 -48t29 -118q-16 -119 -190 -301h-170z" glyph-name="kcommaaccent" horiz-adv-x="1159" unicode="ķ"/><glyph d="M532 2048h299l-290 -342h-226zM246 1536h309l-178 -1266h518l-37 -270h-827z" glyph-name="Lacute" horiz-adv-x="1015" unicode="Ĺ"/><glyph d="M512 2048h299l-291 -342h-225zM41 0l215 1536h299l-215 -1536h-299z" glyph-name="lacute" horiz-adv-x="743" unicode="ĺ"/><glyph d="M246 1536h309l-178 -1266h518l-37 -270h-827zM332 -422q-49 18 -72.5 61.5t-17.5 96.5q10 70 65 118t125 48q68 0 108 -48.5t29 -117.5q-16 -119 -188 -301h-170z" glyph-name="Lcommaaccent" horiz-adv-x="1015" unicode="Ļ"/><glyph d="M41 0l215 1536h299l-215 -1536h-299zM76 -393q-49 18 -72.5 61t-17.5 96q10 70 65 118t125 48q68 0 108 -48t29 -118q-16 -119 -188 -301h-170z" glyph-name="lcommaaccent" horiz-adv-x="743" unicode="ļ"/><glyph d="M889 1214q-47 18 -71.5 61.5t-16.5 96.5q8 70 63.5 118t124.5 48q68 0 109 -48t30 -118q-16 -115 -190 -301h-170zM246 1536h309l-178 -1266h518l-37 -270h-827z" glyph-name="Lcaron" horiz-adv-x="1040" unicode="Ľ"/><glyph d="M788 1229q-47 18 -71.5 61t-16.5 96q8 70 63.5 118t125.5 48q68 0 108.5 -48t30.5 -118q-16 -115 -190 -301h-170zM41 0l215 1536h299l-215 -1536h-299z" glyph-name="lcaron" horiz-adv-x="966" unicode="ľ"/><glyph d="M41 0l215 1536h299l-215 -1536h-299zM637 614q-49 0 -82 36t-24.5 87t50.5 88t91 37t81.5 -37t24.5 -88t-50 -87t-91 -36z" glyph-name="ldot" horiz-adv-x="784" unicode="ŀ"/><glyph d="M895 270l-37 -270h-827l71 516l-88 -80h-178l293 269l117 831h309l-72 -508l78 72h184l-288 -262l-80 -568h518z" glyph-name="Lslash" horiz-adv-x="1015" unicode="Ł"/><glyph d="M752 1112l-293 -266l-119 -846h-299l76 539l-2 -2l-97 -88h-178l301 274l115 813h299l-70 -500l82 76h185z" glyph-name="lslash" horiz-adv-x="743" unicode="ł"/><glyph d="M1096 1706h-226l217 342h299zM1655 1536l-215 -1536h-316l-635 1069l-149 -1069h-309l215 1536h315l637 -1067l150 1067h307z" glyph-name="Nacute" horiz-adv-x="1654" unicode="Ń"/><glyph d="M813 1194h-225l217 342h299zM838 1141q197 0 291 -107.5t67 -304.5l-102 -729h-326l96 690q25 168 -164 168q-100 0 -181 -51t-93 -135l-94 -672h-326l158 1126h293l-2 -137q74 70 177.5 111t205.5 41z" glyph-name="nacute" horiz-adv-x="1239" unicode="ń"/><glyph d="M1655 1536l-215 -1536h-316l-635 1069l-149 -1069h-309l215 1536h315l637 -1067l150 1067h307zM657 -362q-49 18 -72.5 61t-15.5 96q8 70 63.5 118t125.5 48q68 0 108.5 -48t30.5 -118q-18 -119 -190 -301h-170z" glyph-name="Ncommaaccent" horiz-adv-x="1654" unicode="Ņ"/><glyph d="M838 1141q197 0 291 -107.5t67 -304.5l-102 -729h-326l96 690q25 168 -164 168q-100 0 -181 -51t-93 -135l-94 -672h-326l158 1126h293l-2 -137q74 70 177.5 111t205.5 41zM401 -410q-47 18 -70.5 61.5t-17.5 96.5q10 70 65.5 118t125.5 48q68 0 107.5 -48t29.5 -118 q-16 -119 -188 -301h-170z" glyph-name="ncommaaccent" horiz-adv-x="1239" unicode="ņ"/><glyph d="M821 1698l-166 350h217l123 -221l187 221h217l-269 -350h-309zM1655 1536l-215 -1536h-316l-635 1069l-149 -1069h-309l215 1536h315l637 -1067l150 1067h307z" glyph-name="Ncaron" horiz-adv-x="1654" unicode="Ň"/><glyph d="M541 1186l-166 350h217l123 -221l186 221h217l-268 -350h-309zM838 1141q197 0 291 -107.5t67 -304.5l-102 -729h-326l96 690q25 168 -164 168q-100 0 -181 -51t-93 -135l-94 -672h-326l158 1126h293l-2 -137q74 70 177.5 111t205.5 41z" glyph-name="ncaron" horiz-adv-x="1239" unicode="ň"/><glyph d="M1671 1536l-231 -1640q-27 -193 -166 -282t-350 -89l26 196q80 0 123 33t60 142l16 112l-645 1045l-148 -1053h-297l215 1536h306l647 -1051l147 1051h297z" glyph-name="Eng" horiz-adv-x="1699" unicode="Ŋ"/><glyph d="M838 1141q197 0 291 -107.5t67 -304.5l-102 -729h-68l-16 -125q-18 -131 -94 -216t-181.5 -120t-242.5 -35l26 197q82 0 130 33t63 141l20 141l39 4l94 670q25 168 -164 168q-100 0 -181 -51t-93 -135l-94 -672h-326l158 1126h293l-2 -137q74 70 177.5 111t205.5 41z" glyph-name="eng" horiz-adv-x="1277" unicode="ŋ"/><glyph d="M684 1896h635l-27 -188h-635zM731 -20q-330 0 -508 227t-131 561t289 561t571 227q328 0 507 -228t132 -560t-289.5 -560t-570.5 -228zM774 279q209 0 348.5 138t169.5 351q31 215 -70.5 353.5t-310.5 138.5q-211 0 -352 -138.5t-172 -353.5q-31 -213 72.5 -351 t314.5 -138z" glyph-name="Omacron" horiz-adv-x="1652" unicode="Ō"/><glyph d="M383 1384h635l-27 -188h-635zM502 -20q-231 0 -361.5 153.5t-97.5 378.5q31 225 204 378.5t404 153.5q229 0 360.5 -153.5t100.5 -378.5q-33 -225 -207 -378.5t-403 -153.5zM539 242q104 0 183 77.5t95.5 192.5t-41 193.5t-162.5 78.5q-106 0 -183 -77.5t-93 -194.5 t39.5 -193.5t161.5 -76.5z" glyph-name="omacron" horiz-adv-x="1193" unicode="ō"/><glyph d="M991 2048h279l-410 -365h-207zM1415 2048h281l-410 -365h-207zM731 -20q-330 0 -508 227t-131 561t289 561t571 227q328 0 507 -228t132 -560t-289.5 -560t-570.5 -228zM774 279q209 0 348.5 138t169.5 351q31 215 -70.5 353.5t-310.5 138.5q-211 0 -352 -138.5 t-172 -353.5q-31 -213 72.5 -351t314.5 -138z" glyph-name="Ohungarumlaut" horiz-adv-x="1652" unicode="Ő"/><glyph d="M690 1536h279l-410 -365h-207zM1114 1536h281l-410 -365h-207zM502 -20q-231 0 -361.5 153.5t-97.5 378.5q31 225 204 378.5t404 153.5q229 0 360.5 -153.5t100.5 -378.5q-33 -225 -207 -378.5t-403 -153.5zM539 242q104 0 183 77.5t95.5 192.5t-41 193.5t-162.5 78.5 q-106 0 -183 -77.5t-93 -194.5t39.5 -193.5t161.5 -76.5z" glyph-name="ohungarumlaut" horiz-adv-x="1193" unicode="ő"/><glyph d="M2531 1268h-702l-51 -365h616l-39 -270h-616l-51 -363h702l-37 -270h-1012l25 172q-250 -190 -543 -190q-328 0 -525.5 230t-152.5 558q31 215 162 396.5t327.5 287t412.5 105.5q291 0 485 -191l24 168h1012zM866 279q207 0 370 143t189 348q29 205 -93 348.5t-328 143.5 q-205 0 -369 -142.5t-192.5 -349.5t95 -349t328.5 -142z" glyph-name="OE" horiz-adv-x="2656" unicode="Œ"/><glyph d="M1440 1137q242 0 360.5 -154t79.5 -418q-6 -41 -18 -96h-758q-2 -111 56.5 -173.5t158.5 -62.5q176 0 262 132h258q-53 -164 -199.5 -269.5t-363.5 -105.5q-229 0 -361 141q-184 -152 -411 -151q-248 0 -387.5 168.5t-104.5 416.5q35 250 222.5 418t435.5 168 q227 0 366 -150q164 136 404 136zM1141 688h448q-4 203 -188 203q-188 0 -260 -203zM545 268q78 0 144.5 43t107.5 117q-2 63 6 135q8 59 33 139q-20 74 -74.5 118t-132.5 44q-115 0 -199 -86t-102 -213q-16 -127 43 -212t174 -85z" glyph-name="oe" horiz-adv-x="1894" unicode="œ"/><glyph d="M915 1706h-225l217 342h299zM1255 0h-346l-276 569h-213l-80 -569h-309l215 1536h696q186 0 299 -151.5t86 -348.5q-23 -154 -131.5 -282.5t-251.5 -163.5zM827 809q80 0 142.5 63.5t77.5 165.5q14 98 -30 164t-124 66h-375l-65 -459h374z" glyph-name="Racute" horiz-adv-x="1255" unicode="Ŕ"/><glyph d="M655 1194h-225l217 342h299zM903 1139l-41 -285q-215 0 -328.5 -81t-142.5 -286l-67 -487h-326l158 1126h305l-4 -153q41 68 156.5 117t289.5 49z" glyph-name="racute" horiz-adv-x="907" unicode="ŕ"/><glyph d="M1255 0h-346l-276 569h-213l-80 -569h-309l215 1536h696q186 0 299 -151.5t86 -348.5q-23 -154 -131.5 -282.5t-251.5 -163.5zM827 809q80 0 142.5 63.5t77.5 165.5q14 98 -30 164t-124 66h-375l-65 -459h374zM471 -371q-47 18 -71.5 61.5t-16.5 96.5q8 70 63.5 118 t124.5 48q68 0 109 -48t31 -118q-16 -115 -191 -301h-170z" glyph-name="Rcommaaccent" horiz-adv-x="1255" unicode="Ŗ"/><glyph d="M903 1139l-41 -285q-215 0 -328.5 -81t-142.5 -286l-67 -487h-326l158 1126h305l-4 -153q41 68 156.5 117t289.5 49zM53 -399q-47 18 -71.5 61t-16.5 96q8 70 63.5 118t125.5 48q68 0 108.5 -48t30.5 -118q-16 -119 -191 -301h-170z" glyph-name="rcommaaccent" horiz-adv-x="907" unicode="ŗ"/><glyph d="M643 1698l-166 350h217l123 -221l187 221h217l-269 -350h-309zM1255 0h-346l-276 569h-213l-80 -569h-309l215 1536h696q186 0 299 -151.5t86 -348.5q-23 -154 -131.5 -282.5t-251.5 -163.5zM827 809q80 0 142.5 63.5t77.5 165.5q14 98 -30 164t-124 66h-375l-65 -459 h374z" glyph-name="Rcaron" horiz-adv-x="1255" unicode="Ř"/><glyph d="M383 1186l-166 350h217l123 -221l186 221h218l-269 -350h-309zM903 1139l-41 -285q-215 0 -328.5 -81t-142.5 -286l-67 -487h-326l158 1126h305l-4 -153q41 68 156.5 117t289.5 49z" glyph-name="rcaron" horiz-adv-x="907" unicode="ř"/><glyph d="M942 2048h299l-291 -342h-225zM584 -20q-250 0 -382 140t-122 376l266 -2q27 -227 289 -228q242 0 268 166q6 41 -10 78t-39 60.5t-76 53t-83.5 43t-102.5 42.5q-94 39 -148.5 67.5t-120 79.5t-90 119.5t-12.5 157.5q27 188 199 305.5t399 117.5q479 0 500 -499h-287 q4 98 -55 169.5t-184 71.5q-96 0 -169 -42t-83 -111q-6 -37 10 -67.5t60 -59.5t80 -46.5t108 -45.5q72 -31 108.5 -47.5t100 -51t96.5 -68.5t68.5 -82t46 -108.5t0.5 -132.5q-33 -223 -209 -339.5t-426 -116.5z" glyph-name="Sacute" horiz-adv-x="1325" unicode="Ś"/><glyph d="M690 1536h299l-291 -342h-225zM479 -14q-225 0 -343 114.5t-111 266.5h274q8 -74 66.5 -114t134.5 -36q137 8 151 109q4 27 -9 47t-50 37.5t-64.5 26.5t-89.5 28q-80 23 -128 42t-106.5 56t-82 92.5t-12.5 130.5q23 162 164 260.5t352 98.5q164 0 286.5 -92t114.5 -267 h-276q-16 111 -150 119q-66 4 -107.5 -17.5t-48.5 -64.5q-2 -16 2.5 -29.5t17.5 -24.5t24.5 -18.5t37 -17.5t42 -15t50 -15.5t52.5 -16.5q74 -25 122 -47.5t100 -61t72.5 -98t10.5 -137.5q-23 -166 -157 -261t-339 -95z" glyph-name="sacute" horiz-adv-x="1019" unicode="ś"/><glyph d="M799 926q72 -31 108.5 -47.5t100 -51t96.5 -68.5t68.5 -82t46 -108.5t0.5 -132.5q-31 -211 -192 -326.5t-392 -127.5l-74 -105q104 18 167 -36t48 -150q-12 -94 -86 -158.5t-168 -64.5q-76 0 -139.5 44t-79.5 107l137 45q10 -27 40 -45t61 -18q37 0 65.5 26.5t32.5 63.5 q10 57 -37 74.5t-123 -15.5l-96 62l117 172h6q-213 23 -324.5 160t-101.5 352l266 -2q27 -227 289 -228q242 0 268 166q6 41 -10 78t-39 60.5t-76 53t-83.5 43t-102.5 42.5q-94 39 -148.5 67.5t-120 79.5t-90 119.5t-12.5 157.5q27 188 199 305.5t399 117.5q479 0 500 -499 h-287q4 98 -55 169.5t-184 71.5q-96 0 -169 -42t-83 -111q-6 -37 10 -67.5t60 -59.5t80 -46t108 -46z" glyph-name="Scedilla" horiz-adv-x="1325" unicode="Ş"/><glyph d="M479 -14q-225 0 -343 114.5t-111 266.5h274q8 -74 66.5 -114t134.5 -36q137 8 151 109q4 27 -9 47t-50 37.5t-64.5 26.5t-89.5 28q-80 23 -128 42t-106.5 56t-82 92.5t-12.5 130.5q23 162 164 260.5t352 98.5q164 0 286.5 -92t114.5 -267h-276q-16 111 -150 119 q-66 4 -107.5 -17.5t-48.5 -64.5q-2 -16 2.5 -29.5t17.5 -24.5t24.5 -18.5t37 -17.5t42 -15t50 -15.5t52.5 -16.5q74 -25 122 -47.5t100 -61t72.5 -98t10.5 -137.5q-23 -166 -157 -261t-339 -95zM500 -18l-74 -105q104 18 166.5 -36t48.5 -150q-12 -94 -86 -158.5 t-168 -64.5q-76 0 -139.5 44t-79.5 107l137 45q10 -27 40 -45t61 -18q37 0 65.5 26.5t32.5 63.5q10 57 -37 74.5t-123 -15.5l-96 62l114 172z" glyph-name="scedilla" horiz-adv-x="1019" unicode="ş"/><glyph d="M510 2048h217l123 -221l186 221h217l-268 -350h-309zM584 -20q-250 0 -382 140t-122 376l266 -2q27 -227 289 -228q242 0 268 166q6 41 -10 78t-39 60.5t-76 53t-83.5 43t-102.5 42.5q-94 39 -148.5 67.5t-120 79.5t-90 119.5t-12.5 157.5q27 188 199 305.5t399 117.5 q479 0 500 -499h-287q4 98 -55 169.5t-184 71.5q-96 0 -169 -42t-83 -111q-6 -37 10 -67.5t60 -59.5t80 -46.5t108 -45.5q72 -31 108.5 -47.5t100 -51t96.5 -68.5t68.5 -82t46 -108.5t0.5 -132.5q-33 -223 -209 -339.5t-426 -116.5z" glyph-name="Scaron" horiz-adv-x="1325" unicode="Š"/><glyph d="M260 1536h217l123 -221l186 221h218l-269 -350h-309zM479 -14q-225 0 -343 114.5t-111 266.5h274q8 -74 66.5 -114t134.5 -36q137 8 151 109q4 27 -9 47t-50 37.5t-64.5 26.5t-89.5 28q-80 23 -128 42t-106.5 56t-82 92.5t-12.5 130.5q23 162 164 260.5t352 98.5 q164 0 286.5 -92t114.5 -267h-276q-16 111 -150 119q-66 4 -107.5 -17.5t-48.5 -64.5q-2 -16 2.5 -29.5t17.5 -24.5t24.5 -18.5t37 -17.5t42 -15t50 -15.5t52.5 -16.5q74 -25 122 -47.5t100 -61t72.5 -98t10.5 -137.5q-23 -166 -157 -261t-339 -95z" glyph-name="scaron" horiz-adv-x="1019" unicode="š"/><glyph d="M170 1536h1176l-37 -268h-435l-178 -1268h-84l-88 -123q104 18 167 -36t48 -150q-12 -94 -85.5 -158.5t-168.5 -64.5q-76 0 -139 44t-80 107l137 45q10 -27 40 -45t61 -18q37 0 65.5 26.5t32.5 63.5q10 57 -37 74.5t-123 -15.5l-96 62l129 188h-84l178 1268h-436z" glyph-name="Tcommaaccent" horiz-adv-x="1290" unicode="Ţ"/><glyph d="M614 -2q-43 0 -73.5 1t-69.5 4t-65.5 9t-58.5 15.5t-52.5 25t-41 37t-31.5 49t-19 63.5t-8 82t8 99l69 491h-190l35 256h190l58 406h299l-58 -406h305l-34 -256h-306l-67 -471q-12 -86 26.5 -117.5t120.5 -31.5h142l-37 -256h-142zM397 -123q104 18 167 -36t48 -150 q-12 -94 -85.5 -158.5t-168.5 -64.5q-76 0 -139 44t-80 107l137 45q10 -27 40 -45t61 -18q37 0 65.5 26.5t32.5 63.5q10 57 -37 74.5t-123 -15.5l-96 62l131 194l121 -18z" glyph-name="tcommaaccent" horiz-adv-x="796" unicode="ţ"/><glyph d="M643 1698l-166 350h217l123 -221l187 221h217l-269 -350h-309zM1309 1268h-435l-178 -1268h-305l178 1268h-436l37 268h1176z" glyph-name="Tcaron" horiz-adv-x="1263" unicode="Ť"/><glyph d="M821 1282q-49 18 -72.5 61t-17.5 97q10 70 65.5 118t125.5 48q68 0 107.5 -48.5t29.5 -117.5q-16 -119 -189 -301h-170zM614 -2q-43 0 -73.5 1t-69.5 4t-65.5 9t-58.5 15.5t-52.5 25t-41 37t-31.5 49t-19 63.5t-8 82t8 99l69 491h-190l35 256h190l58 406h299l-58 -406 h305l-34 -256h-306l-67 -471q-12 -86 26.5 -117.5t120.5 -31.5h142l-37 -256h-142z" glyph-name="tcaron" horiz-adv-x="894" unicode="ť"/><glyph d="M1309 1268h-435l-59 -416h193l-23 -168h-192l-97 -684h-305l96 684h-196l22 168h197l59 416h-436l37 268h1176z" glyph-name="Tbar" horiz-adv-x="1187" unicode="Ŧ"/><glyph d="M877 874h-306l-41 -278h201l-22 -168h-201l-4 -25q-12 -86 26.5 -117.5t120.5 -31.5h142l-37 -256h-142q-43 0 -73.5 1t-69.5 4t-65.5 9t-58.5 15.5t-52.5 25t-41 37t-31.5 49t-19 63.5t-8 82t8 99l6 45h-195l23 168h196l39 278h-190l35 256h190l58 406h299l-58 -406h305 z" glyph-name="tbar" horiz-adv-x="796" unicode="ŧ"/><glyph d="M1030 1673q-121 0 -188 119q-20 39 -51 39q-37 0 -53.5 -40t-2.5 -101h-174q-12 133 60.5 222t185.5 89q127 0 192 -119q14 -39 50 -39q37 0 53 39t4 100h174q12 -131 -60.5 -220t-189.5 -89zM659.5 -20q-264.5 0 -425 149.5t-130.5 366.5l146 1040h309l-139 -985 q-16 -127 64.5 -214t213.5 -87t238.5 88t122.5 213l139 985h309l-145 -1040q-31 -217 -234.5 -366.5t-468 -149.5z" glyph-name="Utilde" horiz-adv-x="1511" unicode="Ũ"/><glyph d="M612 1896h635l-26 -188h-635zM659.5 -20q-264.5 0 -425 149.5t-130.5 366.5l146 1040h309l-139 -985q-16 -127 64.5 -214t213.5 -87t238.5 88t122.5 213l139 985h309l-145 -1040q-31 -217 -234.5 -366.5t-468 -149.5z" glyph-name="Umacron" horiz-adv-x="1511" unicode="Ū"/><glyph d="M1018 1196h-635l27 188h634zM1274 1126l-158 -1126h-291v141q-72 -72 -174 -111.5t-205 -39.5q-186 0 -286.5 121.5t-71.5 312.5l98 702h326l-94 -663q-12 -86 31 -137.5t131 -51.5q98 0 181 53.5t95 135.5l94 663h324z" glyph-name="umacron" horiz-adv-x="1245" unicode="ū"/><glyph d="M893 1642q-100 0 -160.5 71t-46.5 171q14 96 94 167t181 71q98 0 158.5 -71t45.5 -167q-14 -100 -94 -171t-178 -71zM911.5 1765q49.5 0 87 33t45.5 86q6 49 -22.5 84t-77.5 35t-87 -35t-44 -84q-8 -53 20.5 -86t78 -33zM659.5 -20q-264.5 0 -425 149.5t-130.5 366.5 l146 1040h309l-139 -985q-16 -127 64.5 -214t213.5 -87t238.5 88t122.5 213l139 985h309l-145 -1040q-31 -217 -234.5 -366.5t-468 -149.5z" glyph-name="Uring" horiz-adv-x="1511" unicode="Ů"/><glyph d="M690 1130q-100 0 -160.5 71t-46.5 171q14 96 94 167t181 71q98 0 158.5 -71t46.5 -167q-14 -100 -94.5 -171t-178.5 -71zM741.5 1491q-49.5 0 -87.5 -35t-44 -84q-8 -53 20.5 -86t78 -33t87.5 33t46 86q6 49 -22.5 84t-78 35zM1274 1126l-158 -1126h-291v141 q-72 -72 -174 -111.5t-205 -39.5q-186 0 -286.5 121.5t-71.5 312.5l98 702h326l-94 -663q-12 -86 31 -137.5t131 -51.5q98 0 181 53.5t95 135.5l94 663h324z" glyph-name="uring" horiz-adv-x="1245" unicode="ů"/><glyph d="M920 2048h278l-410 -365h-206zM1343 2048h281l-410 -365h-206zM659.5 -20q-264.5 0 -425 149.5t-130.5 366.5l146 1040h309l-139 -985q-16 -127 64.5 -214t213.5 -87t238.5 88t122.5 213l139 985h309l-145 -1040q-31 -217 -234.5 -366.5t-468 -149.5z" glyph-name="Uhungarumlaut" horiz-adv-x="1511" unicode="Ű"/><glyph d="M586 1171h-207l338 365h278zM805 1171l336 365h280l-409 -365h-207zM1274 1126l-158 -1126h-291v141q-72 -72 -174 -111.5t-205 -39.5q-186 0 -286.5 121.5t-71.5 312.5l98 702h326l-94 -663q-12 -86 31 -137.5t131 -51.5q98 0 181 53.5t95 135.5l94 663h324z" glyph-name="uhungarumlaut" horiz-adv-x="1245" unicode="ű"/><glyph d="M1198 1536h309l-145 -1040q-29 -205 -214 -351.5t-433 -162.5q-88 -33 -146.5 -106t-68.5 -142q-6 -51 20.5 -83t81.5 -32q53 0 109.5 31t91.5 78l76 -131q-152 -137 -349 -123q-117 8 -182 66.5t-49 168.5q23 180 238 281q-215 35 -337 176t-96 330l146 1040h309 l-139 -985q-16 -127 64.5 -214t213.5 -87t238.5 88t122.5 213z" glyph-name="Uogonek" horiz-adv-x="1511" unicode="Ų"/><glyph d="M1030 0q-137 0 -232.5 -87t-109.5 -183q-8 -51 19.5 -83t83.5 -32q53 0 108 30.5t92 78.5l76 -132q-156 -137 -348 -122q-117 8 -182.5 66t-51.5 169q31 199 277 295h63v141q-72 -72 -174 -111.5t-205 -39.5q-186 0 -286.5 121.5t-71.5 312.5l98 702h326l-94 -663 q-12 -86 31 -137.5t131 -51.5q98 0 181 53.5t95 135.5l94 663h324l-158 -1126h-86z" glyph-name="uogonek" horiz-adv-x="1245" unicode="ų"/><glyph d="M1198 1698h-225l264 350h309l170 -350h-227l-115 221zM2460 1536l-639 -1536h-336l-236 1024l-481 -1024h-334l-252 1536h334l143 -1198l510 1198h306l213 -1200l440 1200h332z" glyph-name="Wcircumflex" horiz-adv-x="2396" unicode="Ŵ"/><glyph d="M735 1186h-225l264 350h309l170 -350h-227l-115 221zM1815 1126l-519 -1126h-366l-66 481l-200 -481h-367l-205 1126h369l80 -751l290 751h273l74 -751l272 751h365z" glyph-name="wcircumflex" horiz-adv-x="1611" unicode="ŵ"/><glyph d="M696 1698h-225l264 350h309l170 -350h-227l-115 221zM858 727l-100 -727h-307l100 721l-426 815h344l270 -551l430 551h340z" glyph-name="Ycircumflex" horiz-adv-x="1388" unicode="Ŷ"/><glyph d="M553 1186h-225l264 350h309l170 -350h-227l-115 221zM1343 1126l-913 -1693h-293l352 651h-67l-283 1042h320l200 -716l377 716h307z" glyph-name="ycircumflex" horiz-adv-x="1247" unicode="ŷ"/><glyph d="M618.5 1692q-69.5 0 -112.5 49t-33 118.5t66.5 119t126 49.5t111.5 -49.5t32 -118.5q-8 -70 -64.5 -119t-126 -49zM1065 1692q-68 0 -111 49t-34 119q10 70 67 119t125 49q70 0 112 -49.5t31 -118.5q-8 -70 -64 -119t-126 -49zM858 727l-100 -727h-307l100 721l-426 815 h344l270 -551l430 551h340z" glyph-name="Ydieresis" horiz-adv-x="1388" unicode="Ÿ"/><glyph d="M944 1706h-225l217 342h299zM1184 270l-37 -270h-1174l23 166l911 1102h-735l37 268h1149l-23 -166l-913 -1100h762z" glyph-name="Zacute" horiz-adv-x="1308" unicode="Ź"/><glyph d="M731 1536h299l-291 -342h-225zM27 219l591 561h-512l35 244h889l-31 -215l-596 -565h521l-33 -244h-895z" glyph-name="zacute" horiz-adv-x="1071" unicode="ź"/><glyph d="M827.5 1692q-69.5 0 -112.5 49t-33 118.5t66.5 119t126 49.5t111.5 -49.5t32 -118.5q-8 -70 -64.5 -119t-126 -49zM1184 270l-37 -270h-1174l23 166l911 1102h-735l37 268h1149l-23 -166l-913 -1100h762z" glyph-name="Zdotaccent" horiz-adv-x="1308" unicode="Ż"/><glyph d="M622.5 1180q-69.5 0 -112.5 49t-33 119q8 70 65.5 119t127 49t111.5 -49.5t32 -118.5q-8 -70 -64.5 -119t-126 -49zM27 219l591 561h-512l35 244h889l-31 -215l-596 -565h521l-33 -244h-895z" glyph-name="zdotaccent" horiz-adv-x="1071" unicode="ż"/><glyph d="M670 1698l-166 350h217l123 -221l186 221h217l-268 -350h-309zM1184 270l-37 -270h-1174l23 166l911 1102h-735l37 268h1149l-23 -166l-913 -1100h762z" glyph-name="Zcaron" horiz-adv-x="1308" unicode="Ž"/><glyph d="M301 1536h217l123 -221l186 221h217l-268 -350h-309zM27 219l591 561h-512l35 244h889l-31 -215l-596 -565h521l-33 -244h-895z" glyph-name="zcaron" horiz-adv-x="1071" unicode="ž"/><glyph d="M909 1346q-78 0 -136 -50.5t-85 -138.5l-41 -133h277l-66 -223h-276l-396 -1313h-266l393 1313h-170l66 223h172l51 174q45 154 183.5 256t293.5 102q111 0 152 -36l-53 -207q-33 33 -99 33z" glyph-name="florin" horiz-adv-x="980" unicode="ƒ"/><glyph d="M782 1698l-166 350h218l122 -221l187 221h217l-268 -350h-310zM1071 311h-668l-159 -311h-334l831 1536h346l402 -1536h-334zM1020 578l-150 645l-340 -645h490z" glyph-name="uni01CD" horiz-adv-x="1585" unicode="Ǎ"/><glyph d="M459 1186l-166 350h217l123 -221l186 221h217l-268 -350h-309zM334 -16q-166 0 -253 88t-65 247q20 150 165 243t345 112l224 20l4 19q12 94 -25 135t-123 41q-203 0 -241 -172h-263q37 182 171.5 300t373.5 118q215 0 322.5 -104.5t77.5 -319.5q-14 -113 -48 -338 q-18 -135 72 -135l-33 -238q-10 0 -38.5 -1t-45.5 -1h-27.5h-30.5t-28.5 1t-31 3t-28 6t-28.5 9.5t-23.5 14.5t-23.5 20t-17 25.5t-16 33.5q-55 -57 -155 -92t-211 -35zM453 217q117 0 243 100l25 175l-156 -21q-215 -29 -229 -133q-8 -55 25 -88t92 -33z" glyph-name="uni01CE" horiz-adv-x="1144" unicode="ǎ"/><glyph d="M96 2048h219l123 -221l187 221h217l-269 -350h-309zM246 1536h309l-215 -1536h-309z" glyph-name="uni01CF" horiz-adv-x="555" unicode="Ǐ"/><glyph d="M23 1536h219l123 -221l186 221h217l-268 -350h-310zM174 1024h299l-143 -1024h-299z" glyph-name="uni01D0" horiz-adv-x="544" unicode="ǐ"/><glyph d="M651 2048h217l123 -221l187 221h217l-269 -350h-309zM731 -20q-330 0 -508 227t-131 561t289 561t571 227q328 0 507 -228t132 -560t-289.5 -560t-570.5 -228zM774 279q209 0 348.5 138t169.5 351q31 215 -70.5 353.5t-310.5 138.5q-211 0 -352 -138.5t-172 -353.5 q-31 -213 72.5 -351t314.5 -138z" glyph-name="uni01D1" horiz-adv-x="1652" unicode="Ǒ"/><glyph d="M350 1536h217l123 -221l187 221h217l-269 -350h-309zM502 -20q-231 0 -361.5 153.5t-97.5 378.5q31 225 204 378.5t404 153.5q229 0 360.5 -153.5t100.5 -378.5q-33 -225 -207 -378.5t-403 -153.5zM539 242q104 0 183 77.5t95.5 192.5t-41 193.5t-162.5 78.5 q-106 0 -183 -77.5t-93 -194.5t39.5 -193.5t161.5 -76.5z" glyph-name="uni01D2" horiz-adv-x="1193" unicode="ǒ"/><glyph d="M580 2048h217l123 -221l186 221h217l-268 -350h-310zM659.5 -20q-264.5 0 -425 149.5t-130.5 366.5l146 1040h309l-139 -985q-16 -127 64.5 -214t213.5 -87t238.5 88t122.5 213l139 985h309l-145 -1040q-31 -217 -234.5 -366.5t-468 -149.5z" glyph-name="uni01D3" horiz-adv-x="1511" unicode="Ǔ"/><glyph d="M543 1186l-166 350h217l123 -221l186 221h217l-268 -350h-309zM1274 1126l-158 -1126h-291v141q-72 -72 -174 -111.5t-205 -39.5q-186 0 -286.5 121.5t-71.5 312.5l98 702h326l-94 -663q-12 -86 31 -137.5t131 -51.5q98 0 181 53.5t95 135.5l94 663h324z" glyph-name="uni01D4" horiz-adv-x="1245" unicode="ǔ"/><glyph d="M840 1698l-166 350h217l123 -221l186 221h217l-268 -350h-309zM1522 821l-43 -311l-72 -510h-207l-12 186q-180 -197 -494 -196q-330 0 -499.5 210t-120.5 560t276.5 565t546.5 215q281 0 453 -138t163 -405h-296q-2 119 -93.5 192t-234.5 73q-223 0 -359.5 -132.5 t-169.5 -369.5q-31 -223 79 -357.5t292 -134.5q166 0 293 79t145 216h-366l37 258h682z" glyph-name="Gcaron" horiz-adv-x="1509" unicode="Ǧ"/><glyph d="M506 1186l-166 350h217l123 -221l186 221h217l-268 -350h-309zM428 -512q-227 -8 -348 69.5t-133 200.5q-8 76 36 172.5t134 143.5q-47 12 -73 63t-17 109q20 131 184 207q-45 47 -72.5 129t-15.5 174q25 158 176.5 273.5t357.5 115.5q76 0 165 -23.5t126 -60.5 q35 82 136.5 126t164.5 21q-8 -53 -26 -186q-43 20 -97.5 5t-83.5 -66q76 -125 62 -226q-25 -184 -183.5 -302t-365.5 -126q-123 -6 -207 37q-33 -10 -50 -29.5t-11 -38.5q10 -51 141 -51l221 -4q184 -4 288.5 -82t98.5 -211q-12 -213 -179 -322.5t-429 -117.5zM803 739 q10 74 -40 115t-140 41q-88 0 -148.5 -42t-71 -118t39 -119t135.5 -43q90 0 152.5 44t72.5 122zM737 -133q10 66 -65.5 91.5t-196.5 25.5h-151q-37 -10 -64 -45t-33 -72q-8 -66 47.5 -99.5t165.5 -33.5q121 0 205 36t92 97z" glyph-name="gcaron" horiz-adv-x="1236" unicode="ǧ"/><glyph d="M1090 1706h-226l217 342h299zM1419 1374q106 -111 152.5 -268.5t19.5 -337.5q-47 -332 -289.5 -560t-570.5 -228q-209 0 -356 94l-113 -142h-182l184 230q-106 109 -151 266.5t-21 339.5q47 334 289 561t571 227q201 0 357 -94l110 140h183zM387 768q-31 -219 78 -356 l645 802q-86 45 -199 46q-211 0 -352 -138.5t-172 -353.5zM774 279q209 0 348.5 138t169.5 351q33 221 -71 356l-646 -802q80 -43 199 -43z" glyph-name="Oslashacute" horiz-adv-x="1652" unicode="Ǿ"/><glyph d="M788 1194h-225l217 342h299zM975 930q172 -156 137 -418q-33 -225 -207 -378.5t-403 -153.5q-135 0 -244 57l-86 -107h-127l131 164q-170 158 -133 418q31 225 204 378.5t404 153.5q137 0 242 -57l88 107h127zM338 512q-16 -106 29 -180l346 428q-43 25 -99 24 q-106 0 -183 -77.5t-93 -194.5zM539 242q104 0 183 77.5t95 192.5q14 102 -33 180l-344 -428q40 -22 99 -22z" glyph-name="oslashacute" horiz-adv-x="1193" unicode="ǿ"/><glyph d="M584 -20q-250 0 -382 140t-122 376l266 -2q27 -227 289 -228q242 0 268 166q6 41 -10 78t-39 60.5t-76 53t-83.5 43t-102.5 42.5q-94 39 -148.5 67.5t-120 79.5t-90 119.5t-12.5 157.5q27 188 199 305.5t399 117.5q479 0 500 -499h-287q4 98 -55 169.5t-184 71.5 q-96 0 -169 -42t-83 -111q-6 -37 10 -67.5t60 -59.5t80 -46.5t108 -45.5q72 -31 108.5 -47.5t100 -51t96.5 -68.5t68.5 -82t46 -108.5t0.5 -132.5q-33 -223 -209 -339.5t-426 -116.5zM461 -473q-47 18 -71.5 61t-16.5 97q8 70 63.5 117.5t124.5 47.5q68 0 109 -48t30 -117 q-16 -115 -190 -301h-170z" glyph-name="Scommaaccent" horiz-adv-x="1325" unicode="Ș"/><glyph d="M479 -14q-225 0 -343 114.5t-111 266.5h274q8 -74 66.5 -114t134.5 -36q137 8 151 109q4 27 -9 47t-50 37.5t-64.5 26.5t-89.5 28q-80 23 -128 42t-106.5 56t-82 92.5t-12.5 130.5q23 162 164 260.5t352 98.5q164 0 286.5 -92t114.5 -267h-276q-16 111 -150 119 q-66 4 -107.5 -17.5t-48.5 -64.5q-2 -16 2.5 -29.5t17.5 -24.5t24.5 -18.5t37 -17.5t42 -15t50 -15.5t52.5 -16.5q74 -25 122 -47.5t100 -61t72.5 -98t10.5 -137.5q-23 -166 -157 -261t-339 -95zM322 -473q-47 18 -72 61t-17 97q8 70 63.5 117.5t125.5 47.5q68 0 108.5 -48 t30.5 -117q-16 -115 -190 -301h-170z" glyph-name="scommaaccent" horiz-adv-x="1019" unicode="ș"/><glyph d="M1309 1268h-435l-178 -1268h-305l178 1268h-436l37 268h1176zM432 -457q-47 18 -71.5 61.5t-16.5 96.5q8 70 63.5 118t124.5 48q68 0 109 -48t31 -118q-16 -119 -191 -301h-170z" glyph-name="uni021A" horiz-adv-x="1187" unicode="Ț"/><glyph d="M614 -2q-43 0 -73.5 1t-69.5 4t-65.5 9t-58.5 15.5t-52.5 25t-41 37t-31.5 49t-19 63.5t-8 82t8 99l69 491h-190l35 256h190l58 406h299l-58 -406h305l-34 -256h-306l-67 -471q-12 -86 26.5 -117.5t120.5 -31.5h142l-37 -256h-142zM250 -459q-47 18 -71.5 61.5 t-16.5 96.5q8 70 63.5 118t124.5 48q68 0 109 -48t30 -118q-16 -115 -190 -301h-170z" glyph-name="uni021B" horiz-adv-x="796" unicode="ț"/><glyph d="M1221 1268h-703l-51 -365h616l-39 -270h-616l-51 -363h702l-37 -270h-487l-88 -123q104 18 166.5 -36t48.5 -150q-12 -94 -86 -158.5t-168 -64.5q-76 0 -139.5 44t-79.5 107l137 45q10 -27 40 -45t60 -18q37 0 66 26.5t33 63.5q10 57 -37 74.5t-123 -15.5l-96 62l129 188 h-387l215 1536h1011z" glyph-name="uni0228" horiz-adv-x="1105" unicode="Ȩ"/><glyph d="M666 1137q242 0 360.5 -154t79.5 -418q-6 -41 -19 -96h-757q-2 -111 56 -173.5t159 -62.5q176 0 262 132h258q-49 -152 -179 -255.5t-325 -117.5q-2 -2 -2 -8l-76 -109q104 18 167 -36t48 -150q-12 -94 -85.5 -159t-168.5 -65q-76 0 -139 44.5t-80 107.5l135 45 q12 -27 42 -45t61 -18q37 0 65.5 26.5t32.5 63.5q8 57 -38 74.5t-122 -15.5l-96 62l117 174v6l2 4q-211 27 -319.5 183.5t-75.5 385.5q37 254 206 414t431 160zM367 688h448q-4 203 -188 203q-188 0 -260 -203z" glyph-name="uni0229" horiz-adv-x="1122" unicode="ȩ"/><glyph d="M-94 -532q-104 0 -148 32l35 250q45 -39 111 -39q53 0 96 41t51 105l164 1167h299l-168 -1188q-20 -156 -148 -262t-292 -106z" glyph-name="uni0237" horiz-adv-x="618" unicode="ȷ"/><glyph d="M367 1536h309l170 -350h-228l-114 221l-176 -221h-226z" glyph-name="circumflex" horiz-adv-x="47" unicode="ˆ"/><glyph d="M152 1536h217l123 -221l186 221h217l-268 -350h-310z" glyph-name="caron" horiz-adv-x="47" unicode="ˇ"/><glyph d="M653 1141q-166 0 -253 91t-62 261h170q-10 -72 37 -127t133 -55q88 0 150.5 54t72.5 128h170q-25 -170 -136.5 -261t-281.5 -91z" glyph-name="breve" horiz-adv-x="47" unicode="˘"/><glyph d="M393.5 1180q-69.5 0 -112.5 49t-33 119q8 70 65.5 119t127 49t111.5 -49.5t32 -118.5q-8 -70 -64.5 -119t-126 -49z" glyph-name="dotaccent" horiz-adv-x="47" unicode="˙"/><glyph d="M250 1130q-100 0 -160.5 71t-46.5 171q14 96 94 167t180 71q98 0 159 -71t46 -167q-14 -100 -94 -171t-178 -71zM268 1253q49 0 87 33t46 86q6 49 -22.5 84t-77.5 35t-87 -35t-44 -84q-8 -53 20.5 -86t77.5 -33z" glyph-name="ring" horiz-adv-x="47" unicode="˚"/><glyph d="M82 -530q-117 8 -183.5 66t-52.5 169q16 115 121 204t295 134l131 -43q-137 0 -232 -87t-110 -183q-8 -51 19.5 -83t83.5 -32q53 0 108 30.5t92 78.5l76 -132q-155 -136 -348 -122z" glyph-name="ogonek" horiz-adv-x="47" unicode="˛"/><glyph d="M586 1223q-121 0 -189 118q-20 39 -51 39q-37 0 -53.5 -40t-1.5 -101h-174q-12 133 60.5 222t184.5 89q127 0 193 -118q14 -39 49 -39q37 0 53.5 38.5t4.5 100.5h174q12 -131 -60.5 -220t-189.5 -89z" glyph-name="tilde" horiz-adv-x="49" unicode="˜"/><glyph d="M438 1536h279l-410 -365h-207zM862 1536h281l-410 -365h-207z" glyph-name="hungarumlaut" horiz-adv-x="47" unicode="˝"/><glyph d="M-375 1536h299l123 -342h-223z" glyph-name="gravecomb" unicode="̀"/><glyph d="M-205 1536h299l-291 -342h-225z" glyph-name="acutecomb" unicode="́"/><glyph d="M-432 1536h309l170 -350h-227l-115 221l-176 -221h-225z" glyph-name="uni0302" unicode="̂"/><glyph d="M-164 1223q-121 0 -188 118q-20 39 -51 39q-37 0 -53.5 -40t-2.5 -101h-174q-12 133 60.5 222t185.5 89q127 0 192 -118q14 -39 50 -39q37 0 53 38.5t4 100.5h174q12 -131 -60.5 -220t-189.5 -89z" glyph-name="tildecomb" unicode="̃"/><glyph d="M-559 1384h635l-27 -188h-635z" glyph-name="uni0304" unicode="̄"/><glyph d="M-621 1141q-166 0 -253 91t-62 261h170q-10 -72 37 -127t133 -55q88 0 150.5 54t72.5 128h170q-25 -170 -136.5 -261t-281.5 -91z" glyph-name="uni0306" unicode="̆"/><glyph d="M-245.5 1180q-69.5 0 -112.5 49t-33 119q8 70 65.5 119t127 49t111.5 -49.5t32 -118.5q-8 -70 -64.5 -119t-126 -49z" glyph-name="uni0307" unicode="̇"/><glyph d="M-632.5 1180q-69.5 0 -112.5 49t-33 119q8 70 65.5 119t127 49t111.5 -49.5t32 -118.5q-8 -70 -64.5 -119t-126 -49zM-186 1180q-68 0 -111 49t-35 119q8 68 66.5 118t126.5 50q70 0 111.5 -49.5t31.5 -118.5q-8 -70 -64 -119t-126 -49z" glyph-name="uni0308" unicode="̈"/><glyph d="M-115 1130q-100 0 -160.5 71t-46.5 171q14 96 94.5 167t180.5 71q98 0 158.5 -71t46.5 -167q-14 -100 -94.5 -171t-178.5 -71zM-96 1253q49 0 87 33t46 86q6 49 -22.5 84t-78 35t-87 -35t-44.5 -84q-8 -53 21 -86t78 -33z" glyph-name="uni030A" unicode="̊"/><glyph d="M-610 1536h278l-409 -365h-207zM-186 1536h280l-409 -365h-207z" glyph-name="uni030B" unicode="̋"/><glyph d="M-647 1536h217l123 -221l186 221h217l-268 -350h-309z" glyph-name="uni030C" unicode="̌"/><glyph d="M-190 1348q47 -18 71.5 -61.5t16.5 -96.5q-8 -70 -63.5 -118t-125.5 -48q-68 0 -108.5 48t-30.5 118q16 115 190 301h170z" glyph-name="uni0312" unicode="̒"/><glyph d="M-362.5 -512q-69.5 0 -111.5 49t-32 119q8 70 65.5 119t127 49t111.5 -49t32 -119q-8 -70 -65.5 -119t-127 -49z" glyph-name="dotbelowcomb" unicode="̣"/><glyph d="M-408 2q-49 18 -72.5 61t-15.5 97q8 70 63.5 118t125.5 48q68 0 108.5 -48.5t30.5 -117.5q-18 -119 -190 -301h-170z" glyph-name="uni0326" unicode="̦"/><glyph d="M-418 -532q-76 0 -139.5 44t-79.5 107l137 45q10 -27 40 -45t61 -18q37 0 65.5 26.5t32.5 63.5q10 57 -37 74.5t-123 -15.5l-96 62l129 188h137l-88 -123q104 18 166.5 -36t48.5 -150q-12 -94 -86 -158.5t-168 -64.5z" glyph-name="uni0327" unicode="̧"/><glyph d="M-524 -530q-117 8 -183.5 66t-52.5 169q16 115 120.5 204t295.5 134l131 -43q-137 0 -232.5 -87t-109.5 -183q-8 -51 19.5 -83t82.5 -32q53 0 108.5 30.5t92.5 78.5l76 -132q-155 -136 -348 -122z" glyph-name="uni0328" unicode="̨"/><glyph d="M-1018 600h694l-24 -168h-694z" glyph-name="uni0335" unicode="̵"/><glyph d="M-1559 590h1520l-16 -115h-1520z" glyph-name="uni0336" unicode="̶"/><glyph d="M-340 852h184l-731 -664h-176z" glyph-name="uni0337" unicode="̷"/><glyph d="M-53 1604h182l-1341 -1670h-185z" glyph-name="uni0338" unicode="̸"/><glyph d="M-16 156l770 1396h336l364 -1394l-20 -158h-1471zM1145 246l-180 663q-6 31 -42 182.5t-42 204.5h-15q-16 -39 -87.5 -176t-90.5 -176l-387 -698h844z" glyph-name="Delta" horiz-adv-x="1581" unicode="Δ"/><glyph d="M1155 0l-289 1192l-622 -1192h-334l831 1536h346l402 -1536h-334z" glyph-name="Lambda" horiz-adv-x="1585" unicode="Λ"/><glyph d="M260 1536h918l-37 -268h-918zM295 903h672l-39 -270h-672zM82 270h917l-36 -270h-918z" glyph-name="Xi" horiz-adv-x="1208" unicode="Ξ"/><glyph d="M29 215h278l2 8q-86 96 -137 256t-25 344q43 309 283 514t571 205q338 0 511.5 -212t132.5 -505q-25 -178 -121.5 -342t-214.5 -260l-2 -8h284l-28 -215h-645l22 160q154 80 269.5 239.5t146.5 374.5q33 233 -68.5 392t-312.5 159q-209 0 -362.5 -154.5t-188.5 -396.5 q-31 -213 43 -379t203 -235l-23 -160h-647z" glyph-name="Omega" horiz-adv-x="1746" unicode="Ω"/><glyph d="M950 1126h324l-158 -1126h-291v141q-72 -72 -174 -111.5t-205 -39.5q-109 0 -188 43v-8l-76 -537h-217l119 836q-4 55 4 100l98 702h326l-94 -663q-12 -86 31 -137.5t131 -51.5q98 0 181 53.5t95 135.5z" glyph-name="mu" horiz-adv-x="1300" unicode="μ"/><glyph d="M41 0q82 178 165 447.5t116 465.5q-168 0 -254 -24q10 35 21 82t14 64.5t13.5 43t14.5 30.5t21.5 17.5t29 10.5t41 1t56 0t77 -4t99.5 -1h1015l-53 -220h-178l-80 -571q-31 -221 -16 -342h-271q-31 63 7 322l82 591h-365q-37 -211 -121 -491.5t-164 -421.5h-270z" glyph-name="pi" horiz-adv-x="1433" unicode="π"/><glyph d="M1038 793q127 -41 190.5 -135.5t43.5 -239.5q-27 -193 -170.5 -305.5t-337.5 -112.5h-733l215 1536h635q197 0 309.5 -114.5t85.5 -309.5q-31 -208 -238 -319zM965 1081q10 76 -36 131.5t-122 55.5h-291l-51 -355h291q78 0 138.5 47t70.5 121zM756 270q78 0 140 55.5 t73 131.5q10 78 -36 142.5t-122 64.5h-381l-55 -394h381zM557 -100q70 0 112 -49.5t31 -118.5q-8 -70 -64 -119t-126 -49t-113 49t-32.5 118.5t66.5 119t126 49.5z" glyph-name="uni1E04" horiz-adv-x="1339" unicode="Ḅ"/><glyph d="M791 1137q225 0 348 -163t88 -409t-204 -409.5t-394 -163.5q-203 0 -307 133l-33 -125l-285 2l215 1536h322l-72 -512q129 111 322 111zM604 270q115 0 200 85t101 210q18 127 -42 212t-175 85q-82 0 -154.5 -50t-113.5 -130l-31 -231q16 -82 74.5 -131.5t140.5 -49.5z M508 -100q70 0 112 -49.5t31 -118.5q-8 -70 -64.5 -119t-126 -49t-112.5 49t-32.5 118.5t66.5 119t126 49.5z" glyph-name="uni1E05" horiz-adv-x="1234" unicode="ḅ"/><glyph d="M1524 1536l-215 -1536h-310l88 633h-659l-88 -633h-309l215 1536h309l-88 -631h659l88 631h310zM657.5 -100q69.5 0 111.5 -49.5t32 -118.5q-8 -70 -64.5 -119t-126 -49t-112.5 49t-33 118.5t66.5 119t126 49.5z" glyph-name="uni1E24" horiz-adv-x="1523" unicode="Ḥ"/><glyph d="M856 1135q197 0 291 -106.5t67 -303.5l-100 -725h-326l97 684q20 168 -164 168q-100 0 -182 -51t-95 -135l-92 -666h-325l215 1536h325l-75 -537q155 136 364 136zM505.5 -100q69.5 0 111.5 -49.5t32 -118.5q-8 -70 -64.5 -119t-126 -49t-112.5 49t-32.5 118.5t66.5 119 t125.5 49.5z" glyph-name="uni1E25" horiz-adv-x="1239" unicode="ḥ"/><glyph d="M246 1536h309l-178 -1266h518l-37 -270h-827zM385 -436q-70 0 -113 49t-32.5 118.5t66.5 119t126 49.5t112 -49.5t31 -118.5q-8 -70 -64 -119t-126 -49z" glyph-name="uni1E36" horiz-adv-x="1015" unicode="Ḷ"/><glyph d="M41 0l215 1536h299l-215 -1536h-299zM129 -436q-70 0 -113 49t-32.5 118.5t66.5 119t126 49.5t112 -49.5t31 -118.5q-8 -70 -64 -119t-126 -49z" glyph-name="uni1E37" horiz-adv-x="743" unicode="ḷ"/><glyph d="M979 1692q-70 0 -113 49t-32.5 118.5t66.5 119t126 49.5t112 -49.5t31 -118.5q-8 -70 -64 -119t-126 -49zM1655 1536l-215 -1536h-316l-635 1069l-149 -1069h-309l215 1536h315l637 -1067l150 1067h307z" glyph-name="uni1E44" horiz-adv-x="1654" unicode="Ṅ"/><glyph d="M696.5 1180q-69.5 0 -112.5 49t-33 119q8 70 65.5 119t127 49t111.5 -49.5t32 -118.5q-8 -70 -64.5 -119t-126 -49zM838 1141q197 0 291 -107.5t67 -304.5l-102 -729h-326l96 690q25 168 -164 168q-100 0 -181 -51t-93 -135l-94 -672h-326l158 1126h293l-2 -137 q74 70 177.5 111t205.5 41z" glyph-name="uni1E45" horiz-adv-x="1239" unicode="ṅ"/><glyph d="M1655 1536l-215 -1536h-316l-635 1069l-149 -1069h-309l215 1536h315l637 -1067l150 1067h307zM718.5 -100q69.5 0 111.5 -49.5t32 -118.5q-8 -70 -64.5 -119t-126 -49t-112.5 49t-32.5 118.5t66.5 119t125.5 49.5z" glyph-name="uni1E46" horiz-adv-x="1654" unicode="Ṇ"/><glyph d="M838 1141q197 0 291 -107.5t67 -304.5l-102 -729h-326l96 690q25 168 -164 168q-100 0 -181 -51t-93 -135l-94 -672h-326l158 1126h293l-2 -137q74 70 177.5 111t205.5 41zM516 -100q70 0 112 -49.5t31 -118.5q-8 -70 -64 -119t-126 -49t-113 49t-32.5 118.5t66.5 119 t126 49.5z" glyph-name="uni1E47" horiz-adv-x="1239" unicode="ṇ"/><glyph d="M584 -20q-250 0 -382 140t-122 376l266 -2q27 -227 289 -228q242 0 268 166q6 41 -10 78t-39 60.5t-76 53t-83.5 43t-102.5 42.5q-94 39 -148.5 67.5t-120 79.5t-90 119.5t-12.5 157.5q27 188 199 305.5t399 117.5q479 0 500 -499h-287q4 98 -55 169.5t-184 71.5 q-96 0 -169 -42t-83 -111q-6 -37 10 -67.5t60 -59.5t80 -46.5t108 -45.5q72 -31 108.5 -47.5t100 -51t96.5 -68.5t68.5 -82t46 -108.5t0.5 -132.5q-33 -223 -209 -339.5t-426 -116.5zM518.5 -436q-69.5 0 -113 49t-33 118.5t67 119t126 49.5t111.5 -49.5t32 -118.5 q-8 -70 -64.5 -119t-126 -49z" glyph-name="uni1E62" horiz-adv-x="1325" unicode="Ṣ"/><glyph d="M479 -14q-225 0 -343 114.5t-111 266.5h274q8 -74 66.5 -114t134.5 -36q137 8 151 109q4 27 -9 47t-50 37.5t-64.5 26.5t-89.5 28q-80 23 -128 42t-106.5 56t-82 92.5t-12.5 130.5q23 162 164 260.5t352 98.5q164 0 286.5 -92t114.5 -267h-276q-16 111 -150 119 q-66 4 -107.5 -17.5t-48.5 -64.5q-2 -16 2.5 -29.5t17.5 -24.5t24.5 -18.5t37 -17.5t42 -15t50 -15.5t52.5 -16.5q74 -25 122 -47.5t100 -61t72.5 -98t10.5 -137.5q-23 -166 -157 -261t-339 -95zM385 -436q-70 0 -113 49t-32.5 118.5t66.5 119t126 49.5t112 -49.5t31 -118.5 q-8 -70 -64 -119t-126 -49z" glyph-name="uni1E63" horiz-adv-x="1019" unicode="ṣ"/><glyph d="M1309 1268h-435l-178 -1268h-305l178 1268h-436l37 268h1176zM528.5 -100q69.5 0 111.5 -49.5t32 -118.5q-8 -70 -64.5 -119t-126 -49t-112.5 49t-33 118.5t66.5 119t126 49.5z" glyph-name="uni1E6C" horiz-adv-x="1187" unicode="Ṭ"/><glyph d="M614 -2q-43 0 -73.5 1t-69.5 4t-65.5 9t-58.5 15.5t-52.5 25t-41 37t-31.5 49t-19 63.5t-8 82t8 99l69 491h-190l35 256h190l58 406h299l-58 -406h305l-34 -256h-306l-67 -471q-12 -86 26.5 -117.5t120.5 -31.5h142l-37 -256h-142zM342 -100q70 0 112 -49.5t31 -118.5 q-8 -70 -64 -119t-126 -49t-113 49t-32.5 118.5t66.5 119t126 49.5z" glyph-name="uni1E6D" horiz-adv-x="796" unicode="ṭ"/><glyph d="M1223 1706l-199 342h299l123 -342h-223zM2460 1536l-639 -1536h-336l-236 1024l-481 -1024h-334l-252 1536h334l143 -1198l510 1198h306l213 -1200l440 1200h332z" glyph-name="Wgrave" horiz-adv-x="2396" unicode="Ẁ"/><glyph d="M760 1194l-199 342h299l123 -342h-223zM1815 1126l-519 -1126h-366l-66 481l-200 -481h-367l-205 1126h369l80 -751l290 751h273l74 -751l272 751h365z" glyph-name="wgrave" horiz-adv-x="1611" unicode="ẁ"/><glyph d="M1462 1706h-225l217 342h299zM2460 1536l-639 -1536h-336l-236 1024l-481 -1024h-334l-252 1536h334l143 -1198l510 1198h306l213 -1200l440 1200h332z" glyph-name="Wacute" horiz-adv-x="2396" unicode="Ẃ"/><glyph d="M1020 1194h-225l217 342h299zM1815 1126l-519 -1126h-366l-66 481l-200 -481h-367l-205 1126h369l80 -751l290 751h273l74 -751l272 751h365z" glyph-name="wacute" horiz-adv-x="1611" unicode="ẃ"/><glyph d="M1120.5 1692q-69.5 0 -112.5 49t-33 118.5t66.5 119t126 49.5t111.5 -49.5t32 -118.5q-8 -70 -64.5 -119t-126 -49zM1567 1692q-68 0 -111 49t-35 119q10 70 67.5 119t125.5 49q70 0 111.5 -49.5t31.5 -118.5q-8 -70 -64 -119t-126 -49zM2460 1536l-639 -1536h-336 l-236 1024l-481 -1024h-334l-252 1536h334l143 -1198l510 1198h306l213 -1200l440 1200h332z" glyph-name="Wdieresis" horiz-adv-x="2396" unicode="Ẅ"/><glyph d="M678 1180q-70 0 -113 49t-33 119q8 70 65.5 119t127.5 49t112 -49.5t31 -118.5q-8 -70 -64 -119t-126 -49zM1124 1180q-68 0 -110.5 49t-34.5 119q8 68 66.5 118t125.5 50q70 0 112 -49.5t32 -118.5q-8 -70 -64.5 -119t-126.5 -49zM1815 1126l-519 -1126h-366l-66 481 l-200 -481h-367l-205 1126h369l80 -751l290 751h273l74 -751l272 751h365z" glyph-name="wdieresis" horiz-adv-x="1611" unicode="ẅ"/><glyph d="M1184 270l-37 -270h-1174l23 166l911 1102h-735l37 268h1149l-23 -166l-913 -1100h762zM544.5 -100q69.5 0 111.5 -49.5t32 -118.5q-8 -70 -64.5 -119t-126 -49t-112.5 49t-33 118.5t66.5 119t126 49.5z" glyph-name="uni1E92" horiz-adv-x="1308" unicode="Ẓ"/><glyph d="M27 219l591 561h-512l35 244h889l-31 -215l-596 -565h521l-33 -244h-895zM383 -436q-70 0 -113 49t-32.5 118.5t66.5 119t126 49.5t112 -49.5t31 -118.5q-8 -70 -64 -119t-126 -49z" glyph-name="uni1E93" horiz-adv-x="1071" unicode="ẓ"/><glyph d="M1071 311h-668l-159 -311h-334l831 1536h346l402 -1536h-334zM1020 578l-150 645l-340 -645h490zM688 -100q70 0 112 -49.5t31 -118.5q-8 -70 -64 -119t-126 -49t-113 49t-32.5 118.5t66.5 119t126 49.5z" glyph-name="uni1EA0" horiz-adv-x="1585" unicode="Ạ"/><glyph d="M334 -16q-166 0 -253 88t-65 247q20 150 165 243t345 112l224 20l4 19q12 94 -25 135t-123 41q-203 0 -241 -172h-263q37 182 171.5 300t373.5 118q215 0 322.5 -104.5t77.5 -319.5q-14 -113 -48 -338q-18 -135 72 -135l-33 -238q-10 0 -38.5 -1t-45.5 -1h-27.5h-30.5 t-28.5 1t-31 3t-28 6t-28.5 9.5t-23.5 14.5t-23.5 20t-17 25.5t-16 33.5q-55 -57 -155 -92t-211 -35zM453 217q117 0 243 100l25 175l-156 -21q-215 -29 -229 -133q-8 -55 25 -88t92 -33zM454.5 -100q69.5 0 111.5 -49.5t32 -118.5q-8 -70 -64.5 -119t-126 -49t-112.5 49 t-33 118.5t66.5 119t126 49.5z" glyph-name="uni1EA1" horiz-adv-x="1144" unicode="ạ"/><glyph d="M518 1268l-51 -365h616l-39 -270h-616l-51 -363h702l-37 -270h-1011l215 1536h1011l-36 -268h-703zM473 -100q70 0 112 -49.5t31 -118.5q-8 -70 -64 -119t-126 -49t-113 49t-32.5 118.5t66.5 119t126 49.5z" glyph-name="uni1EB8" horiz-adv-x="1105" unicode="Ẹ"/><glyph d="M1106 565q-6 -41 -19 -96h-757q-2 -111 56 -173.5t159 -62.5q176 0 262 132h258q-53 -164 -199.5 -269.5t-363.5 -105.5q-248 0 -378 161.5t-95 411.5q37 254 205.5 414t431.5 160q242 0 360.5 -154t79.5 -418zM627 891q-188 0 -260 -203h448q-4 203 -188 203z M489.5 -100q69.5 0 111.5 -49.5t32 -118.5q-8 -70 -64.5 -119t-126 -49t-112.5 49t-33 118.5t66.5 119t126 49.5z" glyph-name="uni1EB9" horiz-adv-x="1122" unicode="ẹ"/><glyph d="M385 1690q-12 133 60.5 222t185.5 89q127 0 192 -119q14 -39 49 -39q37 0 53.5 39t4.5 100h174q12 -131 -60.5 -220t-189.5 -89q-121 0 -188 119q-20 39 -52 39q-37 0 -53 -40t-2 -101h-174zM518 1268l-51 -365h616l-39 -270h-616l-51 -363h702l-37 -270h-1011l215 1536 h1011l-36 -268h-703z" glyph-name="uni1EBC" horiz-adv-x="1105" unicode="Ẽ"/><glyph d="M315 1178q-10 133 64 222t184 89q127 0 193 -119q14 -39 49 -39q37 0 53 39t4 100h174q10 -131 -61.5 -220t-188.5 -89q-121 0 -190 119q-18 39 -49 39q-35 0 -52.5 -40t-5.5 -101h-174zM1106 565q-6 -41 -19 -96h-757q-2 -111 56 -173.5t159 -62.5q176 0 262 132h258 q-53 -164 -199.5 -269.5t-363.5 -105.5q-248 0 -378 161.5t-95 411.5q37 254 205.5 414t431.5 160q242 0 360.5 -154t79.5 -418zM627 891q-188 0 -260 -203h448q-4 203 -188 203z" glyph-name="uni1EBD" horiz-adv-x="1122" unicode="ẽ"/><glyph d="M246 1536h309l-215 -1536h-309zM123 -436q-70 0 -113 49t-32.5 118.5t66.5 119t126 49.5t112 -49.5t31 -118.5q-8 -70 -64 -119t-126 -49z" glyph-name="uni1ECA" horiz-adv-x="555" unicode="Ị"/><glyph d="M371 1200q-68 0 -111 49t-35 119q10 70 67.5 119t125.5 49q70 0 112.5 -49t32.5 -119q-8 -70 -65 -119t-127 -49zM197 1024h299l-144 -1024h-299zM147.5 -471q-69.5 0 -111.5 49t-32 119q8 70 64.5 119t126 49t112.5 -49t33 -119t-66.5 -119t-126 -49z" glyph-name="uni1ECB" horiz-adv-x="591" unicode="ị"/><glyph d="M731 -20q-330 0 -508 227t-131 561t289 561t571 227q328 0 507 -228t132 -560t-289.5 -560t-570.5 -228zM774 279q209 0 348.5 138t169.5 351q31 215 -70.5 353.5t-310.5 138.5q-211 0 -352 -138.5t-172 -353.5q-31 -213 72.5 -351t314.5 -138zM673.5 -436 q-69.5 0 -112.5 49t-32.5 118.5t66.5 119t126 49.5t111.5 -49.5t31.5 -118.5q-8 -70 -64.5 -119t-126 -49z" glyph-name="uni1ECC" horiz-adv-x="1652" unicode="Ọ"/><glyph d="M502 -20q-231 0 -361.5 153.5t-97.5 378.5q31 225 204 378.5t404 153.5q229 0 360.5 -153.5t100.5 -378.5q-33 -225 -207 -378.5t-403 -153.5zM539 242q104 0 183 77.5t95.5 192.5t-41 193.5t-162.5 78.5q-106 0 -183 -77.5t-93 -194.5t39.5 -193.5t161.5 -76.5z M444.5 -436q-69.5 0 -112.5 49t-33 118.5t66.5 119t126 49.5t111.5 -49.5t32 -118.5q-8 -70 -64.5 -119t-126 -49z" glyph-name="uni1ECD" horiz-adv-x="1193" unicode="ọ"/><glyph d="M659.5 -20q-264.5 0 -425 149.5t-130.5 366.5l146 1040h309l-139 -985q-16 -127 64.5 -214t213.5 -87t238.5 88t122.5 213l139 985h309l-145 -1040q-31 -217 -234.5 -366.5t-468 -149.5zM602 -436q-70 0 -113 49t-32.5 118.5t67 119t126 49.5t111.5 -49.5t32 -118.5 q-8 -70 -64.5 -119t-126.5 -49z" glyph-name="uni1EE4" horiz-adv-x="1511" unicode="Ụ"/><glyph d="M721 1706l-199 342h299l123 -342h-223zM858 727l-100 -727h-307l100 721l-426 815h344l270 -551l430 551h340z" glyph-name="Ygrave" horiz-adv-x="1388" unicode="Ỳ"/><glyph d="M575 1194l-198 342h299l123 -342h-224zM1343 1126l-913 -1693h-293l352 651h-67l-283 1042h320l200 -716l377 716h307z" glyph-name="ygrave" horiz-adv-x="1247" unicode="ỳ"/><glyph d="M551 721l-426 815h344l270 -551l430 551h340l-651 -809l-100 -727h-307zM592 -100q70 0 111.5 -49.5t31.5 -118.5q-8 -70 -64.5 -119t-126 -49t-112.5 49t-32.5 118.5t66.5 119t126 49.5z" glyph-name="uni1EF4" horiz-adv-x="1388" unicode="Ỵ"/><glyph d="M504 1690q-12 133 60.5 222t185.5 89q127 0 192 -119q14 -39 49 -39q37 0 53.5 39t4.5 100h174q12 -131 -60.5 -220t-189.5 -89q-121 0 -189 119q-20 39 -51 39q-37 0 -53 -40t-2 -101h-174zM858 727l-100 -727h-307l100 721l-426 815h344l270 -551l430 551h340z" glyph-name="uni1EF8" horiz-adv-x="1388" unicode="Ỹ"/><glyph d="M147 633h1024l-28 -199h-1024z" glyph-name="endash" horiz-adv-x="1325" unicode="–"/><glyph d="M-6 633h2050l-29 -199h-2050z" glyph-name="emdash" horiz-adv-x="2045" unicode="—"/><glyph d="M236 1069q-68 0 -109 48t-31 118q18 119 191 301h168l-66 -180q47 -51 35 -121q-10 -72 -66 -119t-122 -47z" glyph-name="quoteleft" horiz-adv-x="356" unicode="‘"/><glyph d="M205 1212q-47 18 -71.5 61.5t-16.5 96.5q8 70 64.5 118t124 48t108.5 -48t30 -118q-18 -119 -190 -301h-168z" glyph-name="quoteright" horiz-adv-x="356" unicode="’"/><glyph d="M35 2q-49 18 -72.5 61t-15.5 97q8 70 63.5 118t124.5 48q68 0 109 -48.5t30 -117.5q-18 -119 -190 -301h-170z" glyph-name="quotesinglbase" horiz-adv-x="356" unicode="‚"/><glyph d="M236 1069q-70 0 -110 48t-30 118q18 119 191 301h168l-66 -180q47 -51 35 -121q-8 -70 -64 -118t-124 -48zM686 1069q-70 0 -109.5 48t-29.5 118q18 119 190 301h168l-65 -180q47 -51 34 -121q-8 -70 -64 -118t-124 -48z" glyph-name="quotedblleft" horiz-adv-x="806" unicode="“"/><glyph d="M152 1249q-47 51 -35 121q8 70 64.5 118t123.5 48q70 0 110 -48t29 -118q-18 -119 -190 -301h-168zM602 1249q-47 51 -35 121q8 70 64.5 118t124.5 48q70 0 109.5 -48t29.5 -118q-18 -119 -190 -301h-168z" glyph-name="quotedblright" horiz-adv-x="806" unicode="”"/><glyph d="M-23 0q-47 49 -36 121q8 70 64 118t124 48q70 0 110 -48.5t29 -117.5q-16 -115 -190 -301h-168zM428 0q-47 49 -37 121q8 70 64.5 118t124.5 48q70 0 109.5 -48.5t29.5 -117.5q-16 -115 -191 -301h-168z" glyph-name="quotedblbase" horiz-adv-x="806" unicode="„"/><glyph d="M1116 827h-340l-164 -1175h-188l164 1175h-332l27 187h331l52 358h188l-51 -358h340z" glyph-name="dagger" horiz-adv-x="1327" unicode="†"/><glyph d="M776 827l-86 -612h340l-26 -188h-340l-52 -375h-188l51 375h-332l27 188h332l86 612h-332l27 187h331l52 358h188l-51 -358h340l-27 -187h-340z" glyph-name="daggerdbl" horiz-adv-x="1327" unicode="‡"/><glyph d="M475 348q-133 0 -217 94.5t-63 231.5q18 133 129.5 230t242.5 97t215 -98t66 -229q-20 -137 -130 -231.5t-243 -94.5z" glyph-name="bullet" horiz-adv-x="1036" unicode="•"/><glyph d="M272 -16q-68 0 -109.5 49t-33.5 118.5t66.5 120t126.5 50.5q70 0 111.5 -49.5t31.5 -120.5q-10 -70 -66.5 -119t-126.5 -49zM883 -16q-70 0 -112 49t-32 119q8 70 65.5 120t127 50t112.5 -49.5t33 -120.5q-8 -70 -65 -119t-129 -49zM1491 -16q-68 0 -109 49t-30 119 q8 70 64.5 120t123.5 50q70 0 114 -49.5t34 -120.5q-8 -70 -66.5 -119t-130.5 -49z" glyph-name="ellipsis" horiz-adv-x="1943" unicode="…"/><glyph d="M422 821q-137 0 -217 107.5t-58 259.5q23 154 131.5 261t245.5 107q135 0 215 -107.5t58 -260.5q-23 -152 -131.5 -259.5t-243.5 -107.5zM1311 1536h307l-1249 -1536h-308zM453 1044q39 0 75.5 42t45 101.5t-16.5 102.5t-63 43q-41 0 -77 -42t-44 -103 q-8 -59 15.5 -101.5t64.5 -42.5zM1157 -20q-135 0 -215 107.5t-59 260.5q23 152 132 260.5t247 108.5q135 0 213.5 -107.5t56.5 -261.5q-20 -152 -130 -260t-245 -108zM1909 -20q-135 0 -215 107.5t-60 260.5q23 152 133.5 260.5t245.5 108.5t215 -108.5t58 -260.5 q-20 -152 -131 -260t-246 -108zM1188 205q41 0 75.5 42t43 101.5t-15 101.5t-64.5 42t-77 -41t-44 -102.5t16.5 -102.5t65.5 -41zM1942 205q39 0 74.5 42t43.5 101.5t-16.5 101.5t-63.5 42q-41 0 -76.5 -41t-44 -102.5t16.5 -102.5t66 -41z" glyph-name="perthousand" horiz-adv-x="2400" unicode="‰"/><glyph d="M57 571l365 377h237l-364 -377l258 -376h-238z" glyph-name="guilsinglleft" horiz-adv-x="727" unicode="‹"/><glyph d="M410 571l-258 377h235l258 -377l-364 -376h-236z" glyph-name="guilsinglright" horiz-adv-x="727" unicode="›"/><glyph d="M1124 1536h297l-1286 -1536h-299z" glyph-name="fraction" horiz-adv-x="1257" unicode="⁄"/><glyph d="M86 965h135q70 240 238 379t389 139q236 0 355.5 -143.5t90.5 -391.5h-245q31 303 -234 303q-121 0 -209 -73.5t-131 -212.5h475l-69 -201h-445l-8 -53h436l-69 -219h-387q12 -283 264 -283q274 0 336 328h243q-41 -260 -206.5 -412t-405.5 -152q-223 0 -353 139.5 t-132 379.5h-136l31 219h127l8 53h-127z" glyph-name="Euro" horiz-adv-x="1384" unicode="€"/><glyph d="M588 -14q-190 0 -282.5 99t-96.5 259l2 21q-20 -12 -66.5 -43t-70.5 -46l-56 146q39 29 113 77t105 70l75 541q41 287 178.5 427t323.5 140q168 0 238.5 -109.5t48.5 -275.5q-27 -193 -177.5 -378t-422.5 -396l-6 -67q-12 -115 42 -178.5t148 -63.5q180 0 352 213 l101 -119q-219 -317 -549 -317zM535 764q342 307 372 528q27 197 -108 197q-68 0 -127.5 -82t-83.5 -262z" glyph-name="afii61289" horiz-adv-x="1218" unicode="ℓ"/><glyph d="M143 1536h512l-16 -123h-186l-84 -594h-142l84 594h-184zM1542 1536l-100 -719h-142l72 516l-244 -516h-149l-100 516l-72 -516h-143l100 719h201l112 -532l266 532h199z" glyph-name="trademark" horiz-adv-x="1533" unicode="™"/><glyph d="M842 -18q-362 0 -585.5 230t-178.5 554q45 328 333.5 559t651.5 231q365 0 588 -231t178 -559l-2 -21h-1417q-12 0 -15 -8l-59 -430q-4 -23 10 -49q197 -233 504 -233q340 0 602 262h125q-137 -141 -331.5 -223t-403.5 -82zM1503 788q6 0 10 15l60 430q4 35 -12 51 q-199 225 -502 225q-301 0 -567 -231q-25 -25 -27 -53l-59 -422q-4 -14 10 -15h1087z" glyph-name="estimated" horiz-adv-x="1880" unicode="℮"/><glyph d="M1538 598h-1100l25 -260l-445 385l553 385l-98 -262h1100z" glyph-name="arrowleft" horiz-adv-x="1720" unicode="←"/><glyph d="M436 1100l-270 -62l455 498l315 -498l-252 62l-154 -1100h-247z" glyph-name="arrowup" horiz-adv-x="1013" unicode="↑"/><glyph d="M1300 846l-24 262l442 -385l-551 -385l99 260h-1100l35 248h1099z" glyph-name="arrowright" horiz-adv-x="1720" unicode="→"/><glyph d="M745 1536l-153 -1100l268 62l-454 -498l-316 498l254 -62l154 1100h247z" glyph-name="arrowdown" horiz-adv-x="995" unicode="↓"/><glyph d="M-131 682l553 385l-100 -260l1148 -2l-24 260l442 -385l-549 -385l99 262l-1151 2l22 -264z" glyph-name="arrowboth" horiz-adv-x="1753" unicode="↔"/><glyph d="M70 350l252 -61l112 798l-270 -61l454 496l316 -498l-252 61l-111 -794l269 61l-455 -497z" glyph-name="arrowupdn" horiz-adv-x="995" unicode="↕"/><glyph d="M981 137l-670 776l-172 -227l8 625l613 -80l-250 -141l670 -779z" glyph-name="uni2196" horiz-adv-x="1095" unicode="↖"/><glyph d="M705 1090l-209 141l637 80l-168 -625l-111 227l-887 -776l-149 174z" glyph-name="uni2197" horiz-adv-x="1095" unicode="↗"/><glyph d="M147 1399l668 -776l174 227l-8 -625l-612 80l247 141l-667 779z" glyph-name="uni2198" horiz-adv-x="1097" unicode="↘"/><glyph d="M420 446l211 -141l-637 -80l168 625l108 -227l889 776l150 -174z" glyph-name="uni2199" horiz-adv-x="1097" unicode="↙"/><glyph d="M426 1456q211 45 370.5 -44t231.5 -285.5t33 -454.5q-41 -285 -224.5 -477.5t-412.5 -192.5q-270 0 -358.5 179t53.5 450q117 225 304 325.5t372 44.5q-37 174 -143.5 244t-256.5 4zM799 672l12 114q-125 76 -246 17.5t-215 -238.5q-76 -147 -45 -259.5t146 -112.5 q111 0 215 142t133 337z" glyph-name="partialdiff" horiz-adv-x="1128" unicode="∂"/><glyph d="M1319 987q121 -170 88 -391q-35 -254 -239.5 -433t-458.5 -179q-223 0 -371 141l-102 -88l-68 80l102 88q-119 168 -88 391q37 254 242 433t459 179q221 0 368 -141l103 90l69 -80zM418 596q-16 -129 41 -223l602 526q-86 74 -213 74q-158 0 -282.5 -109.5t-147.5 -267.5 zM743 219q156 0 281 109.5t147 267.5q18 125 -41 223l-602 -526q86 -74 215 -74z" glyph-name="emptyset" horiz-adv-x="1607" unicode="∅"/><glyph d="M1532 1233h-123l-207 -1479h-205l207 1479h-725l-207 -1479h-206l206 1479h-122l28 207h1383z" glyph-name="product" horiz-adv-x="1521" unicode="∏"/><glyph d="M49 -63l793 661l-606 662l24 180h1202l-30 -223h-842l551 -619l-725 -618h841l-30 -224l-1202 2z" glyph-name="summation" horiz-adv-x="1505" unicode="∑"/><glyph d="M98 727h1229l-27 -192h-1228z" glyph-name="minus" horiz-adv-x="1406" unicode="−"/><glyph d="M238 528h-146l27 189h280l109 -582l891 1440l164 -74l-1031 -1661h-167z" glyph-name="radical" horiz-adv-x="1492" unicode="√"/><glyph d="M354 262q-137 0 -214 93.5t-60 240.5q27 147 128 240.5t238 93.5q186 0 349 -195q219 195 401 195q143 0 216 -89t54 -245q-27 -156 -123 -245t-239 -89q-182 0 -348 195q-222 -195 -402 -195zM381 451q109 0 266 145q-117 145 -227 145q-55 0 -99.5 -41t-54.5 -104 q-6 -61 28 -103t87 -42zM1130 451q55 0 97.5 38.5t52.5 106.5q8 66 -22.5 105.5t-88.5 39.5q-109 0 -270 -145q122 -145 231 -145z" glyph-name="infinity" horiz-adv-x="1566" unicode="∞"/><glyph d="M197 -387q-98 0 -143.5 72.5t-8.5 179.5h143q-8 -57 -4 -79t33 -22q39 0 43 43l213 1516q12 84 75.5 139.5t147.5 55.5q94 0 138.5 -73t7.5 -179h-146q10 57 6 78.5t-30 21.5q-41 0 -47 -43l-213 -1516q-10 -84 -72.5 -139t-142.5 -55z" glyph-name="integral" horiz-adv-x="913" unicode="∫"/><glyph d="M803 649q-66 0 -124 32t-76.5 53.5t-57.5 70.5q-59 78 -125 78q-74 0 -123 -62.5t-49 -150.5h-152q2 160 102.5 262t245.5 102q82 0 134.5 -35.5t103.5 -111.5q55 -88 129 -88q70 0 121 58t49 153h149q2 -152 -94 -256.5t-233 -104.5zM743 225q-66 0 -124 32t-76.5 53.5 t-57.5 70.5q-59 78 -125 78q-74 0 -124 -62.5t-50 -150.5h-151q2 162 103.5 264t246.5 102q80 0 133 -35.5t105 -113.5q55 -88 129 -88q70 0 121 58.5t49 152.5h149q2 -152 -94.5 -256.5t-233.5 -104.5z" glyph-name="approxequal" horiz-adv-x="1177" unicode="≈"/><glyph d="M889 653l-219 -219h616l-26 -188h-777l-225 -228h-166l225 228h-286l26 188h449l217 219h-635l27 187h796l201 202h166l-203 -202h268l-26 -187h-428z" glyph-name="notequal" horiz-adv-x="1406" unicode="≠"/><glyph d="M1427 1257l-938 -380l830 -383l-35 -248l-1059 497l37 267l1200 493zM143 170h1131l-23 -170h-1130z" glyph-name="lessequal" horiz-adv-x="1554" unicode="≤"/><glyph d="M1393 1010l-37 -267l-1202 -497l34 248l938 383l-829 380l35 246zM143 170h1131l-23 -170h-1130z" glyph-name="greaterequal" horiz-adv-x="1554" unicode="≥"/><glyph d="M160 723l706 618l529 -616l-703 -619zM1069 725l-250 291l-334 -293l252 -291z" glyph-name="lozenge" horiz-adv-x="1538" unicode="◊"/><glyph glyph-name="glyph432"/><glyph d="M436 1100l-270 -62l455 498l315 -498l-252 62l-154 -1100h-247z" glyph-name="glyph433" horiz-adv-x="995"/><glyph d="M371 1200q-68 0 -111 49t-35 119q10 70 67.5 119t125.5 49q70 0 112.5 -49t32.5 -119q-8 -70 -65 -119t-127 -49zM197 1024h299l-144 -1024h-299z" glyph-name="i.locl" horiz-adv-x="696"/><glyph d="M1071 311h-668l-159 -311h-334l831 1536h346l402 -1536h-334zM1020 578l-150 645l-340 -645h490z" glyph-name="glyph435" horiz-adv-x="1585"/><glyph d="M1057 1706h-226l218 342h299zM1071 311h-668l-159 -311h-334l831 1536h346l402 -1536h-334zM1020 578l-150 645l-340 -645h490z" glyph-name="glyph436" horiz-adv-x="1585"/><glyph d="M932 1653q-166 0 -253 91t-63 261h170q-10 -72 37 -127t133 -55q88 0 150.5 54t73.5 128h170q-25 -170 -136.5 -261t-281.5 -91zM1071 311h-668l-159 -311h-334l831 1536h346l402 -1536h-334zM1020 578l-150 645l-340 -645h490z" glyph-name="glyph437" horiz-adv-x="1585"/><glyph d="M782 1698l-166 350h218l122 -221l187 221h217l-268 -350h-310zM1071 311h-668l-159 -311h-334l831 1536h346l402 -1536h-334zM1020 578l-150 645l-340 -645h490z" glyph-name="glyph438" horiz-adv-x="1585"/><glyph d="M793 1698h-226l264 350h310l170 -350h-228l-114 221zM1071 311h-668l-159 -311h-334l831 1536h346l402 -1536h-334zM1020 578l-150 645l-340 -645h490z" glyph-name="glyph439" horiz-adv-x="1585"/><glyph d="M714.5 1692q-69.5 0 -112.5 49t-32.5 118.5t66.5 119t125.5 49.5t111.5 -49.5t32 -118.5q-8 -70 -64.5 -119t-126 -49zM1161 1692q-68 0 -110.5 49t-34.5 119q10 70 67.5 119t124.5 49q70 0 112 -49.5t32 -118.5q-8 -70 -64.5 -119t-126.5 -49zM1071 311h-668l-159 -311 h-334l831 1536h346l402 -1536h-334zM1020 578l-150 645l-340 -645h490z" glyph-name="glyph440" horiz-adv-x="1585"/><glyph d="M1071 311h-668l-159 -311h-334l831 1536h346l402 -1536h-334zM1020 578l-150 645l-340 -645h490zM688 -100q70 0 112 -49.5t31 -118.5q-8 -70 -64 -119t-126 -49t-113 49t-32.5 118.5t66.5 119t126 49.5z" glyph-name="glyph441" horiz-adv-x="1585"/><glyph d="M817 1706l-199 342h300l122 -342h-223zM1071 311h-668l-159 -311h-334l831 1536h346l402 -1536h-334zM1020 578l-150 645l-340 -645h490z" glyph-name="glyph442" horiz-adv-x="1585"/><glyph d="M1260 1708h-635l26 188h635zM1071 311h-668l-159 -311h-334l831 1536h346l402 -1536h-334zM1020 578l-150 645l-340 -645h490z" glyph-name="glyph443" horiz-adv-x="1585"/><glyph d="M1450 -276l76 -132q-156 -137 -348 -122q-117 8 -182.5 66t-51.5 169q31 195 277 295h-66l-84 311h-668l-159 -311h-334l831 1536h346l402 -1536q-160 -6 -244 -90t-98 -180q-8 -51 19.5 -83t82.5 -32q53 0 108.5 31t92.5 78zM530 578h490l-150 645z" glyph-name="glyph444" horiz-adv-x="1585"/><glyph d="M1096 1505l393 -1505h-334l-84 311h-668l-159 -311h-334l815 1507q-45 70 -33 152q14 96 95 166.5t182 70.5q98 0 157.5 -70.5t44.5 -166.5q-12 -91 -75 -154zM817 1659q-6 -53 22.5 -86t78.5 -33q51 0 88.5 33t44.5 86q8 47 -21 83t-78 36t-88 -35t-47 -84zM530 578h490 l-150 645z" glyph-name="glyph445" horiz-adv-x="1585"/><glyph d="M600 1690q-12 133 60.5 222t185.5 89q127 0 192 -119q14 -39 49 -39q37 0 53.5 39t4.5 100h174q12 -131 -60.5 -220t-189.5 -89q-121 0 -188 119q-20 39 -52 39q-37 0 -53 -40t-2 -101h-174zM1071 311h-668l-159 -311h-334l831 1536h346l402 -1536h-334zM1020 578 l-150 645l-340 -645h490z" glyph-name="glyph446" horiz-adv-x="1585"/><glyph d="M741 1536h1227l-37 -260h-608l-55 -391h522l-33 -232h-522l-53 -391h608l-37 -262h-907l45 319h-479l-156 -319h-346zM926 553l100 723h-108l-375 -723h383z" glyph-name="glyph447" horiz-adv-x="1916"/><glyph d="M997 793q127 -41 190.5 -135.5t43.5 -239.5q-27 -193 -170 -305.5t-338 -112.5h-692l215 1536h594q197 0 309.5 -114.5t85.5 -309.5q-31 -208 -238 -319zM924 1081q10 76 -36 131.5t-122 55.5h-250l-51 -355h250q78 0 138.5 47t70.5 121zM715 270q78 0 140.5 55.5 t72.5 131.5q10 78 -36 142.5t-122 64.5h-340l-55 -394h340z" glyph-name="glyph448" horiz-adv-x="1298"/><glyph d="M1038 793q127 -41 190.5 -135.5t43.5 -239.5q-27 -193 -170.5 -305.5t-337.5 -112.5h-733l215 1536h635q197 0 309.5 -114.5t85.5 -309.5q-31 -208 -238 -319zM965 1081q10 76 -36 131.5t-122 55.5h-291l-51 -355h291q78 0 138.5 47t70.5 121zM756 270q78 0 140 55.5 t73 131.5q10 78 -36 142.5t-122 64.5h-381l-55 -394h381zM557 -100q70 0 112 -49.5t31 -118.5q-8 -70 -64 -119t-126 -49t-113 49t-32.5 118.5t66.5 119t126 49.5z" glyph-name="glyph449" horiz-adv-x="1339"/><glyph d="M731 -20q-328 0 -507 228t-132 560q47 334 289 561t571 227q295 0 466 -173t151 -451h-291q0 129 -89 229.5t-278 100.5q-211 0 -353 -140.5t-173 -353.5q-31 -215 72.5 -355.5t314.5 -140.5q182 0 303 100.5t154 221.5h291q-55 -246 -286 -430t-503 -184z" glyph-name="glyph450" horiz-adv-x="1669"/><glyph d="M1081 2048h299l-290 -342h-226zM731 -20q-328 0 -507 228t-132 560q47 334 289 561t571 227q295 0 466 -173t151 -451h-291q0 129 -89 229.5t-278 100.5q-211 0 -353 -140.5t-173 -353.5q-31 -215 72.5 -355.5t314.5 -140.5q182 0 303 100.5t154 221.5h291 q-55 -246 -286 -430t-503 -184z" glyph-name="glyph451" horiz-adv-x="1669"/><glyph d="M651 2048h217l123 -221l187 221h217l-269 -350h-309zM731 -20q-328 0 -507 228t-132 560q47 334 289 561t571 227q295 0 466 -173t151 -451h-291q0 129 -89 229.5t-278 100.5q-211 0 -353 -140.5t-173 -353.5q-31 -215 72.5 -355.5t314.5 -140.5q182 0 303 100.5 t154 221.5h291q-55 -246 -286 -430t-503 -184z" glyph-name="glyph452" horiz-adv-x="1669"/><glyph d="M911 1262q-211 0 -353 -140.5t-173 -353.5q-31 -215 72.5 -355.5t314.5 -140.5q182 0 303 100.5t154 221.5h291q-51 -231 -261 -411.5t-468 -200.5l-74 -105q104 18 166.5 -36t48.5 -150q-12 -94 -86 -158.5t-168 -64.5q-76 0 -139.5 44t-79.5 107l137 45q10 -27 40 -45 t60 -18q37 0 66 26.5t33 63.5q10 57 -37 74.5t-123 -15.5l-96 62l114 172q-293 29 -448.5 251t-112.5 533q47 334 289 561t571 227q295 0 466 -173t151 -451h-291q0 129 -89.5 229.5t-277.5 100.5z" glyph-name="glyph453" horiz-adv-x="1669"/><glyph d="M972.5 1692q-69.5 0 -112.5 49t-32.5 118.5t66.5 119t126 49.5t112 -49.5t31 -118.5q-8 -70 -64.5 -119t-126 -49zM731 -20q-328 0 -507 228t-132 560q47 334 289 561t571 227q295 0 466 -173t151 -451h-291q0 129 -89 229.5t-278 100.5q-211 0 -353 -140.5t-173 -353.5 q-31 -215 72.5 -355.5t314.5 -140.5q182 0 303 100.5t154 221.5h291q-55 -246 -286 -430t-503 -184z" glyph-name="glyph454" horiz-adv-x="1669"/><glyph d="M246 1536h491q332 0 521.5 -203t138.5 -565q-51 -365 -296 -566.5t-579 -201.5h-491zM557 270q209 0 353.5 122t179.5 376q37 260 -72 380t-320 120h-182l-141 -998h182z" glyph-name="glyph455" horiz-adv-x="1458"/><glyph d="M887 1536q317 0 510.5 -225.5t148.5 -542.5t-301 -542.5t-573 -225.5h-492l96 684h-149l23 168h149l96 684h492zM707 270q195 0 349 144.5t183 353.5q31 211 -83 355.5t-308 144.5h-182l-60 -416h240l-23 -168h-239l-60 -414h183z" glyph-name="glyph456" horiz-adv-x="1607"/><glyph d="M436 2048h217l123 -221l187 221h217l-269 -350h-309zM246 1536h532q332 0 521.5 -203t138.5 -565q-51 -365 -296 -566.5t-579 -201.5h-532zM598 270q209 0 353.5 122t178.5 376q37 260 -71.5 380t-319.5 120h-223l-141 -998h223z" glyph-name="glyph457" horiz-adv-x="1499"/><glyph d="M928 1536q332 0 521 -203t138 -565q-51 -365 -295.5 -566.5t-578.5 -201.5h-533l96 684h-149l23 168h149l96 684h533zM1280 768q37 260 -71.5 380t-319.5 120h-223l-60 -416h199l-23 -168h-198l-60 -414h224q209 0 353 122t179 376z" glyph-name="glyph458" horiz-adv-x="1648"/><glyph d="M518 1268l-51 -365h557l-39 -270h-557l-51 -363h643l-37 -270h-952l215 1536h952l-37 -268h-643z" glyph-name="glyph459" horiz-adv-x="1189"/><glyph d="M842 1706h-226l218 342h299zM518 1268l-51 -365h616l-39 -270h-616l-51 -363h702l-37 -270h-1011l215 1536h1011l-36 -268h-703z" glyph-name="glyph460" horiz-adv-x="1249"/><glyph d="M567 1698l-166 350h217l123 -221l187 221h217l-268 -350h-310zM518 1268l-51 -365h616l-39 -270h-616l-51 -363h702l-37 -270h-1011l215 1536h1011l-36 -268h-703z" glyph-name="glyph461" horiz-adv-x="1249"/><glyph d="M1221 1268h-703l-51 -365h616l-39 -270h-616l-51 -363h702l-37 -270h-487l-88 -123q104 18 166.5 -36t48.5 -150q-12 -94 -86 -158.5t-168 -64.5q-76 0 -139.5 44t-79.5 107l137 45q10 -27 40 -45t60 -18q37 0 66 26.5t33 63.5q10 57 -37 74.5t-123 -15.5l-96 62l129 188 h-387l215 1536h1011z" glyph-name="glyph462" horiz-adv-x="1249"/><glyph d="M578 1698h-226l264 350h310l170 -350h-228l-114 221zM518 1268l-51 -365h616l-39 -270h-616l-51 -363h702l-37 -270h-1011l215 1536h1011l-36 -268h-703z" glyph-name="glyph463" horiz-adv-x="1249"/><glyph d="M499.5 1692q-69.5 0 -112.5 49t-32.5 118.5t66.5 119t125.5 49.5t111.5 -49.5t32 -118.5q-8 -70 -64.5 -119t-126 -49zM946 1692q-68 0 -110.5 49t-34.5 119q10 70 67.5 119t124.5 49q70 0 112 -49.5t32 -118.5q-8 -70 -64.5 -119t-126.5 -49zM518 1268l-51 -365h616 l-39 -270h-616l-51 -363h702l-37 -270h-1011l215 1536h1011l-36 -268h-703z" glyph-name="glyph464" horiz-adv-x="1249"/><glyph d="M725 1692q-70 0 -113 49t-32.5 118.5t66.5 119t126 49.5t112 -49.5t31 -118.5q-8 -70 -64 -119t-126 -49zM518 1268l-51 -365h616l-39 -270h-616l-51 -363h702l-37 -270h-1011l215 1536h1011l-36 -268h-703z" glyph-name="glyph465" horiz-adv-x="1249"/><glyph d="M518 1268l-51 -365h616l-39 -270h-616l-51 -363h702l-37 -270h-1011l215 1536h1011l-36 -268h-703zM473 -100q70 0 112 -49.5t31 -118.5q-8 -70 -64 -119t-126 -49t-113 49t-32.5 118.5t66.5 119t126 49.5z" glyph-name="glyph466" horiz-adv-x="1249"/><glyph d="M602 1706l-199 342h299l123 -342h-223zM518 1268l-51 -365h616l-39 -270h-616l-51 -363h702l-37 -270h-1011l215 1536h1011l-36 -268h-703z" glyph-name="glyph467" horiz-adv-x="1249"/><glyph d="M1044 1708h-634l26 188h635zM518 1268l-51 -365h616l-39 -270h-616l-51 -363h702l-37 -270h-1011l215 1536h1011l-36 -268h-703z" glyph-name="glyph468" horiz-adv-x="1249"/><glyph d="M1221 1268h-703l-51 -365h616l-39 -270h-616l-51 -363h702l-37 -270h-100q-137 0 -232.5 -87t-109.5 -183q-8 -51 19.5 -83t82.5 -32q53 0 108.5 30.5t92.5 78.5l76 -132q-156 -137 -348 -122q-117 8 -182.5 66t-51.5 169q31 195 277 295h-643l215 1536h1011z" glyph-name="glyph469" horiz-adv-x="1249"/><glyph d="M385 1690q-12 133 60.5 222t185.5 89q127 0 192 -119q14 -39 49 -39q37 0 53.5 39t4.5 100h174q12 -131 -60.5 -220t-189.5 -89q-121 0 -188 119q-20 39 -52 39q-37 0 -53 -40t-2 -101h-174zM518 1268l-51 -365h616l-39 -270h-616l-51 -363h702l-37 -270h-1011l215 1536 h1011l-36 -268h-703z" glyph-name="glyph470" horiz-adv-x="1249"/><glyph d="M518 1268l-51 -365h557l-39 -270h-557l-88 -633h-309l215 1536h952l-37 -268h-643z" glyph-name="glyph471" horiz-adv-x="1118"/><glyph d="M891 1272q-227 0 -365.5 -134t-173.5 -378q-33 -227 79 -364.5t298 -137.5q170 0 300 81t149 220h-375l37 264h696q-29 -201 -85 -350t-153.5 -266t-250 -177.5t-357.5 -60.5q-336 0 -509 216t-121.5 574.5t282.5 577.5t557 219q285 0 461 -141t168 -414h-303 q-2 121 -95.5 196t-238.5 75z" glyph-name="glyph472" horiz-adv-x="1599"/><glyph d="M987 1653q-166 0 -253 91t-62 261h170q-10 -72 37 -127t133 -55q88 0 150.5 54t72.5 128h170q-25 -170 -136.5 -261t-281.5 -91zM1522 821l-43 -311l-72 -510h-207l-12 186q-180 -197 -494 -196q-330 0 -499.5 210t-120.5 560t276.5 565t546.5 215q281 0 453 -138 t163 -405h-296q-2 119 -93.5 192t-234.5 73q-223 0 -359.5 -132.5t-169.5 -369.5q-31 -223 79 -357.5t292 -134.5q166 0 293 79t145 216h-366l37 258h682z" glyph-name="glyph473" horiz-adv-x="1599"/><glyph d="M840 1698l-166 350h217l123 -221l186 221h217l-268 -350h-309zM1522 821l-43 -311l-72 -510h-207l-12 186q-180 -197 -494 -196q-330 0 -499.5 210t-120.5 560t276.5 565t546.5 215q281 0 453 -138t163 -405h-296q-2 119 -93.5 192t-234.5 73q-223 0 -359.5 -132.5 t-169.5 -369.5q-31 -223 79 -357.5t292 -134.5q166 0 293 79t145 216h-366l37 258h682z" glyph-name="glyph474" horiz-adv-x="1599"/><glyph d="M1522 821l-43 -311l-72 -510h-207l-12 186q-180 -197 -494 -196q-330 0 -499.5 210t-120.5 560t276.5 565t546.5 215q281 0 453 -138t163 -405h-296q-2 119 -93.5 192t-234.5 73q-223 0 -359.5 -132.5t-169.5 -369.5q-31 -223 79 -357.5t292 -134.5q166 0 293 79t145 216 h-366l37 258h682zM655 -426q-47 18 -71.5 61t-16.5 97q10 70 65.5 118t125.5 48q68 0 107.5 -48.5t29.5 -117.5q-16 -119 -188 -301h-170z" glyph-name="glyph475" horiz-adv-x="1599"/><glyph d="M1036.5 1692q-69.5 0 -112.5 49t-33 118.5t66.5 119t126 49.5t111.5 -49.5t32 -118.5q-8 -70 -64.5 -119t-126 -49zM1522 821l-43 -311l-72 -510h-207l-12 186q-180 -197 -494 -196q-330 0 -499.5 210t-120.5 560t276.5 565t546.5 215q281 0 453 -138t163 -405h-296 q-2 119 -93.5 192t-234.5 73q-223 0 -359.5 -132.5t-169.5 -369.5q-31 -223 79 -357.5t292 -134.5q166 0 293 79t145 216h-366l37 258h682z" glyph-name="glyph476" horiz-adv-x="1599"/><glyph d="M1524 1536l-215 -1536h-310l88 633h-659l-88 -633h-309l215 1536h309l-88 -631h659l88 631h310z" glyph-name="glyph477" horiz-adv-x="1523"/><glyph d="M1712 1151h-121l-161 -1151h-310l88 633h-659l-88 -633h-309l161 1151h-120l14 115h121l39 270h309l-39 -270h659l39 270h310l-39 -270h120zM1282 1151h-659l-35 -246h659z" glyph-name="glyph478" horiz-adv-x="1765"/><glyph d="M1524 1536l-215 -1536h-310l88 633h-659l-88 -633h-309l215 1536h309l-88 -631h659l88 631h310zM657.5 -100q69.5 0 111.5 -49.5t32 -118.5q-8 -70 -64.5 -119t-126 -49t-112.5 49t-33 118.5t66.5 119t126 49.5z" glyph-name="glyph479" horiz-adv-x="1523"/><glyph d="M246 1536h309l-215 -1536h-309z" glyph-name="glyph480" horiz-adv-x="555"/><glyph d="M266 1536h309l-215 -1536h-309zM838 -20q-104 0 -160 20l43 313q63 -25 139 -24q45 0 83 32.5t44 77.5l160 1137h307l-164 -1167q-25 -174 -151.5 -281.5t-300.5 -107.5z" glyph-name="glyph481" horiz-adv-x="1585"/><glyph d="M530 2048h299l-290 -342h-226zM246 1536h309l-215 -1536h-309z" glyph-name="glyph482" horiz-adv-x="555"/><glyph d="M96 2048h219l123 -221l187 221h217l-269 -350h-309zM246 1536h309l-215 -1536h-309z" glyph-name="glyph483" horiz-adv-x="555"/><glyph d="M313 2048h310l170 -350h-228l-114 221l-177 -221h-227zM246 1536h309l-215 -1536h-309z" glyph-name="glyph484" horiz-adv-x="555"/><glyph d="M196.5 1692q-69.5 0 -112.5 49t-35 119q10 70 67.5 119t127 49t111.5 -49.5t32 -118.5q-8 -70 -64.5 -119t-126 -49zM643 1692q-68 0 -111 49t-34 119q10 70 67.5 119t124.5 49q70 0 112 -49.5t32 -118.5q-8 -70 -64.5 -119t-126.5 -49zM246 1536h309l-215 -1536h-309z " glyph-name="glyph485" horiz-adv-x="555"/><glyph d="M422 1692q-70 0 -113 49t-32.5 118.5t66.5 119t126 49.5t112 -49.5t31 -118.5q-8 -70 -64 -119t-126 -49zM246 1536h309l-215 -1536h-309z" glyph-name="glyph486" horiz-adv-x="555"/><glyph d="M246 1536h309l-215 -1536h-309zM123 -436q-70 0 -113 49t-32.5 118.5t66.5 119t126 49.5t112 -49.5t31 -118.5q-8 -70 -64 -119t-126 -49z" glyph-name="glyph487" horiz-adv-x="555"/><glyph d="M98 2048h301l123 -342h-223zM246 1536h309l-215 -1536h-309z" glyph-name="glyph488" horiz-adv-x="555"/><glyph d="M131 1896h637l-27 -188h-637zM246 1536h309l-215 -1536h-309z" glyph-name="glyph489" horiz-adv-x="555"/><glyph d="M342 -408q-156 -137 -348 -122q-117 8 -183.5 66t-52.5 169q31 195 279 295h-6l215 1536h309l-215 -1536h-35q-137 0 -232.5 -87t-109.5 -183q-8 -51 19.5 -83t83.5 -32q53 0 108 30.5t92 78.5z" glyph-name="glyph490" horiz-adv-x="555"/><glyph d="M551 1673q-121 0 -189 119q-20 39 -51 39q-37 0 -53 -40t-2 -101h-176q-10 133 63.5 222t184.5 89q127 0 192 -119q14 -39 49 -39q37 0 53.5 39t4.5 100h174q12 -131 -60.5 -220t-189.5 -89zM246 1536h309l-215 -1536h-309z" glyph-name="glyph491" horiz-adv-x="555"/><glyph d="M141 -20q-104 0 -159 20l43 313q63 -25 139 -24q45 0 83 32.5t44 77.5l160 1137h307l-164 -1167q-25 -174 -152 -281.5t-301 -107.5z" glyph-name="glyph492" horiz-adv-x="763"/><glyph d="M942 0l-506 686l-96 -686h-309l215 1536h309l-96 -682l614 682h354l-661 -752l580 -784h-404z" glyph-name="glyph493" horiz-adv-x="1435"/><glyph d="M942 0l-506 686l-96 -686h-309l215 1536h309l-96 -682l614 682h354l-661 -752l580 -784h-404zM512 -371q-47 18 -71.5 61.5t-16.5 96.5q8 70 63.5 118t124.5 48q68 0 109 -48t31 -118q-16 -115 -191 -301h-170z" glyph-name="glyph494" horiz-adv-x="1435"/><glyph d="M246 1536h309l-178 -1266h518l-37 -270h-827z" glyph-name="glyph495" horiz-adv-x="1015"/><glyph d="M532 2048h299l-290 -342h-226zM246 1536h309l-178 -1266h518l-37 -270h-827z" glyph-name="glyph496" horiz-adv-x="1015"/><glyph d="M889 1214q-47 18 -71.5 61.5t-16.5 96.5q8 70 63.5 118t124.5 48q68 0 109 -48t30 -118q-16 -115 -190 -301h-170zM246 1536h309l-178 -1266h518l-37 -270h-827z" glyph-name="glyph497" horiz-adv-x="1093"/><glyph d="M246 1536h309l-178 -1266h518l-37 -270h-827zM332 -422q-49 18 -72.5 61.5t-17.5 96.5q10 70 65 118t125 48q68 0 108 -48.5t29 -117.5q-16 -119 -188 -301h-170z" glyph-name="glyph498" horiz-adv-x="1015"/><glyph d="M246 1536h309l-178 -1266h518l-37 -270h-827zM385 -436q-70 0 -113 49t-32.5 118.5t66.5 119t126 49.5t112 -49.5t31 -118.5q-8 -70 -64 -119t-126 -49z" glyph-name="glyph499" horiz-adv-x="1015"/><glyph d="M1151 270l-37 -270h-827l71 516l-88 -80h-178l293 269l117 831h309l-72 -508l78 72h184l-288 -262l-80 -568h518z" glyph-name="glyph500" horiz-adv-x="1271"/><glyph d="M1917 1536l-215 -1536h-307l153 1102l-518 -1102h-319l-217 1102l-154 -1102h-309l215 1536h434l242 -1139l565 1139h430z" glyph-name="glyph501" horiz-adv-x="1916"/><glyph d="M1655 1536l-215 -1536h-316l-635 1069l-149 -1069h-309l215 1536h315l637 -1067l150 1067h307z" glyph-name="glyph502" horiz-adv-x="1654"/><glyph d="M1096 1706h-226l217 342h299zM1655 1536l-215 -1536h-316l-635 1069l-149 -1069h-309l215 1536h315l637 -1067l150 1067h307z" glyph-name="glyph503" horiz-adv-x="1654"/><glyph d="M821 1698l-166 350h217l123 -221l187 221h217l-269 -350h-309zM1655 1536l-215 -1536h-316l-635 1069l-149 -1069h-309l215 1536h315l637 -1067l150 1067h307z" glyph-name="glyph504" horiz-adv-x="1654"/><glyph d="M1655 1536l-215 -1536h-316l-635 1069l-149 -1069h-309l215 1536h315l637 -1067l150 1067h307zM657 -362q-49 18 -72.5 61t-15.5 96q8 70 63.5 118t125.5 48q68 0 108.5 -48t30.5 -118q-18 -119 -190 -301h-170z" glyph-name="glyph505" horiz-adv-x="1654"/><glyph d="M979 1692q-70 0 -113 49t-32.5 118.5t66.5 119t126 49.5t112 -49.5t31 -118.5q-8 -70 -64 -119t-126 -49zM1655 1536l-215 -1536h-316l-635 1069l-149 -1069h-309l215 1536h315l637 -1067l150 1067h307z" glyph-name="glyph506" horiz-adv-x="1654"/><glyph d="M1655 1536l-215 -1536h-316l-635 1069l-149 -1069h-309l215 1536h315l637 -1067l150 1067h307zM718.5 -100q69.5 0 111.5 -49.5t32 -118.5q-8 -70 -64.5 -119t-126 -49t-112.5 49t-32.5 118.5t66.5 119t125.5 49.5z" glyph-name="glyph507" horiz-adv-x="1654"/><glyph d="M1642 1536l-231 -1640q-27 -193 -166 -282t-350 -89l27 196q80 0 122.5 33t59.5 142l16 112l-645 1045l-147 -1053h-297l215 1536h305l647 -1051l148 1051h296z" glyph-name="glyph508" horiz-adv-x="1642"/><glyph d="M639 1690q-12 133 60.5 222t185.5 89q127 0 192 -119q14 -39 49 -39q37 0 53.5 39t4.5 100h174q12 -131 -60.5 -220t-189.5 -89q-121 0 -188 119q-20 39 -52 39q-37 0 -53 -40t-2 -101h-174zM1655 1536l-215 -1536h-316l-635 1069l-149 -1069h-309l215 1536h315 l637 -1067l150 1067h307z" glyph-name="glyph509" horiz-adv-x="1654"/><glyph d="M731 -20q-330 0 -508 227t-131 561t289 561t571 227q328 0 507 -228t132 -560t-289.5 -560t-570.5 -228zM774 279q209 0 348.5 138t169.5 351q31 215 -70.5 353.5t-310.5 138.5q-211 0 -352 -138.5t-172 -353.5q-31 -213 72.5 -351t314.5 -138z" glyph-name="glyph510" horiz-adv-x="1652"/><glyph d="M1081 2048h299l-290 -342h-226zM731 -20q-330 0 -508 227t-131 561t289 561t571 227q328 0 507 -228t132 -560t-289.5 -560t-570.5 -228zM774 279q209 0 348.5 138t169.5 351q31 215 -70.5 353.5t-310.5 138.5q-211 0 -352 -138.5t-172 -353.5q-31 -213 72.5 -351 t314.5 -138z" glyph-name="glyph511" horiz-adv-x="1652"/><glyph d="M651 2048h217l123 -221l187 221h217l-269 -350h-309zM731 -20q-330 0 -508 227t-131 561t289 561t571 227q328 0 507 -228t132 -560t-289.5 -560t-570.5 -228zM774 279q209 0 348.5 138t169.5 351q31 215 -70.5 353.5t-310.5 138.5q-211 0 -352 -138.5t-172 -353.5 q-31 -213 72.5 -351t314.5 -138z" glyph-name="glyph512" horiz-adv-x="1652"/><glyph d="M866 2048h310l170 -350h-228l-114 221l-177 -221h-225zM731 -20q-330 0 -508 227t-131 561t289 561t571 227q328 0 507 -228t132 -560t-289.5 -560t-570.5 -228zM774 279q209 0 348.5 138t169.5 351q31 215 -70.5 353.5t-310.5 138.5q-211 0 -352 -138.5t-172 -353.5 q-31 -213 72.5 -351t314.5 -138z" glyph-name="glyph513" horiz-adv-x="1652"/><glyph d="M749.5 1692q-69.5 0 -112.5 49t-33 118.5t66.5 119t126 49.5t111.5 -49.5t32 -118.5q-8 -70 -64.5 -119t-126 -49zM1196 1692q-68 0 -111 49t-34 119q10 70 67.5 119t124.5 49q70 0 112 -49.5t31 -118.5q-8 -70 -64 -119t-126 -49zM731 -20q-330 0 -508 227t-131 561 t289 561t571 227q328 0 507 -228t132 -560t-289.5 -560t-570.5 -228zM774 279q209 0 348.5 138t169.5 351q31 215 -70.5 353.5t-310.5 138.5q-211 0 -352 -138.5t-172 -353.5q-31 -213 72.5 -351t314.5 -138z" glyph-name="glyph514" horiz-adv-x="1652"/><glyph d="M731 -20q-330 0 -508 227t-131 561t289 561t571 227q328 0 507 -228t132 -560t-289.5 -560t-570.5 -228zM774 279q209 0 348.5 138t169.5 351q31 215 -70.5 353.5t-310.5 138.5q-211 0 -352 -138.5t-172 -353.5q-31 -213 72.5 -351t314.5 -138zM673.5 -436 q-69.5 0 -112.5 49t-32.5 118.5t66.5 119t126 49.5t111.5 -49.5t31.5 -118.5q-8 -70 -64.5 -119t-126 -49z" glyph-name="glyph515" horiz-adv-x="1652"/><glyph d="M651 2048h299l123 -342h-223zM731 -20q-330 0 -508 227t-131 561t289 561t571 227q328 0 507 -228t132 -560t-289.5 -560t-570.5 -228zM774 279q209 0 348.5 138t169.5 351q31 215 -70.5 353.5t-310.5 138.5q-211 0 -352 -138.5t-172 -353.5q-31 -213 72.5 -351 t314.5 -138z" glyph-name="glyph516" horiz-adv-x="1652"/><glyph d="M991 2048h279l-410 -365h-207zM1415 2048h281l-410 -365h-207zM731 -20q-330 0 -508 227t-131 561t289 561t571 227q328 0 507 -228t132 -560t-289.5 -560t-570.5 -228zM774 279q209 0 348.5 138t169.5 351q31 215 -70.5 353.5t-310.5 138.5q-211 0 -352 -138.5 t-172 -353.5q-31 -213 72.5 -351t314.5 -138z" glyph-name="glyph517" horiz-adv-x="1652"/><glyph d="M684 1896h635l-27 -188h-635zM731 -20q-330 0 -508 227t-131 561t289 561t571 227q328 0 507 -228t132 -560t-289.5 -560t-570.5 -228zM774 279q209 0 348.5 138t169.5 351q31 215 -70.5 353.5t-310.5 138.5q-211 0 -352 -138.5t-172 -353.5q-31 -213 72.5 -351 t314.5 -138z" glyph-name="glyph518" horiz-adv-x="1652"/><glyph d="M1419 1374q106 -111 152.5 -268.5t19.5 -337.5q-47 -332 -289.5 -560t-570.5 -228q-209 0 -356 94l-113 -142h-182l184 230q-106 109 -151 266.5t-21 339.5q47 334 289 561t571 227q201 0 357 -94l110 140h183zM387 768q-31 -219 78 -356l645 802q-86 45 -199 46 q-211 0 -352 -138.5t-172 -353.5zM774 279q209 0 348.5 138t169.5 351q33 221 -71 356l-646 -802q80 -43 199 -43z" glyph-name="glyph519" horiz-adv-x="1652"/><glyph d="M1090 1706h-226l217 342h299zM1419 1374q106 -111 152.5 -268.5t19.5 -337.5q-47 -332 -289.5 -560t-570.5 -228q-209 0 -356 94l-113 -142h-182l184 230q-106 109 -151 266.5t-21 339.5q47 334 289 561t571 227q201 0 357 -94l110 140h183zM387 768q-31 -219 78 -356 l645 802q-86 45 -199 46q-211 0 -352 -138.5t-172 -353.5zM774 279q209 0 348.5 138t169.5 351q33 221 -71 356l-646 -802q80 -43 199 -43z" glyph-name="glyph520" horiz-adv-x="1652"/><glyph d="M1102 1673q-121 0 -189 119q-20 39 -51 39q-37 0 -53 -40t-2 -101h-174q-12 133 60.5 222t185.5 89q127 0 192 -119q14 -39 49 -39q37 0 53.5 39t4.5 100h174q12 -131 -60.5 -220t-189.5 -89zM731 -20q-330 0 -508 227t-131 561t289 561t571 227q328 0 507 -228t132 -560 t-289.5 -560t-570.5 -228zM774 279q209 0 348.5 138t169.5 351q31 215 -70.5 353.5t-310.5 138.5q-211 0 -352 -138.5t-172 -353.5q-31 -213 72.5 -351t314.5 -138z" glyph-name="glyph521" horiz-adv-x="1652"/><glyph d="M2478 1268h-702l-52 -365h617l-39 -270h-616l-52 -363h703l-37 -270h-1012l25 172q-250 -190 -543 -190q-328 0 -525.5 230t-152.5 558q31 215 162 396.5t327.5 287t411.5 105.5q291 0 486 -191l24 168h1012zM813 279q207 0 370 143t189 348q29 205 -93 348.5t-329 143.5 q-205 0 -368.5 -142.5t-192.5 -349.5t95 -349t329 -142z" glyph-name="glyph522" horiz-adv-x="2506"/><glyph d="M881 1536q188 0 299.5 -151.5t85.5 -346.5q-29 -195 -182.5 -341t-342.5 -146h-325l-76 -551h-309l215 1536h635zM750 803q82 0 152.5 71.5t82.5 161.5q10 88 -39 160t-131 72h-297l-65 -465h297z" glyph-name="glyph523" horiz-adv-x="1249"/><glyph d="M846 1315q188 0 299.5 -134t85.5 -327q-27 -186 -175.5 -314t-336.5 -128h-332l-57 -412h-299l184 1315l31 221h299l-31 -221h332zM745 674q80 0 143.5 56t74 134t-36.5 132.5t-127 54.5h-322l-53 -377h321z" glyph-name="glyph524" horiz-adv-x="1241"/><glyph d="M1559 233l-33 -233h-66q-164 0 -256 115l-8 8q-211 -143 -465 -143q-330 0 -508 227t-131 561t289 561t571 227q328 0 507 -228t132 -560q-37 -258 -198 -463l20 -24q41 -47 127 -48h19zM774 279q137 0 248 61l-182 225l194 174l176 -213q63 104 82 242 q31 215 -70.5 353.5t-310.5 138.5q-211 0 -352 -138.5t-172 -353.5q-31 -213 72.5 -351t314.5 -138z" glyph-name="glyph525" horiz-adv-x="1644"/><glyph d="M1194 0h-346l-277 569h-151l-80 -569h-309l215 1536h635q186 0 298.5 -151.5t86.5 -348.5q-23 -154 -131.5 -282.5t-251.5 -163.5zM766 809q80 0 142.5 63.5t76.5 165.5q14 98 -30 164t-124 66h-313l-65 -459h313z" glyph-name="glyph526" horiz-adv-x="1353"/><glyph d="M915 1706h-225l217 342h299zM1255 0h-346l-276 569h-213l-80 -569h-309l215 1536h696q186 0 299 -151.5t86 -348.5q-23 -154 -131.5 -282.5t-251.5 -163.5zM827 809q80 0 142.5 63.5t77.5 165.5q14 98 -30 164t-124 66h-375l-65 -459h374z" glyph-name="glyph527" horiz-adv-x="1415"/><glyph d="M643 1698l-166 350h217l123 -221l187 221h217l-269 -350h-309zM1255 0h-346l-276 569h-213l-80 -569h-309l215 1536h696q186 0 299 -151.5t86 -348.5q-23 -154 -131.5 -282.5t-251.5 -163.5zM827 809q80 0 142.5 63.5t77.5 165.5q14 98 -30 164t-124 66h-375l-65 -459 h374z" glyph-name="glyph528" horiz-adv-x="1415"/><glyph d="M1255 0h-346l-276 569h-213l-80 -569h-309l215 1536h696q186 0 299 -151.5t86 -348.5q-23 -154 -131.5 -282.5t-251.5 -163.5zM827 809q80 0 142.5 63.5t77.5 165.5q14 98 -30 164t-124 66h-375l-65 -459h374zM471 -371q-47 18 -71.5 61.5t-16.5 96.5q8 70 63.5 118 t124.5 48q68 0 109 -48t31 -118q-16 -115 -191 -301h-170z" glyph-name="glyph529" horiz-adv-x="1415"/><glyph d="M584 -20q-250 0 -382 140t-122 376l266 -2q27 -227 289 -228q242 0 268 166q6 41 -10 78t-39 60.5t-76 53t-83.5 43t-102.5 42.5q-94 39 -148.5 67.5t-120 79.5t-90 119.5t-12.5 157.5q27 188 199 305.5t399 117.5q479 0 500 -499h-287q4 98 -55 169.5t-184 71.5 q-96 0 -169 -42t-83 -111q-6 -37 10 -67.5t60 -59.5t80 -46.5t108 -45.5q72 -31 108.5 -47.5t100 -51t96.5 -68.5t68.5 -82t46 -108.5t0.5 -132.5q-33 -223 -209 -339.5t-426 -116.5z" glyph-name="glyph530" horiz-adv-x="1325"/><glyph d="M942 2048h299l-291 -342h-225zM584 -20q-250 0 -382 140t-122 376l266 -2q27 -227 289 -228q242 0 268 166q6 41 -10 78t-39 60.5t-76 53t-83.5 43t-102.5 42.5q-94 39 -148.5 67.5t-120 79.5t-90 119.5t-12.5 157.5q27 188 199 305.5t399 117.5q479 0 500 -499h-287 q4 98 -55 169.5t-184 71.5q-96 0 -169 -42t-83 -111q-6 -37 10 -67.5t60 -59.5t80 -46.5t108 -45.5q72 -31 108.5 -47.5t100 -51t96.5 -68.5t68.5 -82t46 -108.5t0.5 -132.5q-33 -223 -209 -339.5t-426 -116.5z" glyph-name="glyph531" horiz-adv-x="1325"/><glyph d="M510 2048h217l123 -221l186 221h217l-268 -350h-309zM584 -20q-250 0 -382 140t-122 376l266 -2q27 -227 289 -228q242 0 268 166q6 41 -10 78t-39 60.5t-76 53t-83.5 43t-102.5 42.5q-94 39 -148.5 67.5t-120 79.5t-90 119.5t-12.5 157.5q27 188 199 305.5t399 117.5 q479 0 500 -499h-287q4 98 -55 169.5t-184 71.5q-96 0 -169 -42t-83 -111q-6 -37 10 -67.5t60 -59.5t80 -46.5t108 -45.5q72 -31 108.5 -47.5t100 -51t96.5 -68.5t68.5 -82t46 -108.5t0.5 -132.5q-33 -223 -209 -339.5t-426 -116.5z" glyph-name="glyph532" horiz-adv-x="1325"/><glyph d="M799 926q72 -31 108.5 -47.5t100 -51t96.5 -68.5t68.5 -82t46 -108.5t0.5 -132.5q-31 -211 -192 -326.5t-392 -127.5l-74 -105q104 18 167 -36t48 -150q-12 -94 -86 -158.5t-168 -64.5q-76 0 -139.5 44t-79.5 107l137 45q10 -27 40 -45t61 -18q37 0 65.5 26.5t32.5 63.5 q10 57 -37 74.5t-123 -15.5l-96 62l117 172h6q-213 23 -324.5 160t-101.5 352l266 -2q27 -227 289 -228q242 0 268 166q6 41 -10 78t-39 60.5t-76 53t-83.5 43t-102.5 42.5q-94 39 -148.5 67.5t-120 79.5t-90 119.5t-12.5 157.5q27 188 199 305.5t399 117.5q479 0 500 -499 h-287q4 98 -55 169.5t-184 71.5q-96 0 -169 -42t-83 -111q-6 -37 10 -67.5t60 -59.5t80 -46t108 -46z" glyph-name="glyph533" horiz-adv-x="1325"/><glyph d="M584 -20q-250 0 -382 140t-122 376l266 -2q27 -227 289 -228q242 0 268 166q6 41 -10 78t-39 60.5t-76 53t-83.5 43t-102.5 42.5q-94 39 -148.5 67.5t-120 79.5t-90 119.5t-12.5 157.5q27 188 199 305.5t399 117.5q479 0 500 -499h-287q4 98 -55 169.5t-184 71.5 q-96 0 -169 -42t-83 -111q-6 -37 10 -67.5t60 -59.5t80 -46.5t108 -45.5q72 -31 108.5 -47.5t100 -51t96.5 -68.5t68.5 -82t46 -108.5t0.5 -132.5q-33 -223 -209 -339.5t-426 -116.5zM461 -473q-47 18 -71.5 61t-16.5 97q8 70 63.5 117.5t124.5 47.5q68 0 109 -48t30 -117 q-16 -115 -190 -301h-170z" glyph-name="glyph534" horiz-adv-x="1325"/><glyph d="M584 -20q-250 0 -382 140t-122 376l266 -2q27 -227 289 -228q242 0 268 166q6 41 -10 78t-39 60.5t-76 53t-83.5 43t-102.5 42.5q-94 39 -148.5 67.5t-120 79.5t-90 119.5t-12.5 157.5q27 188 199 305.5t399 117.5q479 0 500 -499h-287q4 98 -55 169.5t-184 71.5 q-96 0 -169 -42t-83 -111q-6 -37 10 -67.5t60 -59.5t80 -46.5t108 -45.5q72 -31 108.5 -47.5t100 -51t96.5 -68.5t68.5 -82t46 -108.5t0.5 -132.5q-33 -223 -209 -339.5t-426 -116.5zM518.5 -436q-69.5 0 -113 49t-33 118.5t67 119t126 49.5t111.5 -49.5t32 -118.5 q-8 -70 -64.5 -119t-126 -49z" glyph-name="glyph535" horiz-adv-x="1325"/><glyph d="M1309 1268h-435l-178 -1268h-305l178 1268h-436l37 268h1176z" glyph-name="glyph536" horiz-adv-x="1269"/><glyph d="M1309 1268h-435l-59 -416h193l-23 -168h-192l-97 -684h-305l96 684h-196l22 168h197l59 416h-436l37 268h1176z" glyph-name="glyph537" horiz-adv-x="1269"/><glyph d="M643 1698l-166 350h217l123 -221l187 221h217l-269 -350h-309zM1309 1268h-435l-178 -1268h-305l178 1268h-436l37 268h1176z" glyph-name="glyph538" horiz-adv-x="1269"/><glyph d="M170 1536h1176l-37 -268h-435l-178 -1268h-84l-88 -123q104 18 167 -36t48 -150q-12 -94 -85.5 -158.5t-168.5 -64.5q-76 0 -139 44t-80 107l137 45q10 -27 40 -45t61 -18q37 0 65.5 26.5t32.5 63.5q10 57 -37 74.5t-123 -15.5l-96 62l129 188h-84l178 1268h-436z" glyph-name="glyph539" horiz-adv-x="1269"/><glyph d="M1309 1268h-435l-178 -1268h-305l178 1268h-436l37 268h1176zM432 -457q-47 18 -71.5 61.5t-16.5 96.5q8 70 63.5 118t124.5 48q68 0 109 -48t31 -118q-16 -119 -191 -301h-170z" glyph-name="glyph540" horiz-adv-x="1269"/><glyph d="M1309 1268h-435l-178 -1268h-305l178 1268h-436l37 268h1176zM528.5 -100q69.5 0 111.5 -49.5t32 -118.5q-8 -70 -64.5 -119t-126 -49t-112.5 49t-33 118.5t66.5 119t126 49.5z" glyph-name="glyph541" horiz-adv-x="1269"/><glyph d="M659.5 -20q-264.5 0 -425 149.5t-130.5 366.5l146 1040h309l-139 -985q-16 -127 64.5 -214t213.5 -87t238.5 88t122.5 213l139 985h309l-145 -1040q-31 -217 -234.5 -366.5t-468 -149.5z" glyph-name="glyph542" horiz-adv-x="1511"/><glyph d="M1010 2048h299l-291 -342h-225zM659.5 -20q-264.5 0 -425 149.5t-130.5 366.5l146 1040h309l-139 -985q-16 -127 64.5 -214t213.5 -87t238.5 88t122.5 213l139 985h309l-145 -1040q-31 -217 -234.5 -366.5t-468 -149.5z" glyph-name="glyph543" horiz-adv-x="1511"/><glyph d="M580 2048h217l123 -221l186 221h217l-268 -350h-310zM659.5 -20q-264.5 0 -425 149.5t-130.5 366.5l146 1040h309l-139 -985q-16 -127 64.5 -214t213.5 -87t238.5 88t122.5 213l139 985h309l-145 -1040q-31 -217 -234.5 -366.5t-468 -149.5z" glyph-name="glyph544" horiz-adv-x="1511"/><glyph d="M795 2048h309l170 -350h-227l-115 221l-176 -221h-226zM659.5 -20q-264.5 0 -425 149.5t-130.5 366.5l146 1040h309l-139 -985q-16 -127 64.5 -214t213.5 -87t238.5 88t122.5 213l139 985h309l-145 -1040q-31 -217 -234.5 -366.5t-468 -149.5z" glyph-name="glyph545" horiz-adv-x="1511"/><glyph d="M678 1692q-70 0 -113 49t-32.5 118.5t66.5 119t126 49.5t112 -49.5t31 -118.5q-8 -70 -64 -119t-126 -49zM1124 1692q-68 0 -110.5 49t-34.5 119q10 70 67.5 119t124.5 49q70 0 112 -49.5t32 -118.5q-8 -70 -64.5 -119t-126.5 -49zM659.5 -20q-264.5 0 -425 149.5 t-130.5 366.5l146 1040h309l-139 -985q-16 -127 64.5 -214t213.5 -87t238.5 88t122.5 213l139 985h309l-145 -1040q-31 -217 -234.5 -366.5t-468 -149.5z" glyph-name="glyph546" horiz-adv-x="1511"/><glyph d="M659.5 -20q-264.5 0 -425 149.5t-130.5 366.5l146 1040h309l-139 -985q-16 -127 64.5 -214t213.5 -87t238.5 88t122.5 213l139 985h309l-145 -1040q-31 -217 -234.5 -366.5t-468 -149.5zM602 -436q-70 0 -113 49t-32.5 118.5t67 119t126 49.5t111.5 -49.5t32 -118.5 q-8 -70 -64.5 -119t-126.5 -49z" glyph-name="glyph547" horiz-adv-x="1511"/><glyph d="M580 2048h299l122 -342h-223zM659.5 -20q-264.5 0 -425 149.5t-130.5 366.5l146 1040h309l-139 -985q-16 -127 64.5 -214t213.5 -87t238.5 88t122.5 213l139 985h309l-145 -1040q-31 -217 -234.5 -366.5t-468 -149.5z" glyph-name="glyph548" horiz-adv-x="1511"/><glyph d="M920 2048h278l-410 -365h-206zM1343 2048h281l-410 -365h-206zM659.5 -20q-264.5 0 -425 149.5t-130.5 366.5l146 1040h309l-139 -985q-16 -127 64.5 -214t213.5 -87t238.5 88t122.5 213l139 985h309l-145 -1040q-31 -217 -234.5 -366.5t-468 -149.5z" glyph-name="glyph549" horiz-adv-x="1556"/><glyph d="M612 1896h635l-26 -188h-635zM659.5 -20q-264.5 0 -425 149.5t-130.5 366.5l146 1040h309l-139 -985q-16 -127 64.5 -214t213.5 -87t238.5 88t122.5 213l139 985h309l-145 -1040q-31 -217 -234.5 -366.5t-468 -149.5z" glyph-name="glyph550" horiz-adv-x="1511"/><glyph d="M1198 1536h309l-145 -1040q-29 -205 -214 -351.5t-433 -162.5q-88 -33 -146.5 -106t-68.5 -142q-6 -51 20.5 -83t81.5 -32q53 0 109.5 31t91.5 78l76 -131q-152 -137 -349 -123q-117 8 -182 66.5t-49 168.5q23 180 238 281q-215 35 -337 176t-96 330l146 1040h309 l-139 -985q-16 -127 64.5 -214t213.5 -87t238.5 88t122.5 213z" glyph-name="glyph551" horiz-adv-x="1511"/><glyph d="M893 1642q-100 0 -160.5 71t-46.5 171q14 96 94 167t181 71q98 0 158.5 -71t45.5 -167q-14 -100 -94 -171t-178 -71zM911.5 1765q49.5 0 87 33t45.5 86q6 49 -22.5 84t-77.5 35t-87 -35t-44 -84q-8 -53 20.5 -86t78 -33zM659.5 -20q-264.5 0 -425 149.5t-130.5 366.5 l146 1040h309l-139 -985q-16 -127 64.5 -214t213.5 -87t238.5 88t122.5 213l139 985h309l-145 -1040q-31 -217 -234.5 -366.5t-468 -149.5z" glyph-name="glyph552" horiz-adv-x="1511"/><glyph d="M1030 1673q-121 0 -188 119q-20 39 -51 39q-37 0 -53.5 -40t-2.5 -101h-174q-12 133 60.5 222t185.5 89q127 0 192 -119q14 -39 50 -39q37 0 53 39t4 100h174q12 -131 -60.5 -220t-189.5 -89zM659.5 -20q-264.5 0 -425 149.5t-130.5 366.5l146 1040h309l-139 -985 q-16 -127 64.5 -214t213.5 -87t238.5 88t122.5 213l139 985h309l-145 -1040q-31 -217 -234.5 -366.5t-468 -149.5z" glyph-name="glyph553" horiz-adv-x="1511"/><glyph d="M1704 1536l-832 -1536h-346l-401 1536h346l279 -1178l608 1178h346z" glyph-name="glyph554" horiz-adv-x="1585"/><glyph d="M2460 1536l-639 -1536h-336l-236 1024l-481 -1024h-334l-252 1536h334l143 -1198l510 1198h306l213 -1200l440 1200h332z" glyph-name="glyph555" horiz-adv-x="2396"/><glyph d="M1462 1706h-225l217 342h299zM2460 1536l-639 -1536h-336l-236 1024l-481 -1024h-334l-252 1536h334l143 -1198l510 1198h306l213 -1200l440 1200h332z" glyph-name="glyph556" horiz-adv-x="2396"/><glyph d="M1198 1698h-225l264 350h309l170 -350h-227l-115 221zM2460 1536l-639 -1536h-336l-236 1024l-481 -1024h-334l-252 1536h334l143 -1198l510 1198h306l213 -1200l440 1200h332z" glyph-name="glyph557" horiz-adv-x="2396"/><glyph d="M1120.5 1692q-69.5 0 -112.5 49t-33 118.5t66.5 119t126 49.5t111.5 -49.5t32 -118.5q-8 -70 -64.5 -119t-126 -49zM1567 1692q-68 0 -111 49t-35 119q10 70 67.5 119t125.5 49q70 0 111.5 -49.5t31.5 -118.5q-8 -70 -64 -119t-126 -49zM2460 1536l-639 -1536h-336 l-236 1024l-481 -1024h-334l-252 1536h334l143 -1198l510 1198h306l213 -1200l440 1200h332z" glyph-name="glyph558" horiz-adv-x="2396"/><glyph d="M1223 1706l-199 342h299l123 -342h-223zM2460 1536l-639 -1536h-336l-236 1024l-481 -1024h-334l-252 1536h334l143 -1198l510 1198h306l213 -1200l440 1200h332z" glyph-name="glyph559" horiz-adv-x="2396"/><glyph d="M950 0l-270 537l-418 -537h-352l641 788l-397 748h350l248 -494l389 494h350l-608 -745l420 -791h-353z" glyph-name="glyph560" horiz-adv-x="1398"/><glyph d="M858 727l-100 -727h-307l100 721l-426 815h344l270 -551l430 551h340z" glyph-name="glyph561" horiz-adv-x="1388"/><glyph d="M961 1706h-226l217 342h299zM858 727l-100 -727h-307l100 721l-426 815h344l270 -551l430 551h340z" glyph-name="glyph562" horiz-adv-x="1388"/><glyph d="M696 1698h-225l264 350h309l170 -350h-227l-115 221zM858 727l-100 -727h-307l100 721l-426 815h344l270 -551l430 551h340z" glyph-name="glyph563" horiz-adv-x="1388"/><glyph d="M618.5 1692q-69.5 0 -112.5 49t-33 118.5t66.5 119t126 49.5t111.5 -49.5t32 -118.5q-8 -70 -64.5 -119t-126 -49zM1065 1692q-68 0 -111 49t-34 119q10 70 67 119t125 49q70 0 112 -49.5t31 -118.5q-8 -70 -64 -119t-126 -49zM858 727l-100 -727h-307l100 721l-426 815 h344l270 -551l430 551h340z" glyph-name="glyph564" horiz-adv-x="1388"/><glyph d="M551 721l-426 815h344l270 -551l430 551h340l-651 -809l-100 -727h-307zM592 -100q70 0 111.5 -49.5t31.5 -118.5q-8 -70 -64.5 -119t-126 -49t-112.5 49t-32.5 118.5t66.5 119t126 49.5z" glyph-name="glyph565" horiz-adv-x="1388"/><glyph d="M721 1706l-199 342h299l123 -342h-223zM858 727l-100 -727h-307l100 721l-426 815h344l270 -551l430 551h340z" glyph-name="glyph566" horiz-adv-x="1388"/><glyph d="M504 1690q-12 133 60.5 222t185.5 89q127 0 192 -119q14 -39 49 -39q37 0 53.5 39t4.5 100h174q12 -131 -60.5 -220t-189.5 -89q-121 0 -189 119q-20 39 -51 39q-37 0 -53 -40t-2 -101h-174zM858 727l-100 -727h-307l100 721l-426 815h344l270 -551l430 551h340z" glyph-name="glyph567" horiz-adv-x="1388"/><glyph d="M1184 270l-37 -270h-1174l23 166l911 1102h-735l37 268h1149l-23 -166l-913 -1100h762z" glyph-name="glyph568" horiz-adv-x="1308"/><glyph d="M944 1706h-225l217 342h299zM1184 270l-37 -270h-1174l23 166l911 1102h-735l37 268h1149l-23 -166l-913 -1100h762z" glyph-name="glyph569" horiz-adv-x="1308"/><glyph d="M670 1698l-166 350h217l123 -221l186 221h217l-268 -350h-309zM1184 270l-37 -270h-1174l23 166l911 1102h-735l37 268h1149l-23 -166l-913 -1100h762z" glyph-name="glyph570" horiz-adv-x="1308"/><glyph d="M827.5 1692q-69.5 0 -112.5 49t-33 118.5t66.5 119t126 49.5t111.5 -49.5t32 -118.5q-8 -70 -64.5 -119t-126 -49zM1184 270l-37 -270h-1174l23 166l911 1102h-735l37 268h1149l-23 -166l-913 -1100h762z" glyph-name="glyph571" horiz-adv-x="1308"/><glyph d="M1184 270l-37 -270h-1174l23 166l911 1102h-735l37 268h1149l-23 -166l-913 -1100h762zM544.5 -100q69.5 0 111.5 -49.5t32 -118.5q-8 -70 -64.5 -119t-126 -49t-112.5 49t-33 118.5t66.5 119t126 49.5z" glyph-name="glyph572" horiz-adv-x="1308"/><glyph d="M279 -16q-141 10 -214 89t-53 220q18 139 151.5 222t313.5 83h203l6 55q14 86 -19.5 124t-113.5 38q-184 0 -221 -158h-240q33 166 156 274.5t344 108.5q199 0 300 -96t73 -293l-91 -651h-239l-6 100q-106 -132 -350 -116zM414 199q104 0 223 92l16 121h-139 q-195 0 -209 -103q-8 -51 23 -80.5t86 -29.5z" glyph-name="glyph573" horiz-adv-x="1017"/><glyph d="M1083 1536l-290 -342h-226l217 342h299zM999 373q-18 -135 72 -135l-33 -238q-10 0 -38.5 -1t-45.5 -1h-27.5h-30.5t-28.5 1t-31 3t-28 6t-28.5 9.5t-23.5 14.5t-23.5 20t-17 25.5t-16 33.5q-55 -57 -155.5 -92t-210.5 -35q-166 0 -253 88t-65 247q20 150 165 243 t345 112l224 20l4 19q12 94 -25 135t-123 41q-203 0 -241 -172h-263q37 182 171.5 300t373.5 118q215 0 322.5 -104.5t77.5 -319.5q-15 -113 -48 -338zM696 317l25 175l-156 -21q-215 -29 -229 -133q-8 -55 24.5 -88t92.5 -33q116 0 243 100z" glyph-name="glyph574" horiz-adv-x="1181"/><glyph d="M586 1141q-166 0 -253 91t-63 261h170q-10 -72 37 -127t133 -55q88 0 150.5 54t73.5 128h170q-25 -170 -136.5 -261t-281.5 -91zM334 -16q-166 0 -253 88t-65 247q20 150 165 243t345 112l224 20l4 19q12 94 -25 135t-123 41q-203 0 -241 -172h-263q37 182 171.5 300 t373.5 118q215 0 322.5 -104.5t77.5 -319.5q-14 -113 -48 -338q-18 -135 72 -135l-33 -238q-10 0 -38.5 -1t-45.5 -1h-27.5h-30.5t-28.5 1t-31 3t-28 6t-28.5 9.5t-23.5 14.5t-23.5 20t-17 25.5t-16 33.5q-55 -57 -155 -92t-211 -35zM453 217q117 0 243 100l25 175l-156 -21 q-215 -29 -229 -133q-8 -55 25 -88t92 -33z" glyph-name="glyph575" horiz-adv-x="1181"/><glyph d="M459 1186l-166 350h217l123 -221l186 221h217l-268 -350h-309zM334 -16q-166 0 -253 88t-65 247q20 150 165 243t345 112l224 20l4 19q12 94 -25 135t-123 41q-203 0 -241 -172h-263q37 182 171.5 300t373.5 118q215 0 322.5 -104.5t77.5 -319.5q-14 -113 -48 -338 q-18 -135 72 -135l-33 -238q-10 0 -38.5 -1t-45.5 -1h-27.5h-30.5t-28.5 1t-31 3t-28 6t-28.5 9.5t-23.5 14.5t-23.5 20t-17 25.5t-16 33.5q-55 -57 -155 -92t-211 -35zM453 217q117 0 243 100l25 175l-156 -21q-215 -29 -229 -133q-8 -55 25 -88t92 -33z" glyph-name="glyph576" horiz-adv-x="1181"/><glyph d="M625 1407l-176 -221h-226l264 350h310l170 -350h-228zM999 373q-18 -135 72 -135l-33 -238q-10 0 -38.5 -1t-45.5 -1h-27.5h-30.5t-28.5 1t-31 3t-28 6t-28.5 9.5t-23.5 14.5t-23.5 20t-17 25.5t-16 33.5q-55 -57 -155.5 -92t-210.5 -35q-166 0 -253 88t-65 247 q20 150 165 243t345 112l224 20l4 19q12 94 -25 135t-123 41q-203 0 -241 -172h-263q37 182 171.5 300t373.5 118q215 0 322.5 -104.5t77.5 -319.5q-15 -113 -48 -338zM696 317l25 175l-156 -21q-215 -29 -229 -133q-8 -55 24.5 -88t92.5 -33q116 0 243 100z" glyph-name="glyph577" horiz-adv-x="1181"/><glyph d="M370.5 1180q-69.5 0 -112.5 49t-33 119q8 70 65.5 119t127 49t111.5 -49.5t32 -118.5q-8 -70 -64.5 -119t-126 -49zM817 1180q-68 0 -110.5 49t-34.5 119q8 68 66.5 118t125.5 50q70 0 112 -49.5t32 -118.5q-8 -70 -64.5 -119t-126.5 -49zM334 -16q-166 0 -253 88 t-65 247q20 150 165 243t345 112l224 20l4 19q12 94 -25 135t-123 41q-203 0 -241 -172h-263q37 182 171.5 300t373.5 118q215 0 322.5 -104.5t77.5 -319.5q-14 -113 -48 -338q-18 -135 72 -135l-33 -238q-10 0 -38.5 -1t-45.5 -1h-27.5h-30.5t-28.5 1t-31 3t-28 6 t-28.5 9.5t-23.5 14.5t-23.5 20t-17 25.5t-16 33.5q-55 -57 -155 -92t-211 -35zM453 217q117 0 243 100l25 175l-156 -21q-215 -29 -229 -133q-8 -55 25 -88t92 -33z" glyph-name="glyph578" horiz-adv-x="1181"/><glyph d="M334 -16q-166 0 -253 88t-65 247q20 150 165 243t345 112l224 20l4 19q12 94 -25 135t-123 41q-203 0 -241 -172h-263q37 182 171.5 300t373.5 118q215 0 322.5 -104.5t77.5 -319.5q-14 -113 -48 -338q-18 -135 72 -135l-33 -238q-10 0 -38.5 -1t-45.5 -1h-27.5h-30.5 t-28.5 1t-31 3t-28 6t-28.5 9.5t-23.5 14.5t-23.5 20t-17 25.5t-16 33.5q-55 -57 -155 -92t-211 -35zM453 217q117 0 243 100l25 175l-156 -21q-215 -29 -229 -133q-8 -55 25 -88t92 -33zM454.5 -100q69.5 0 111.5 -49.5t32 -118.5q-8 -70 -64.5 -119t-126 -49t-112.5 49 t-33 118.5t66.5 119t126 49.5z" glyph-name="glyph579" horiz-adv-x="1181"/><glyph d="M776 1194h-223l-199 342h299zM999 373q-18 -135 72 -135l-33 -238q-10 0 -38.5 -1t-45.5 -1h-27.5h-30.5t-28.5 1t-31 3t-28 6t-28.5 9.5t-23.5 14.5t-23.5 20t-17 25.5t-16 33.5q-55 -57 -155.5 -92t-210.5 -35q-166 0 -253 88t-65 247q20 150 165 243t345 112l224 20 l4 19q12 94 -25 135t-123 41q-203 0 -241 -172h-263q37 182 171.5 300t373.5 118q215 0 322.5 -104.5t77.5 -319.5q-15 -113 -48 -338zM696 317l25 175l-156 -21q-215 -29 -229 -133q-8 -55 24.5 -88t92.5 -33q116 0 243 100z" glyph-name="glyph580" horiz-adv-x="1181"/><glyph d="M895 1196h-635l27 188h635zM334 -16q-166 0 -253 88t-65 247q20 150 165 243t345 112l224 20l4 19q12 94 -25 135t-123 41q-203 0 -241 -172h-263q37 182 171.5 300t373.5 118q215 0 322.5 -104.5t77.5 -319.5q-14 -113 -48 -338q-18 -135 72 -135l-33 -238 q-10 0 -38.5 -1t-45.5 -1h-27.5h-30.5t-28.5 1t-31 3t-28 6t-28.5 9.5t-23.5 14.5t-23.5 20t-17 25.5t-16 33.5q-55 -57 -155 -92t-211 -35zM453 217q117 0 243 100l25 175l-156 -21q-215 -29 -229 -133q-8 -55 25 -88t92 -33z" glyph-name="glyph581" horiz-adv-x="1181"/><glyph d="M999 373q-18 -135 72 -135l-33 -238q-10 0 -38.5 -1t-45.5 -1q-78 0 -94 2q-143 -27 -229 -102.5t-99 -167.5q-8 -51 20 -83t83 -32q53 0 108.5 30.5t92.5 78.5l75 -132q-156 -137 -348 -122q-117 8 -182.5 66t-50.5 169q31 199 293 295h231q-119 12 -154 111 q-55 -57 -155.5 -92t-210.5 -35q-166 0 -253 88t-65 247q20 150 165 243t345 112l224 20l4 19q12 94 -25 135t-123 41q-203 0 -241 -172h-263q37 182 171.5 300t373.5 118q215 0 322.5 -104.5t77.5 -319.5q-15 -113 -48 -338zM696 317l25 175l-156 -21q-215 -29 -229 -133 q-8 -55 24.5 -88t92.5 -33q116 0 243 100z" glyph-name="glyph582" horiz-adv-x="1181"/><glyph d="M999 373q-18 -135 72 -135l-33 -238q-10 0 -38.5 -1t-45.5 -1h-27.5h-30.5t-28.5 1t-31 3t-28 6t-28.5 9.5t-23.5 14.5t-23.5 20t-17 25.5t-16 33.5q-55 -57 -155.5 -92t-210.5 -35q-166 0 -253 88t-65 247q20 150 165 243t345 112l224 20l4 19q12 94 -25 135t-123 41 q-203 0 -241 -172h-263q35 166 149 280.5t318 132.5q-94 6 -149 77t-41 165q14 96 94 167t180 71q98 0 158.5 -71t46.5 -167q-12 -88 -77.5 -154.5t-151.5 -82.5h18q215 0 322.5 -104.5t77.5 -319.5q-15 -113 -48 -338zM506 1372q-8 -53 20.5 -86t77.5 -33t87 33t46 86 q6 49 -22.5 84t-77.5 35t-87 -35t-44 -84zM696 317l25 175l-156 -21q-215 -29 -229 -133q-8 -55 24.5 -88t92.5 -33q116 0 243 100z" glyph-name="glyph583" horiz-adv-x="1181"/><glyph d="M270 1178q-10 133 64 222t184 89q127 0 193 -119q14 -39 49 -39q37 0 53 39t4 100h174q10 -131 -61.5 -220t-188.5 -89q-121 0 -190 119q-18 39 -49 39q-35 0 -52.5 -40t-5.5 -101h-174zM334 -16q-166 0 -253 88t-65 247q20 150 165 243t345 112l224 20l4 19 q12 94 -25 135t-123 41q-203 0 -241 -172h-263q37 182 171.5 300t373.5 118q215 0 322.5 -104.5t77.5 -319.5q-14 -113 -48 -338q-18 -135 72 -135l-33 -238q-10 0 -38.5 -1t-45.5 -1h-27.5h-30.5t-28.5 1t-31 3t-28 6t-28.5 9.5t-23.5 14.5t-23.5 20t-17 25.5t-16 33.5 q-55 -57 -155 -92t-211 -35zM453 217q117 0 243 100l25 175l-156 -21q-215 -29 -229 -133q-8 -55 25 -88t92 -33z" glyph-name="glyph584" horiz-adv-x="1181"/><glyph d="M1882 565q-6 -41 -18 -96h-758q-2 -111 56.5 -173.5t158.5 -62.5q176 0 262 132h258q-53 -164 -200.5 -272.5t-364.5 -108.5q-188 0 -318 100l-10 -84h-198l-50 115q-45 -57 -149.5 -94t-216.5 -37q-166 0 -253 88t-65 247q20 150 165 243t345 112l224 20l4 19 q12 94 -25 135t-123 41q-203 0 -241 -172h-263q37 182 171.5 300t373.5 118q266 0 361 -152q178 162 434 162q242 0 360.5 -158t79.5 -422zM1143 688h448q-4 203 -188 203q-188 0 -260 -203zM696 317l25 175l-156 -21q-215 -29 -229 -133q-8 -55 24.5 -88t92.5 -33 q116 0 243 100z" glyph-name="glyph585" horiz-adv-x="2084"/><glyph d="M752 1044q207 0 319.5 -152.5t81.5 -379.5q-33 -227 -188.5 -379.5t-362.5 -152.5q-180 0 -280 129l-29 -111l-262 2l215 1536h295l-84 -602q127 110 295 110zM580 242q106 0 184 77.5t94 192.5t-40 193.5t-163 78.5q-74 0 -140 -46t-103 -120l-31 -212q16 -74 70.5 -119 t128.5 -45z" glyph-name="glyph586" horiz-adv-x="1234"/><glyph d="M791 1137q225 0 348 -163t88 -409t-204 -409.5t-394 -163.5q-203 0 -307 133l-33 -125l-285 2l215 1536h322l-72 -512q129 111 322 111zM604 270q115 0 200 85t101 210q18 127 -42 212t-175 85q-82 0 -154.5 -50t-113.5 -130l-31 -231q16 -82 74.5 -131.5t140.5 -49.5z M508 -100q70 0 112 -49.5t31 -118.5q-8 -70 -64.5 -119t-126 -49t-112.5 49t-32.5 118.5t66.5 119t126 49.5z" glyph-name="glyph587" horiz-adv-x="1234"/><glyph d="M442 -20q-225 0 -340.5 148t-83.5 384q33 233 191 382.5t383 149.5q115 0 201 -29.5t134 -74.5t77.5 -105.5t38 -113.5t6.5 -107h-263q2 74 -55 127.5t-147 53.5q-113 0 -182.5 -78t-88 -205t29.5 -205t161 -78q88 0 160.5 57.5t93.5 129.5h262q-14 -57 -36.5 -111.5 t-69 -116t-106.5 -105.5t-155.5 -73.5t-210.5 -29.5z" glyph-name="glyph588" horiz-adv-x="1089"/><glyph d="M729 1536h299l-291 -342h-225zM489 -10q-246 0 -372.5 159.5t-91.5 415.5q37 256 207.5 414t418.5 158q125 0 219.5 -32t146.5 -79t84 -112.5t40 -122t6 -115.5h-285q2 80 -60.5 138t-160.5 58q-123 0 -198.5 -83.5t-96.5 -223.5q-18 -137 34 -222t175 -85q96 0 175 62.5 t101 140.5h285q-14 -63 -38.5 -121.5t-75 -125.5t-116 -114t-169 -78.5t-228.5 -31.5z" glyph-name="glyph589" horiz-adv-x="1179"/><glyph d="M338 1536h217l123 -221l186 221h217l-268 -350h-309zM489 -10q-246 0 -372.5 159.5t-91.5 415.5q37 256 207.5 414t418.5 158q125 0 219.5 -32t146.5 -79t84 -112.5t40 -122t6 -115.5h-285q2 80 -60.5 138t-160.5 58q-123 0 -198.5 -83.5t-96.5 -223.5q-18 -137 34 -222 t175 -85q96 0 175 62.5t101 140.5h285q-14 -63 -38.5 -121.5t-75 -125.5t-116 -114t-169 -78.5t-228.5 -31.5z" glyph-name="glyph590" horiz-adv-x="1179"/><glyph d="M1147 676h-285q2 80 -60.5 138t-160.5 58q-123 0 -198.5 -83.5t-96.5 -223.5q-18 -137 34 -222t175 -85q96 0 175 62.5t101 140.5h285q-18 -80 -55 -151.5t-103.5 -147.5t-181 -122t-262.5 -50l-6 -8l-74 -105q104 18 167 -36t48 -150q-12 -94 -86 -158.5t-168 -64.5 q-76 0 -139 44t-80 107l137 45q10 -27 40 -45t61 -18q37 0 65.5 26.5t32.5 63.5q10 57 -37 74.5t-123 -15.5l-96 62l121 176l10 10q-199 33 -297 187.5t-65 379.5q37 256 207.5 414t418.5 158q125 0 219.5 -32t146.5 -79t84 -112.5t40 -122t6 -115.5z" glyph-name="glyph591" horiz-adv-x="1179"/><glyph d="M680 1180q-70 0 -113 49t-32 119q8 70 65 119t127 49t112 -49.5t31 -118.5q-8 -70 -64 -119t-126 -49zM489 -10q-246 0 -372.5 159.5t-91.5 415.5q37 256 207.5 414t418.5 158q125 0 219.5 -32t146.5 -79t84 -112.5t40 -122t6 -115.5h-285q2 80 -60.5 138t-160.5 58 q-123 0 -198.5 -83.5t-96.5 -223.5q-18 -137 34 -222t175 -85q96 0 175 62.5t101 140.5h285q-14 -63 -38.5 -121.5t-75 -125.5t-116 -114t-169 -78.5t-228.5 -31.5z" glyph-name="glyph592" horiz-adv-x="1179"/><glyph d="M1235 1536l-215 -1536l-266 -2v106q-137 -125 -312 -124q-209 0 -320.5 152.5t-78.5 379.5q31 227 185.5 379.5t363.5 152.5q164 0 264 -110l84 602h295zM539 242q74 0 139 44t102 117l31 218q-16 74 -69.5 118.5t-127.5 44.5q-106 0 -183 -77.5t-93 -194.5t39.5 -193.5 t161.5 -76.5z" glyph-name="glyph593" horiz-adv-x="1234"/><glyph d="M905 1413q166 -139 241 -376.5t36 -524.5q-33 -223 -220.5 -377.5t-424.5 -154.5q-240 0 -383.5 154.5t-110.5 377.5q31 223 217 377.5t426 154.5q90 0 174 -26q-41 129 -133 203l-109 -117l-79 70l96 102q-88 41 -236 49l95 236q178 0 325 -86l101 108l81 -67zM573 242 q113 0 203 78.5t107 191.5q14 113 -53.5 192.5t-180.5 79.5q-115 0 -205 -79.5t-104 -192.5q-16 -113 51 -191.5t182 -78.5z" glyph-name="glyph594" horiz-adv-x="1249"/><glyph d="M1475 1219q-47 18 -72 61t-17 96q8 70 63.5 118t125.5 48q68 0 108.5 -48t30.5 -118q-16 -119 -190 -301h-170zM1323 1534l-215 -1532l-281 -2l-10 111q-135 -121 -336 -121q-227 0 -350 159.5t-88 405.5q35 248 204 415t396 167q180 0 285 -121l73 518h322zM582 260 q80 0 151.5 48t114.5 128l33 238q-20 80 -78 129t-137 49q-117 0 -201 -85t-100 -212q-18 -125 41 -210t176 -85z" glyph-name="glyph595" horiz-adv-x="1626"/><glyph d="M1329 1176h-145l-164 -1176l-266 -2v106q-137 -125 -312 -124q-209 0 -320.5 152.5t-78.5 379.5q31 227 185.5 379.5t363.5 152.5q164 0 264 -110l33 242h-254l24 167h254l27 193h295l-27 -193h146zM539 242q74 0 139 44t102 117l31 218q-16 74 -69.5 118.5t-127.5 44.5 q-106 0 -183 -77.5t-93 -194.5t39.5 -193.5t161.5 -76.5z" glyph-name="glyph596" horiz-adv-x="1234"/><glyph d="M1030 514q-6 -41 -18 -88h-695q-2 -100 51.5 -158.5t145.5 -58.5q162 0 240 121h237q-49 -152 -184 -251t-334 -99q-225 0 -349 151.5t-91 380.5q33 233 192.5 384t399.5 151q221 0 330.5 -144.5t74.5 -388.5zM588 813q-172 0 -236 -186h412q-6 186 -176 186z" glyph-name="glyph597" horiz-adv-x="1097"/><glyph d="M1065 1538l-291 -342h-225l217 342h299zM666 1137q242 0 360.5 -154t79.5 -418q-6 -41 -19 -96h-757q-2 -111 56 -173.5t159 -62.5q176 0 262 132h258q-53 -164 -199.5 -269.5t-363.5 -105.5q-248 0 -378 161.5t-95 411.5q37 254 206 414t431 160zM367 688h448 q-4 203 -188 203q-188 0 -260 -203z" glyph-name="glyph598" horiz-adv-x="1187"/><glyph d="M500 1188l-166 350h217l123 -221l186 221h217l-268 -350h-309zM1106 565q-6 -41 -19 -96h-757q-2 -111 56 -173.5t159 -62.5q176 0 262 132h258q-53 -164 -199.5 -269.5t-363.5 -105.5q-248 0 -378 161.5t-95 411.5q37 254 205.5 414t431.5 160q242 0 360.5 -154 t79.5 -418zM627 891q-188 0 -260 -203h448q-4 203 -188 203z" glyph-name="glyph599" horiz-adv-x="1187"/><glyph d="M666 1137q242 0 360.5 -154t79.5 -418q-6 -41 -19 -96h-757q-2 -111 56 -173.5t159 -62.5q176 0 262 132h258q-49 -152 -179 -255.5t-325 -117.5q-2 -2 -2 -8l-76 -109q104 18 167 -36t48 -150q-12 -94 -85.5 -159t-168.5 -65q-76 0 -139 44.5t-80 107.5l135 45 q12 -27 42 -45t61 -18q37 0 65.5 26.5t32.5 63.5q8 57 -38 74.5t-122 -15.5l-96 62l117 174v6l2 4q-211 27 -319.5 183.5t-75.5 385.5q37 254 206 414t431 160zM367 688h448q-4 203 -188 203q-188 0 -260 -203z" glyph-name="glyph600" horiz-adv-x="1187"/><glyph d="M510 1188h-225l264 350h309l170 -350h-227l-115 221zM1106 565q-6 -41 -19 -96h-757q-2 -111 56 -173.5t159 -62.5q176 0 262 132h258q-53 -164 -199.5 -269.5t-363.5 -105.5q-248 0 -378 161.5t-95 411.5q37 254 205.5 414t431.5 160q242 0 360.5 -154t79.5 -418z M627 891q-188 0 -260 -203h448q-4 203 -188 203z" glyph-name="glyph601" horiz-adv-x="1187"/><glyph d="M432 1182q-70 0 -113 49t-32.5 118.5t67 119t126 49.5t111.5 -49.5t32 -118.5q-8 -70 -64.5 -119t-126.5 -49zM879 1182q-68 0 -111 49t-35 119q10 70 67.5 119t125.5 49q70 0 111.5 -49.5t31.5 -118.5q-8 -70 -64 -119t-126 -49zM1106 565q-6 -41 -19 -96h-757 q-2 -111 56 -173.5t159 -62.5q176 0 262 132h258q-53 -164 -199.5 -269.5t-363.5 -105.5q-248 0 -378 161.5t-95 411.5q37 254 205.5 414t431.5 160q242 0 360.5 -154t79.5 -418zM627 891q-188 0 -260 -203h448q-4 203 -188 203z" glyph-name="glyph602" horiz-adv-x="1187"/><glyph d="M657.5 1182q-69.5 0 -112.5 49t-33 118.5t66.5 119t126 49.5t111.5 -49.5t32 -118.5q-8 -70 -64.5 -119t-126 -49zM1106 565q-6 -41 -19 -96h-757q-2 -111 56 -173.5t159 -62.5q176 0 262 132h258q-53 -164 -199.5 -269.5t-363.5 -105.5q-248 0 -378 161.5t-95 411.5 q37 254 205.5 414t431.5 160q242 0 360.5 -154t79.5 -418zM627 891q-188 0 -260 -203h448q-4 203 -188 203z" glyph-name="glyph603" horiz-adv-x="1187"/><glyph d="M1106 565q-6 -41 -19 -96h-757q-2 -111 56 -173.5t159 -62.5q176 0 262 132h258q-53 -164 -199.5 -269.5t-363.5 -105.5q-248 0 -378 161.5t-95 411.5q37 254 205.5 414t431.5 160q242 0 360.5 -154t79.5 -418zM627 891q-188 0 -260 -203h448q-4 203 -188 203z M489.5 -100q69.5 0 111.5 -49.5t32 -118.5q-8 -70 -64.5 -119t-126 -49t-112.5 49t-33 118.5t66.5 119t126 49.5z" glyph-name="glyph604" horiz-adv-x="1187"/><glyph d="M535 1196l-199 342h299l123 -342h-223zM1106 565q-6 -41 -19 -96h-757q-2 -111 56 -173.5t159 -62.5q176 0 262 132h258q-53 -164 -199.5 -269.5t-363.5 -105.5q-248 0 -378 161.5t-95 411.5q37 254 205.5 414t431.5 160q242 0 360.5 -154t79.5 -418zM627 891 q-188 0 -260 -203h448q-4 203 -188 203z" glyph-name="glyph605" horiz-adv-x="1187"/><glyph d="M977 1198h-635l27 188h635zM1106 565q-6 -41 -19 -96h-757q-2 -111 56 -173.5t159 -62.5q176 0 262 132h258q-53 -164 -199.5 -269.5t-363.5 -105.5q-248 0 -378 161.5t-95 411.5q37 254 205.5 414t431.5 160q242 0 360.5 -154t79.5 -418zM627 891q-188 0 -260 -203h448 q-4 203 -188 203z" glyph-name="glyph606" horiz-adv-x="1187"/><glyph d="M666 1137q242 0 360.5 -154t79.5 -418q-6 -41 -19 -96h-757q-2 -111 56 -173.5t159 -62.5q176 0 262 132h258q-47 -150 -175 -252.5t-319 -118.5l-6 -10q-57 -66 -71 -146q-6 -51 21.5 -82.5t82.5 -31.5q53 0 108.5 30.5t90.5 77.5l75 -131q-152 -137 -346 -123 q-119 8 -184.5 66.5t-48.5 169.5q12 98 86 174q0 6 4 14q-193 39 -289 191.5t-65 369.5q37 254 206 414t431 160zM367 688h448q-4 203 -188 203q-188 0 -260 -203z" glyph-name="glyph607" horiz-adv-x="1187"/><glyph d="M315 1178q-10 133 64 222t184 89q127 0 193 -119q14 -39 49 -39q37 0 53 39t4 100h174q10 -131 -61.5 -220t-188.5 -89q-121 0 -190 119q-18 39 -49 39q-35 0 -52.5 -40t-5.5 -101h-174zM1106 565q-6 -41 -19 -96h-757q-2 -111 56 -173.5t159 -62.5q176 0 262 132h258 q-53 -164 -199.5 -269.5t-363.5 -105.5q-248 0 -378 161.5t-95 411.5q37 254 205.5 414t431.5 160q242 0 360.5 -154t79.5 -418zM627 891q-188 0 -260 -203h448q-4 203 -188 203z" glyph-name="glyph608" horiz-adv-x="1187"/><glyph d="M129 0l113 801h-172l30 223h172l21 143q23 158 150.5 273.5t289.5 115.5q152 0 232 -65l-27 -193q-96 61 -199 27q-135 -43 -153 -178l-17 -123h246l-31 -223h-245l-113 -801h-297z" glyph-name="glyph609" horiz-adv-x="804"/><glyph d="M1165 1024l-143 -1020q-33 -233 -198 -374.5t-402 -141.5q-139 0 -239.5 41t-147.5 105.5t-66.5 128t-13.5 122.5h229q0 -80 89 -134t196 -42q96 12 167 87t89 208l12 86q-131 -111 -295 -110q-209 0 -320.5 152.5t-78.5 379.5q31 227 185.5 379.5t363.5 152.5 q178 0 278 -126l29 106h266zM539 242q74 0 139 44t102 117l31 218q-16 74 -69.5 118.5t-127.5 44.5q-106 0 -183 -77.5t-93 -194.5t39.5 -193.5t161.5 -76.5z" glyph-name="glyph610" horiz-adv-x="1236"/><glyph d="M948 1061q35 82 136.5 126t164.5 21q-8 -53 -26 -186q-43 20 -97.5 5t-83.5 -66q76 -125 62 -226q-25 -184 -183.5 -302t-365.5 -126q-123 -6 -207 37q-33 -10 -50 -29.5t-11 -38.5q10 -51 141 -51l221 -4q184 -4 288.5 -82t98.5 -211q-12 -213 -179 -322.5t-429 -117.5 q-227 -8 -348 69.5t-133 200.5q-8 76 36 172.5t134 143.5q-47 12 -73 63t-17 109q20 131 184 207q-45 47 -72.5 129t-15.5 174q25 154 168 267.5t342 121.5q-137 16 -206 105t-48 243h170q-10 -72 37 -127t133 -55q88 0 150.5 54t72.5 128h170q-23 -164 -129 -255t-266 -97 q168 -21 231 -80zM803 739q10 74 -40 115t-140 41q-88 0 -148.5 -42t-71 -118t39 -119t135.5 -43q90 0 152.5 44t72.5 122zM324 -16q-37 -10 -64 -45t-33 -72q-8 -66 47.5 -99.5t165.5 -33.5q121 0 205 35.5t92 97.5q10 66 -65.5 91.5t-196.5 25.5h-151z" glyph-name="glyph611" horiz-adv-x="1218"/><glyph d="M506 1186l-166 350h217l123 -221l186 221h217l-268 -350h-309zM428 -512q-227 -8 -348 69.5t-133 200.5q-8 76 36 172.5t134 143.5q-47 12 -73 63t-17 109q20 131 184 207q-45 47 -72.5 129t-15.5 174q25 158 176.5 273.5t357.5 115.5q76 0 165 -23.5t126 -60.5 q35 82 136.5 126t164.5 21q-8 -53 -26 -186q-43 20 -97.5 5t-83.5 -66q76 -125 62 -226q-25 -184 -183.5 -302t-365.5 -126q-123 -6 -207 37q-33 -10 -50 -29.5t-11 -38.5q10 -51 141 -51l221 -4q184 -4 288.5 -82t98.5 -211q-12 -213 -179 -322.5t-429 -117.5zM803 739 q10 74 -40 115t-140 41q-88 0 -148.5 -42t-71 -118t39 -119t135.5 -43q90 0 152.5 44t72.5 122zM737 -133q10 66 -65.5 91.5t-196.5 25.5h-151q-37 -10 -64 -45t-33 -72q-8 -66 47.5 -99.5t165.5 -33.5q121 0 205 36t92 97z" glyph-name="glyph612" horiz-adv-x="1218"/><glyph d="M772 1477q47 -18 71.5 -61.5t16.5 -96.5q-8 -70 -63.5 -118t-124.5 -48q-68 0 -109 48t-31 118q16 115 191 301h170zM428 -512q-227 -8 -348 69.5t-133 200.5q-8 76 36 172.5t134 143.5q-47 12 -73 63t-17 109q20 131 184 207q-45 47 -72.5 129t-15.5 174 q25 158 176.5 273.5t357.5 115.5q76 0 165 -23.5t126 -60.5q35 82 136.5 126t164.5 21q-8 -53 -26 -186q-43 20 -97.5 5t-83.5 -66q76 -125 62 -226q-25 -184 -183.5 -302t-365.5 -126q-123 -6 -207 37q-33 -10 -50 -29.5t-11 -38.5q10 -51 141 -51l221 -4q184 -4 288.5 -82 t98.5 -211q-12 -213 -179 -322.5t-429 -117.5zM803 739q10 74 -40 115t-140 41q-88 0 -148.5 -42t-71 -118t39 -119t135.5 -43q90 0 152.5 44t72.5 122zM737 -133q10 66 -65.5 91.5t-196.5 25.5h-151q-37 -10 -64 -45t-33 -72q-8 -66 47.5 -99.5t165.5 -33.5q121 0 205 36 t92 97z" glyph-name="glyph613" horiz-adv-x="1218"/><glyph d="M661.5 1180q-69.5 0 -112.5 49t-33 119q8 70 65.5 119t127 49t111.5 -49.5t32 -118.5q-8 -70 -64.5 -119t-126 -49zM428 -512q-227 -8 -348 69.5t-133 200.5q-8 76 36 172.5t134 143.5q-47 12 -73 63t-17 109q20 131 184 207q-45 47 -72.5 129t-15.5 174 q25 158 176.5 273.5t357.5 115.5q76 0 165 -23.5t126 -60.5q35 82 136.5 126t164.5 21q-8 -53 -26 -186q-43 20 -97.5 5t-83.5 -66q76 -125 62 -226q-25 -184 -183.5 -302t-365.5 -126q-123 -6 -207 37q-33 -10 -50 -29.5t-11 -38.5q10 -51 141 -51l221 -4q184 -4 288.5 -82 t98.5 -211q-12 -213 -179 -322.5t-429 -117.5zM803 739q10 74 -40 115t-140 41q-88 0 -148.5 -42t-71 -118t39 -119t135.5 -43q90 0 152.5 44t72.5 122zM737 -133q10 66 -65.5 91.5t-196.5 25.5h-151q-37 -10 -64 -45t-33 -72q-8 -66 47.5 -99.5t165.5 -33.5q121 0 205 36 t92 97z" glyph-name="glyph614" horiz-adv-x="1218"/><glyph d="M793 1044q180 0 267 -98t60 -278l-92 -668h-299l88 631q20 154 -149 153q-92 0 -167 -47t-85 -123l-86 -614h-299l215 1536h299l-86 -616q137 124 334 124z" glyph-name="glyph615" horiz-adv-x="1239"/><glyph d="M856 1135q197 0 291 -106.5t67 -303.5l-100 -725h-326l97 684q20 168 -164 168q-100 0 -182 -51t-95 -135l-92 -666h-325l166 1188h-117l24 168h117l25 180h325l-24 -180h252l-25 -168h-252l-26 -189q155 136 364 136z" glyph-name="glyph616" horiz-adv-x="1239"/><glyph d="M856 1135q197 0 291 -106.5t67 -303.5l-100 -725h-326l97 684q20 168 -164 168q-100 0 -182 -51t-95 -135l-92 -666h-325l215 1536h325l-75 -537q155 136 364 136zM505.5 -100q69.5 0 111.5 -49.5t32 -118.5q-8 -70 -64.5 -119t-126 -49t-112.5 49t-32.5 118.5t66.5 119 t125.5 49.5z" glyph-name="glyph617" horiz-adv-x="1239"/><glyph d="M371 1200q-68 0 -111 49t-35 119q10 70 67.5 119t125.5 49q70 0 112.5 -49t32.5 -119q-8 -70 -65 -119t-127 -49zM197 1024h299l-144 -1024h-299z" glyph-name="glyph618" horiz-adv-x="591"/><glyph d="M174 1024h299l-143 -1024h-299z" glyph-name="glyph619" horiz-adv-x="544"/><glyph d="M457 1536h299l-291 -342h-225zM174 1024h299l-143 -1024h-299z" glyph-name="glyph620" horiz-adv-x="544"/><glyph d="M23 1536h219l123 -221l186 221h217l-268 -350h-310zM174 1024h299l-143 -1024h-299z" glyph-name="glyph621" horiz-adv-x="544"/><glyph d="M240 1536h309l170 -350h-227l-115 221l-176 -221h-228zM174 1024h299l-143 -1024h-299z" glyph-name="glyph622" horiz-adv-x="544"/><glyph d="M123 1180q-70 0 -113 49t-34.5 118.5t66.5 119t128 49.5t112 -49.5t31 -118.5q-8 -70 -64 -119t-126 -49zM569 1180q-68 0 -110.5 49t-34.5 119q8 68 66.5 118t125.5 50q70 0 112 -49.5t32 -118.5q-8 -70 -64.5 -119t-126.5 -49zM174 1024h299l-143 -1024h-299z" glyph-name="glyph623" horiz-adv-x="544"/><glyph d="M371 1200q-68 0 -111 49t-35 119q10 70 67.5 119t125.5 49q70 0 112.5 -49t32.5 -119q-8 -70 -65 -119t-127 -49zM197 1024h299l-144 -1024h-299z" glyph-name="glyph624" horiz-adv-x="696"/><glyph d="M371 1200q-68 0 -111 49t-35 119q10 70 67.5 119t125.5 49q70 0 112.5 -49t32.5 -119q-8 -70 -65 -119t-127 -49zM197 1024h299l-144 -1024h-299zM147.5 -471q-69.5 0 -111.5 49t-32 119q8 70 64.5 119t126 49t112.5 -49t33 -119t-66.5 -119t-126 -49z" glyph-name="glyph625" horiz-adv-x="591"/><glyph d="M23 1536h301l122 -342h-223zM174 1024h299l-143 -1024h-299z" glyph-name="glyph626" horiz-adv-x="544"/><glyph d="M391 1200q-68 0 -110.5 49t-34.5 119q10 70 67.5 119t124.5 49q70 0 113 -49t33 -119q-8 -70 -65.5 -119t-127.5 -49zM1057 1200q-70 0 -113 49t-35 119q10 70 67.5 119t127.5 49q68 0 110.5 -49t32.5 -119q-8 -70 -65 -119t-125 -49zM449 -512l36 260h50q86 0 132 32 t58 118l172 1228h299l-176 -1249q-16 -121 -73.5 -204t-140.5 -119.5t-154.5 -51t-153.5 -14.5h-49zM217 1024h299l-143 -1024h-299z" glyph-name="glyph627" horiz-adv-x="1298"/><glyph d="M55 1384h637l-26 -188h-637zM174 1024h299l-143 -1024h-299z" glyph-name="glyph628" horiz-adv-x="544"/><glyph d="M346 1180q-70 0 -113 49t-32 119q8 70 65.5 119t127 49t111.5 -49.5t32 -118.5q-8 -70 -64.5 -119t-126.5 -49zM338 -408q-156 -137 -348 -122q-117 8 -183.5 66t-52.5 169q31 195 279 295h-2l143 1024h299l-143 -1024h-29q-137 0 -232.5 -87t-109.5 -183 q-8 -51 19.5 -83t82.5 -32q53 0 108.5 30.5t92.5 78.5z" glyph-name="glyph629" horiz-adv-x="544"/><glyph d="M475 1161q-121 0 -190 119q-18 39 -49 39q-35 0 -52.5 -40t-5.5 -101h-176q-8 133 65.5 222t184.5 89q127 0 192 -119q14 -39 50 -39q37 0 53 39t4 100h174q10 -131 -61.5 -220t-188.5 -89zM174 1024h299l-143 -1024h-299z" glyph-name="glyph630" horiz-adv-x="544"/><glyph d="M381 1200q-70 0 -113 49t-35 119q10 70 67.5 119t127.5 49q68 0 111 -49t32 -119q-8 -70 -65 -119t-125 -49zM-137 -512l37 260q66 6 101.5 36t47.5 114l158 1126h299l-162 -1147q-16 -121 -69.5 -206t-125 -124t-143 -53t-143.5 -6z" glyph-name="glyph631" horiz-adv-x="565"/><glyph d="M-94 -532q-104 0 -148 32l35 250q45 -39 111 -39q53 0 96 41t51 105l164 1167h299l-168 -1188q-20 -156 -148 -262t-292 -106z" glyph-name="glyph632" horiz-adv-x="618"/><glyph d="M31 0l215 1536h299l-123 -872l321 360h312l-426 -461l375 -563h-308l-301 477l-65 -477h-299z" glyph-name="glyph633" horiz-adv-x="1159"/><glyph d="M12 0l215 1536h326l-113 -807l367 397h326l-490 -512l375 -614h-334l-281 471l-65 -471h-326zM416 -369q-47 18 -72 61.5t-16 96.5q8 70 64.5 118t125.5 48q68 0 108 -48t29 -118q-16 -119 -190 -301h-170z" glyph-name="glyph634" horiz-adv-x="1159"/><glyph d="M41 0l215 1536h299l-215 -1536h-299z" glyph-name="glyph635" horiz-adv-x="600"/><glyph d="M512 2048h299l-291 -342h-225zM41 0l215 1536h299l-215 -1536h-299z" glyph-name="glyph636" horiz-adv-x="743"/><glyph d="M788 1229q-47 18 -71.5 61t-16.5 96q8 70 63.5 118t125.5 48q68 0 108.5 -48t30.5 -118q-16 -115 -190 -301h-170zM41 0l215 1536h299l-215 -1536h-299z" glyph-name="glyph637" horiz-adv-x="966"/><glyph d="M41 0l215 1536h299l-215 -1536h-299zM76 -393q-49 18 -72.5 61t-17.5 96q10 70 65 118t125 48q68 0 108 -48t29 -118q-16 -119 -188 -301h-170z" glyph-name="glyph638" horiz-adv-x="743"/><glyph d="M41 0l215 1536h299l-215 -1536h-299zM637 614q-49 0 -82 36t-24.5 87t50.5 88t91 37t81.5 -37t24.5 -88t-50 -87t-91 -36z" glyph-name="glyph639" horiz-adv-x="784"/><glyph d="M41 0l215 1536h299l-215 -1536h-299zM129 -436q-70 0 -113 49t-32.5 118.5t66.5 119t126 49.5t112 -49.5t31 -118.5q-8 -70 -64 -119t-126 -49z" glyph-name="glyph640" horiz-adv-x="743"/><glyph d="M752 1112l-293 -266l-119 -846h-299l76 539l-2 -2l-97 -88h-178l301 274l115 813h299l-70 -500l82 76h185z" glyph-name="glyph641" horiz-adv-x="743"/><glyph d="M1427 1044q174 0 255 -97t57 -275l-94 -672h-299l88 635q20 150 -129 149q-84 0 -153 -47t-79 -123l-86 -614h-299l88 635q20 150 -127 149q-84 0 -153.5 -47t-79.5 -123l-86 -614h-299l143 1024h268l-2 -109q135 129 330 129t277 -159q70 74 173 116.5t207 42.5z" glyph-name="glyph642" horiz-adv-x="1853"/><glyph d="M768 1044q180 0 267 -98t61 -278l-92 -668h-299l88 631q20 154 -150 153q-92 0 -167 -47t-85 -123l-86 -614h-299l144 1024h268v-119q68 63 162 101t188 38z" glyph-name="glyph643" horiz-adv-x="1177"/><glyph d="M813 1194h-225l217 342h299zM838 1141q197 0 291 -107.5t67 -304.5l-102 -729h-326l96 690q25 168 -164 168q-100 0 -181 -51t-93 -135l-94 -672h-326l158 1126h293l-2 -137q74 70 177.5 111t205.5 41z" glyph-name="glyph644" horiz-adv-x="1267"/><glyph d="M541 1186l-166 350h217l123 -221l186 221h217l-268 -350h-309zM838 1141q197 0 291 -107.5t67 -304.5l-102 -729h-326l96 690q25 168 -164 168q-100 0 -181 -51t-93 -135l-94 -672h-326l158 1126h293l-2 -137q74 70 177.5 111t205.5 41z" glyph-name="glyph645" horiz-adv-x="1267"/><glyph d="M838 1141q197 0 291 -107.5t67 -304.5l-102 -729h-326l96 690q25 168 -164 168q-100 0 -181 -51t-93 -135l-94 -672h-326l158 1126h293l-2 -137q74 70 177.5 111t205.5 41zM401 -410q-47 18 -70.5 61.5t-17.5 96.5q10 70 65.5 118t125.5 48q68 0 107.5 -48t29.5 -118 q-16 -119 -188 -301h-170z" glyph-name="glyph646" horiz-adv-x="1267"/><glyph d="M696.5 1180q-69.5 0 -112.5 49t-33 119q8 70 65.5 119t127 49t111.5 -49.5t32 -118.5q-8 -70 -64.5 -119t-126 -49zM838 1141q197 0 291 -107.5t67 -304.5l-102 -729h-326l96 690q25 168 -164 168q-100 0 -181 -51t-93 -135l-94 -672h-326l158 1126h293l-2 -137 q74 70 177.5 111t205.5 41z" glyph-name="glyph647" horiz-adv-x="1267"/><glyph d="M838 1141q197 0 291 -107.5t67 -304.5l-102 -729h-326l96 690q25 168 -164 168q-100 0 -181 -51t-93 -135l-94 -672h-326l158 1126h293l-2 -137q74 70 177.5 111t205.5 41zM516 -100q70 0 112 -49.5t31 -118.5q-8 -70 -64 -119t-126 -49t-113 49t-32.5 118.5t66.5 119 t126 49.5z" glyph-name="glyph648" horiz-adv-x="1267"/><glyph d="M838 1141q197 0 291 -107.5t67 -304.5l-102 -729h-27l-16 -125q-18 -131 -94 -216t-181.5 -120t-243.5 -35l27 197q82 0 130 33t63 141l18 125h-2l96 690q25 168 -164 168q-100 0 -181 -51t-93 -135l-94 -672h-326l158 1126h293l-2 -137q74 70 177.5 111t205.5 41z" glyph-name="glyph649" horiz-adv-x="1267"/><glyph d="M354 1178q-10 133 64 222t184 89q127 0 193 -119q14 -39 49 -39q37 0 53 39t4 100h174q10 -131 -61.5 -220t-188.5 -89q-121 0 -190 119q-18 39 -49 39q-35 0 -52.5 -40t-5.5 -101h-174zM838 1141q197 0 291 -107.5t67 -304.5l-102 -729h-326l96 690q25 168 -164 168 q-100 0 -181 -51t-93 -135l-94 -672h-326l158 1126h293l-2 -137q74 70 177.5 111t205.5 41z" glyph-name="glyph650" horiz-adv-x="1267"/><glyph d="M498 -20q-231 0 -361.5 153.5t-97.5 378.5q31 225 204 378.5t404 153.5q229 0 360.5 -153.5t100.5 -378.5q-33 -225 -207 -378.5t-403 -153.5zM535 242q104 0 183 77.5t95 192.5t-41 193.5t-162 78.5q-106 0 -183 -77.5t-93.5 -194.5t39.5 -193.5t162 -76.5z" glyph-name="glyph651" horiz-adv-x="1181"/><glyph d="M780 1536h299l-291 -342h-225zM547 -14q-252 0 -394.5 166.5t-107.5 412.5t223.5 413t440.5 167t393 -167t106.5 -413t-222 -412.5t-439.5 -166.5zM586 270q115 0 200.5 85t102.5 210q18 125 -43.5 211t-175.5 86q-117 0 -202 -85t-103 -212q-16 -127 44 -211t177 -84z " glyph-name="glyph652" horiz-adv-x="1275"/><glyph d="M346 1536h217l123 -221l186 221h218l-269 -350h-309zM498 -20q-231 0 -361.5 153.5t-97.5 378.5q31 225 204 378.5t404 153.5q229 0 360.5 -153.5t100.5 -378.5q-33 -225 -207 -378.5t-403 -153.5zM535 242q104 0 183 77.5t95 192.5t-41 193.5t-162 78.5 q-106 0 -183 -77.5t-93.5 -194.5t39.5 -193.5t162 -76.5z" glyph-name="glyph653" horiz-adv-x="1181"/><glyph d="M621 1536h309l170 -350h-228l-114 221l-176 -221h-226zM547 -14q-252 0 -394.5 166.5t-107.5 412.5t223.5 413t440.5 167t393 -167t106.5 -413t-222 -412.5t-439.5 -166.5zM586 270q115 0 200.5 85t102.5 210q18 125 -43.5 211t-175.5 86q-117 0 -202 -85t-103 -212 q-16 -127 44 -211t177 -84z" glyph-name="glyph654" horiz-adv-x="1275"/><glyph d="M512 1180q-70 0 -113 49t-32 119q8 70 65 119t127 49t112 -49.5t31 -118.5q-8 -70 -64 -119t-126 -49zM958 1180q-68 0 -110.5 49t-34.5 119q8 68 66.5 118t126.5 50q70 0 111.5 -49.5t31.5 -118.5q-8 -70 -64.5 -119t-126.5 -49zM547 -14q-252 0 -394.5 166.5 t-107.5 412.5t223.5 413t440.5 167t393 -167t106.5 -413t-222 -412.5t-439.5 -166.5zM586 270q115 0 200.5 85t102.5 210q18 125 -43.5 211t-175.5 86q-117 0 -202 -85t-103 -212q-16 -127 44 -211t177 -84z" glyph-name="glyph655" horiz-adv-x="1275"/><glyph d="M498 -20q-231 0 -361.5 153.5t-97.5 378.5q31 225 204 378.5t404 153.5q229 0 360.5 -153.5t100.5 -378.5q-33 -225 -207 -378.5t-403 -153.5zM535 242q104 0 183 77.5t95 192.5t-41 193.5t-162 78.5q-106 0 -183 -77.5t-93.5 -194.5t39.5 -193.5t162 -76.5zM440.5 -436 q-69.5 0 -112.5 49t-33 118.5t66.5 119t126 49.5t111.5 -49.5t32 -118.5q-8 -70 -64.5 -119t-126 -49z" glyph-name="glyph656" horiz-adv-x="1181"/><glyph d="M350 1536h299l123 -342h-223zM547 -14q-252 0 -394.5 166.5t-107.5 412.5t223.5 413t440.5 167t393 -167t106.5 -413t-222 -412.5t-439.5 -166.5zM586 270q115 0 200.5 85t102.5 210q18 125 -43.5 211t-175.5 86q-117 0 -202 -85t-103 -212q-16 -127 44 -211t177 -84z " glyph-name="glyph657" horiz-adv-x="1275"/><glyph d="M686 1536h279l-410 -365h-207zM1110 1536h281l-410 -365h-207zM498 -20q-231 0 -361.5 153.5t-97.5 378.5q31 225 204 378.5t404 153.5q229 0 360.5 -153.5t100.5 -378.5q-33 -225 -207 -378.5t-403 -153.5zM535 242q104 0 183 77.5t95 192.5t-41 193.5t-162 78.5 q-106 0 -183 -77.5t-93.5 -194.5t39.5 -193.5t162 -76.5z" glyph-name="glyph658" horiz-adv-x="1320"/><glyph d="M379 1384h635l-27 -188h-635zM498 -20q-231 0 -361.5 153.5t-97.5 378.5q31 225 204 378.5t404 153.5q229 0 360.5 -153.5t100.5 -378.5q-33 -225 -207 -378.5t-403 -153.5zM535 242q104 0 183 77.5t95 192.5t-41 193.5t-162 78.5q-106 0 -183 -77.5t-93.5 -194.5 t39.5 -193.5t162 -76.5z" glyph-name="glyph659" horiz-adv-x="1181"/><glyph d="M1049 1030q186 -176 145 -461q-35 -246 -223.5 -415.5t-433.5 -169.5q-145 0 -261 63l-92 -117h-137l141 181q-182 176 -141 458q35 250 221.5 418t433.5 168q141 0 261 -61l92 116h137zM365 569q-18 -119 30 -196l369 469q-45 29 -102 28q-115 0 -198 -86t-99 -215z M578 272q113 0 196.5 85t102.5 212q16 119 -35 199l-371 -471q44 -25 107 -25z" glyph-name="glyph660" horiz-adv-x="1259"/><glyph d="M784 1194h-225l217 342h299zM971 930q172 -156 137 -418q-33 -225 -207 -378.5t-403 -153.5q-135 0 -244 57l-86 -107h-127l131 164q-170 158 -133 418q31 225 204 378.5t404 153.5q137 0 242 -57l88 107h127zM334 512q-16 -106 28 -180l347 428q-43 25 -99 24 q-106 0 -183 -77.5t-93 -194.5zM535 242q104 0 183 77.5t95 192.5q14 102 -33 180l-344 -428q40 -22 99 -22z" glyph-name="glyph661" horiz-adv-x="1181"/><glyph d="M801 1161q-121 0 -191 119q-18 39 -49 39q-35 0 -52 -40t-5 -101h-174q-10 133 63.5 222t184.5 89q127 0 192 -119q14 -39 49 -39q37 0 53.5 39t4.5 100h174q10 -131 -61.5 -220t-188.5 -89zM547 -14q-252 0 -394.5 166.5t-107.5 412.5t223.5 413t440.5 167t393 -167 t106.5 -413t-222 -412.5t-439.5 -166.5zM586 270q115 0 200.5 85t102.5 210q18 125 -43.5 211t-175.5 86q-117 0 -202 -85t-103 -212q-16 -127 44 -211t177 -84z" glyph-name="glyph662" horiz-adv-x="1275"/><glyph d="M1439.5 1137q241.5 0 360.5 -154t80 -418q-6 -41 -18 -96h-758q-2 -111 56.5 -173.5t158.5 -62.5q176 0 262 132h258q-53 -164 -199.5 -269.5t-363.5 -105.5q-236 0 -365 145q-184 -152 -424 -151q-252 0 -393 166.5t-106 412.5t223 413t440 167q236 0 377 -148 q170 142 411.5 142zM1141 688h448q-4 203 -188 203q-188 0 -260 -203zM528 268q86 0 157 48.5t112 129.5q-2 55 6 117q10 72 26 119q-16 82 -73.5 130t-143.5 48q-117 0 -200.5 -85t-102.5 -212q-16 -127 43 -211t176 -84z" glyph-name="glyph663" horiz-adv-x="1894"/><glyph d="M752 1044q207 0 319.5 -152.5t81.5 -379.5q-33 -227 -188.5 -379.5t-362.5 -152.5q-166 0 -264 110l-86 -604l-295 2l217 1536h295l-12 -90q127 110 295 110zM580 242q106 0 184 77.5t94 192.5t-40 193.5t-163 78.5q-74 0 -140 -46t-103 -120l-31 -212q16 -74 70.5 -119 t128.5 -45z" glyph-name="glyph664" horiz-adv-x="1234"/><glyph d="M791 1044q213 0 337.5 -153.5t94.5 -378.5q-33 -223 -201 -377.5t-381 -154.5q-188 0 -297 131l-88 -623h-299l289 2048h299l-88 -623q144 131 334 131zM632.5 242q112.5 0 203 77.5t106.5 192.5t-52.5 193.5t-181 78.5t-202.5 -79.5t-105 -192.5q-16 -113 51.5 -191.5 t180 -78.5z" glyph-name="glyph665" horiz-adv-x="1304"/><glyph d="M1163 1024l-217 -1536l-295 -2l86 604q-131 -111 -295 -110q-209 0 -320.5 152.5t-78.5 379.5q31 227 185.5 379.5t363.5 152.5q164 0 264 -110l12 90h295zM539 242q74 0 139 44t102 117l31 218q-16 74 -69.5 118.5t-127.5 44.5q-106 0 -183 -77.5t-93 -194.5 t39.5 -193.5t161.5 -76.5z" glyph-name="glyph666" horiz-adv-x="1234"/><glyph d="M827 1044l-32 -231q-195 0 -300.5 -75.5t-129.5 -245.5l-68 -492h-299l143 1024h299l-22 -158q35 72 142 125t267 53z" glyph-name="glyph667" horiz-adv-x="800"/><glyph d="M655 1194h-225l217 342h299zM903 1139l-41 -285q-215 0 -328.5 -81t-142.5 -286l-67 -487h-326l158 1126h305l-4 -153q41 68 156.5 117t289.5 49z" glyph-name="glyph668" horiz-adv-x="862"/><glyph d="M383 1186l-166 350h217l123 -221l186 221h218l-269 -350h-309zM903 1139l-41 -285q-215 0 -328.5 -81t-142.5 -286l-67 -487h-326l158 1126h305l-4 -153q41 68 156.5 117t289.5 49z" glyph-name="glyph669" horiz-adv-x="864"/><glyph d="M903 1139l-41 -285q-215 0 -328.5 -81t-142.5 -286l-67 -487h-326l158 1126h305l-4 -153q41 68 156.5 117t289.5 49zM53 -399q-47 18 -71.5 61t-16.5 96q8 70 63.5 118t125.5 48q68 0 108.5 -48t30.5 -118q-16 -119 -191 -301h-170z" glyph-name="glyph670" horiz-adv-x="862"/><glyph d="M436 -20q-207 0 -314.5 105t-103.5 245h252q8 -68 61.5 -105t125.5 -32q127 8 139 100q2 25 -9.5 43t-48 34.5t-57 23.5t-82.5 26q-76 23 -118.5 40t-97 51t-76 85t-11.5 119q20 147 150.5 238t322.5 91q152 0 263.5 -85t105.5 -244h-254q-12 100 -137 108 q-57 4 -96 -15.5t-45 -57.5q-2 -14 2 -26.5t15 -23t22.5 -17.5t34 -16.5t37.5 -14.5t45 -14t48 -15q68 -20 113 -42t92 -58t67.5 -90t10.5 -126q-20 -152 -144.5 -239.5t-312.5 -87.5z" glyph-name="glyph671" horiz-adv-x="1003"/><glyph d="M690 1536h299l-291 -342h-225zM479 -14q-225 0 -343 114.5t-111 266.5h274q8 -74 66.5 -114t134.5 -36q137 8 151 109q4 27 -9 47t-50 37.5t-64.5 26.5t-89.5 28q-80 23 -128 42t-106.5 56t-82 92.5t-12.5 130.5q23 162 164 260.5t352 98.5q164 0 286.5 -92t114.5 -267 h-276q-16 111 -150 119q-66 4 -107.5 -17.5t-48.5 -64.5q-2 -16 2.5 -29.5t17.5 -24.5t24.5 -18.5t37 -17.5t42 -15t50 -15.5t52.5 -16.5q74 -25 122 -47.5t100 -61t72.5 -98t10.5 -137.5q-23 -166 -157 -261t-339 -95z" glyph-name="glyph672" horiz-adv-x="1081"/><glyph d="M260 1536h217l123 -221l186 221h218l-269 -350h-309zM479 -14q-225 0 -343 114.5t-111 266.5h274q8 -74 66.5 -114t134.5 -36q137 8 151 109q4 27 -9 47t-50 37.5t-64.5 26.5t-89.5 28q-80 23 -128 42t-106.5 56t-82 92.5t-12.5 130.5q23 162 164 260.5t352 98.5 q164 0 286.5 -92t114.5 -267h-276q-16 111 -150 119q-66 4 -107.5 -17.5t-48.5 -64.5q-2 -16 2.5 -29.5t17.5 -24.5t24.5 -18.5t37 -17.5t42 -15t50 -15.5t52.5 -16.5q74 -25 122 -47.5t100 -61t72.5 -98t10.5 -137.5q-23 -166 -157 -261t-339 -95z" glyph-name="glyph673" horiz-adv-x="1081"/><glyph d="M479 -14q-225 0 -343 114.5t-111 266.5h274q8 -74 66.5 -114t134.5 -36q137 8 151 109q4 27 -9 47t-50 37.5t-64.5 26.5t-89.5 28q-80 23 -128 42t-106.5 56t-82 92.5t-12.5 130.5q23 162 164 260.5t352 98.5q164 0 286.5 -92t114.5 -267h-276q-16 111 -150 119 q-66 4 -107.5 -17.5t-48.5 -64.5q-2 -16 2.5 -29.5t17.5 -24.5t24.5 -18.5t37 -17.5t42 -15t50 -15.5t52.5 -16.5q74 -25 122 -47.5t100 -61t72.5 -98t10.5 -137.5q-23 -166 -157 -261t-339 -95zM500 -18l-74 -105q104 18 166.5 -36t48.5 -150q-12 -94 -86 -158.5 t-168 -64.5q-76 0 -139.5 44t-79.5 107l137 45q10 -27 40 -45t61 -18q37 0 65.5 26.5t32.5 63.5q10 57 -37 74.5t-123 -15.5l-96 62l114 172z" glyph-name="glyph674" horiz-adv-x="1081"/><glyph d="M479 -14q-225 0 -343 114.5t-111 266.5h274q8 -74 66.5 -114t134.5 -36q137 8 151 109q4 27 -9 47t-50 37.5t-64.5 26.5t-89.5 28q-80 23 -128 42t-106.5 56t-82 92.5t-12.5 130.5q23 162 164 260.5t352 98.5q164 0 286.5 -92t114.5 -267h-276q-16 111 -150 119 q-66 4 -107.5 -17.5t-48.5 -64.5q-2 -16 2.5 -29.5t17.5 -24.5t24.5 -18.5t37 -17.5t42 -15t50 -15.5t52.5 -16.5q74 -25 122 -47.5t100 -61t72.5 -98t10.5 -137.5q-23 -166 -157 -261t-339 -95zM322 -473q-47 18 -72 61t-17 97q8 70 63.5 117.5t125.5 47.5q68 0 108.5 -48 t30.5 -117q-16 -115 -190 -301h-170z" glyph-name="glyph675" horiz-adv-x="1081"/><glyph d="M479 -14q-225 0 -343 114.5t-111 266.5h274q8 -74 66.5 -114t134.5 -36q137 8 151 109q4 27 -9 47t-50 37.5t-64.5 26.5t-89.5 28q-80 23 -128 42t-106.5 56t-82 92.5t-12.5 130.5q23 162 164 260.5t352 98.5q164 0 286.5 -92t114.5 -267h-276q-16 111 -150 119 q-66 4 -107.5 -17.5t-48.5 -64.5q-2 -16 2.5 -29.5t17.5 -24.5t24.5 -18.5t37 -17.5t42 -15t50 -15.5t52.5 -16.5q74 -25 122 -47.5t100 -61t72.5 -98t10.5 -137.5q-23 -166 -157 -261t-339 -95zM385 -436q-70 0 -113 49t-32.5 118.5t66.5 119t126 49.5t112 -49.5t31 -118.5 q-8 -70 -64 -119t-126 -49z" glyph-name="glyph676" horiz-adv-x="1081"/><glyph d="M1102 803q88 -63 130 -163.5t25 -217.5q-27 -184 -167 -313t-316 -129q-84 0 -183 27.5t-151 72.5l148 231q74 -59 168 -55q72 4 133 56.5t72 127.5q12 88 -46.5 150.5t-152.5 62.5h-82l35 244h33q84 0 153.5 58.5t81.5 140.5q10 78 -46 129t-153 51q-106 0 -186 -61.5 t-94 -155.5l-148 -1059h-297l148 1059q29 207 204 342t406 135q221 0 347 -124t100 -312q-25 -172 -162 -297z" glyph-name="glyph677" horiz-adv-x="1398"/><glyph d="M629 8q-55 -25 -142.5 -24.5t-176.5 29t-143 118.5t-36 227l64 443h-123l30 223h123l49 348h299l-49 -348h256l-30 -223h-256l-64 -445q-10 -70 27 -107.5t92 -37.5t110 12z" glyph-name="glyph678" horiz-adv-x="772"/><glyph d="M881 874h-306l-40 -278h200l-22 -168h-201l-4 -25q-12 -86 26.5 -117.5t120.5 -31.5h142l-37 -256h-142q-43 0 -73.5 1t-69.5 4t-65.5 9t-58.5 15.5t-52 25t-40.5 37t-32 49t-19.5 63.5t-8 82t8 99l6 45h-195l23 168h197l38 278h-190l35 256h190l58 406h299l-58 -406h305 z" glyph-name="glyph679" horiz-adv-x="917"/><glyph d="M821 1282q-49 18 -72.5 61t-17.5 97q10 70 65.5 118t125.5 48q68 0 107.5 -48.5t29.5 -117.5q-16 -119 -189 -301h-170zM614 -2q-43 0 -73.5 1t-69.5 4t-65.5 9t-58.5 15.5t-52.5 25t-41 37t-31.5 49t-19 63.5t-8 82t8 99l69 491h-190l35 256h190l58 406h299l-58 -406 h305l-34 -256h-306l-67 -471q-12 -86 26.5 -117.5t120.5 -31.5h142l-37 -256h-142z" glyph-name="glyph680" horiz-adv-x="993"/><glyph d="M614 -2q-43 0 -73.5 1t-69.5 4t-65.5 9t-58.5 15.5t-52.5 25t-41 37t-31.5 49t-19 63.5t-8 82t8 99l69 491h-190l35 256h190l58 406h299l-58 -406h305l-34 -256h-306l-67 -471q-12 -86 26.5 -117.5t120.5 -31.5h142l-37 -256h-142zM397 -123q104 18 167 -36t48 -150 q-12 -94 -85.5 -158.5t-168.5 -64.5q-76 0 -139 44t-80 107l137 45q10 -27 40 -45t61 -18q37 0 65.5 26.5t32.5 63.5q10 57 -37 74.5t-123 -15.5l-96 62l131 194l121 -18z" glyph-name="glyph681" horiz-adv-x="913"/><glyph d="M614 -2q-43 0 -73.5 1t-69.5 4t-65.5 9t-58.5 15.5t-52.5 25t-41 37t-31.5 49t-19 63.5t-8 82t8 99l69 491h-190l35 256h190l58 406h299l-58 -406h305l-34 -256h-306l-67 -471q-12 -86 26.5 -117.5t120.5 -31.5h142l-37 -256h-142zM250 -459q-47 18 -71.5 61.5 t-16.5 96.5q8 70 63.5 118t124.5 48q68 0 109 -48t30 -118q-16 -115 -190 -301h-170z" glyph-name="glyph682" horiz-adv-x="913"/></font>
</defs>
</svg>
