<?xml version="1.0" standalone="no"?>
<!DOCTYPE svg PUBLIC "-//W3C//DTD SVG 1.1//EN" "http://www.w3.org/Graphics/SVG/1.1/DTD/svg11.dtd">
<svg xmlns="http://www.w3.org/2000/svg"><metadata>This SVG WebFont was generated by YouWorkForThem.
\(c\)2017 Oakes is a trademark of Samuel Oakes. All rights reserved.</metadata><defs><font horiz-adv-x="0" id="ywftsvg"><font-face ascent="1536" bbox="-1540 -649 2523 2056" cap-height="1536" descent="-512" font-family="" font-stretch="normal" font-weight="300" panose-1="0 0 4 0 0 0 0 0 0 0" underline-position="0" underline-thickness="0" unicode-range="U+000D-FB02" units-per-em="2048" x-height="1116"/><missing-glyph d="M315 1536h815l-215 -1536h-815zM823 109l187 1321h-602l-187 -1321h602z" horiz-adv-x="1200"/><glyph d="M166 0l141 1008h-145l16 116h146l14 113q18 121 87 203t177 98q131 18 211 -37l-20 -117q-27 12 -60 22.5t-85 9.5t-87 -25q-31 -23 -48 -59t-21.5 -54t-10.5 -64l-12 -90h240l-17 -116h-239l-142 -1008h-145zM1059 1335q-41 0 -66.5 30t-19.5 73q6 41 40 70.5t74.5 29.5 t66.5 -29.5t20 -70.5q-6 -43 -40 -73t-75 -30zM958 1126h144l-158 -1126h-143z" glyph-name="uniFB01" horiz-adv-x="1177" unicode="fi"/><glyph d="M166 0l141 1008h-145l16 116h146l14 113q18 121 87 203t177 98q131 18 211 -37l-20 -117q-27 12 -60 22.5t-85 9.5t-87 -25q-31 -23 -48 -59t-21.5 -54t-10.5 -64l-12 -90h240l-17 -116h-239l-142 -1008h-145zM854 0l217 1536h137l-215 -1536h-139z" glyph-name="uniFB02" horiz-adv-x="1280" unicode="fl"/><glyph d="M315 1536h815l-215 -1536h-815zM823 109l187 1321h-602l-187 -1321h602z" glyph-name=".notdef" horiz-adv-x="1200"/><glyph glyph-name="glyph1"/><glyph glyph-name="glyph2" horiz-adv-x="681"/><glyph glyph-name="space" horiz-adv-x="532" unicode=" "/><glyph d="M348 1536h133l-168 -1114h-108zM197 -20q-41 0 -67 29.5t-19 70.5q6 43 39.5 71.5t74.5 28.5t66.5 -28.5t19.5 -71.5q-6 -41 -40.5 -70.5t-73.5 -29.5z" glyph-name="exclam" horiz-adv-x="583" unicode="!"/><glyph d="M252 1538q41 0 61.5 -30.5t14.5 -73.5q-6 -45 -31 -100.5t-45 -88.5l-21 -35h-53q-4 14 -11 37t-16.5 82.5t-3.5 104.5q6 43 35 73.5t70 30.5zM516 1538q41 0 61.5 -30.5t14.5 -73.5q-6 -45 -30.5 -100.5t-45.5 -88.5l-20 -35h-54q-4 14 -11 37t-16 82.5t-3 104.5 q6 43 34.5 73.5t69.5 30.5z" glyph-name="quotedbl" horiz-adv-x="524" unicode="&quot;"/><glyph d="M375 365h-289l29 104h288l144 500h-291l31 102h284l105 367h102l-102 -367h399l103 367h102l-102 -367h288l-30 -102h-287l-139 -500h286l-28 -104h-287l-107 -365h-100l103 365h-402l-100 -365h-103zM905 469l142 500h-400l-141 -500h399z" glyph-name="numbersign" horiz-adv-x="1536" unicode="#"/><glyph d="M784 844q203 -80 273 -131q143 -109 119 -291q-27 -186 -170.5 -302t-341.5 -136l-23 -162h-115l23 158q-211 12 -325.5 137t-104.5 299h147q2 -121 74 -207t227 -94l90 641q-68 27 -88 35t-79.5 35.5t-81 45t-61.5 51t-53 65.5t-23.5 77t-2.5 96q27 180 171.5 282.5 t330.5 112.5l18 123h115l-18 -127q383 -35 395 -411h-125q-2 109 -68.5 190.5t-218.5 100.5zM412 1171q-14 -102 55.5 -163.5t208.5 -118.5l78 545q-129 -8 -227.5 -75t-114.5 -188zM1032 416q10 61 -6 109t-59 83t-87 57.5t-112 49.5l-86 -598q145 16 237.5 93t112.5 206z " glyph-name="dollar" horiz-adv-x="1316" unicode="$"/><glyph d="M430 938q-111 0 -175.5 91t-47.5 218q18 127 108.5 218t201 91t176 -91t46.5 -218q-16 -127 -107 -218t-202 -91zM1321 1536h141l-1272 -1536h-141zM444.5 1044q65.5 0 121 59.5t67.5 143.5t-27 143.5t-104.5 59.5t-119.5 -59.5t-66.5 -143.5t25.5 -143.5t103.5 -59.5z M995.5 -20q-110.5 0 -175 91t-46.5 220q16 127 107.5 218t202 91t175 -91t48.5 -218q-18 -129 -109.5 -220t-202 -91zM1011.5 88q65.5 0 120 58.5t66.5 144.5q10 84 -27.5 142.5t-103.5 58.5t-121 -58.5t-65 -142.5q-12 -86 26.5 -144.5t104 -58.5z" glyph-name="percent" horiz-adv-x="1480" unicode="%"/><glyph d="M512 -47q-186 0 -304 123t-93 293q39 279 331 426q-145 166 -124 325q25 164 129 263.5t274 97.5q135 -2 216 -99.5t60 -236.5q-14 -115 -105 -214.5t-237 -158.5l336 -389l248 367h152l-314 -459l252 -324h-190l-168 207q-209 -221 -463 -221zM592 862q260 104 285 285 q14 96 -34 160.5t-136 64.5q-115 0 -178.5 -70.5t-79.5 -181.5q-15 -115 143 -258zM535 86q197 0 366 188l-387 437q-117 -57 -186.5 -143.5t-83.5 -188.5q-18 -131 61.5 -212t229.5 -81z" glyph-name="ampersand" horiz-adv-x="1521" unicode="&amp;"/><glyph d="M340 1538q41 0 61.5 -30.5t14.5 -73.5q-6 -45 -31 -100.5t-45 -88.5l-21 -35h-53q-4 14 -11 37t-16.5 82.5t-2.5 104.5q6 43 34.5 73.5t69.5 30.5z" glyph-name="quotesingle" horiz-adv-x="342" unicode="'"/><glyph d="M397 -459q-117 117 -191.5 400.5t-29.5 607.5q47 338 204 628.5t357 440.5h113q-205 -168 -352.5 -467t-190.5 -602q-39 -283 8 -544t189 -464h-107z" glyph-name="parenleft" horiz-adv-x="819" unicode="("/><glyph d="M487 1618q119 -119 193 -401.5t27 -606.5q-47 -336 -203 -626.5t-357 -442.5h-112q207 168 353.5 468t186.5 601q41 283 -6 544t-188 464h106z" glyph-name="parenright" horiz-adv-x="819" unicode=")"/><glyph d="M254 1110l127 152l-188 -13l12 84l184 -14l-84 151l76 43l59 -165l103 165l69 -43l-129 -151l189 14l-13 -84l-184 13l86 -152l-80 -43l-57 166l-105 -166z" glyph-name="asterisk" horiz-adv-x="686" unicode="*"/><glyph d="M768 541h-440l12 90h440l68 479h86l-68 -479h441l-13 -90h-440l-68 -482h-86z" glyph-name="plus" horiz-adv-x="1652" unicode="+"/><glyph d="M82 -2q-63 25 -53 96q6 41 38.5 71t75.5 30q41 0 64.5 -30t17.5 -71t-45 -103.5t-74 -105.5l-36 -41h-43z" glyph-name="comma" horiz-adv-x="407" unicode=","/><glyph d="M182 582h717l-14 -99h-717z" glyph-name="hyphen" horiz-adv-x="1099" unicode="-"/><glyph d="M76 -20q-41 0 -66.5 29.5t-19.5 70.5t39.5 70.5t74.5 29.5t67 -29.5t19.5 -70.5t-40 -70.5t-74.5 -29.5z" glyph-name="period" horiz-adv-x="344" unicode="."/><glyph d="M741 1536h131l-935 -2048h-134z" glyph-name="slash" horiz-adv-x="892" unicode="/"/><glyph d="M602 -20q-268 0 -386 220t-71 568q49 348 229.5 568t448.5 220q158 0 265.5 -60t158.5 -165.5t66.5 -250t-13.5 -312.5q-49 -360 -221 -574t-477 -214zM621 100q123 0 220 50.5t160.5 143.5t103.5 210t60 264q94 668 -356 668q-205 0 -346 -187.5t-182 -480.5 q-41 -299 41 -482.5t299 -185.5z" glyph-name="zero" horiz-adv-x="1396" unicode="0"/><glyph d="M485 1370l-348 -246l23 166l356 246h125l-215 -1536h-133z" glyph-name="one" horiz-adv-x="772" unicode="1"/><glyph d="M0 86q664 586 748 664q188 180 229 282q14 37 20 82q20 150 -58.5 235t-217.5 87q-141 4 -247.5 -84t-133.5 -238l-129 2q29 197 181.5 321t350.5 122q184 -4 295 -116t92 -302q-16 -162 -142 -303.5t-585 -542.5q-127 -111 -198 -174h839l-16 -121h-1038z" glyph-name="two" horiz-adv-x="1222" unicode="2"/><glyph d="M461 -20q-205 0 -328 131t-96 315l133 2q-18 -133 76 -229.5t233 -96.5q154 0 278 89.5t146 254.5q20 141 -62.5 240.5t-224.5 99.5h-122l14 111h117q113 0 201.5 79t105 191.5t-58 188.5t-214.5 76q-127 0 -220 -69t-120 -185l-126 2q25 127 108.5 216t181 124.5 t193.5 35.5q197 0 300 -107.5t81 -268.5q-14 -104 -82 -188.5t-166 -131.5q121 -51 184.5 -162.5t42.5 -251.5q-31 -215 -192.5 -340.5t-382.5 -125.5z" glyph-name="three" horiz-adv-x="1218" unicode="3"/><glyph d="M1032 324h-170l-45 -324h-133l45 324h-745l12 88l872 1124h164l-153 -1092h170zM745 444l134 942l-719 -942h585z" glyph-name="four" horiz-adv-x="1208" unicode="4"/><glyph d="M514 -20q-186 0 -303 110.5t-111 257.5h127q16 -109 93 -176.5t206 -67.5q166 0 295 114t151.5 280t-74.5 280.5t-261 114.5q-172 0 -320 -127l-110 57l192 709h766l-18 -121h-660l-143 -512q147 115 338 115q211 0 334 -147.5t92 -364.5q-31 -223 -201 -372.5 t-393 -149.5z" glyph-name="five" horiz-adv-x="1261" unicode="5"/><glyph d="M563 -16q-207 0 -336 141t-121 350q2 125 23 260q33 227 104.5 395t205.5 283t321 133q45 4 63 4q195 0 314.5 -111.5t111.5 -240.5h-139q0 72 -77 149.5t-222 77.5q-115 0 -208 -42t-152.5 -109.5t-102.5 -160.5t-63.5 -183t-28.5 -191q37 76 97.5 133.5t115.5 84 t117.5 43t90.5 18.5t46 2q227 0 348 -138.5t103 -351.5q-23 -225 -202.5 -385.5t-408.5 -160.5zM584 102q170 0 300 117t152 283q23 170 -74.5 285.5t-263.5 115.5q-170 0 -302 -116.5t-154 -280.5q-23 -172 76.5 -288t265.5 -116z" glyph-name="six" horiz-adv-x="1323" unicode="6"/><glyph d="M1032 1415h-854l17 121h1015l-12 -82l-1026 -1454h-156z" glyph-name="seven" horiz-adv-x="1118" unicode="7"/><glyph d="M801 854q119 -55 180 -165.5t41 -248.5q-29 -193 -185.5 -326.5t-359.5 -133.5q-199 0 -319.5 134t-91.5 326q20 139 111 250t224 164q-82 49 -120.5 135t-24.5 191q23 158 151 267t293 109q164 0 263.5 -109.5t76.5 -266.5q-14 -104 -78.5 -190.5t-160.5 -135.5z M686 1446q-115 0 -207 -80t-108.5 -194.5t53.5 -195.5t184 -81q113 0 205 81t108.5 195.5t-52 194.5t-183.5 80zM493.5 100q143.5 0 258 101.5t135.5 247.5q20 143 -66 242.5t-229 99.5t-257 -99.5t-134 -242.5q-20 -145 64.5 -247t228 -102z" glyph-name="eight" horiz-adv-x="1148" unicode="8"/><glyph d="M569 -12q-201 0 -322.5 109.5t-115.5 240.5l139 -2q0 -74 78 -148.5t234 -74.5q33 0 49 2q209 16 330.5 204.5t160.5 477.5q-41 -88 -111.5 -150.5t-143 -87t-121 -34t-80.5 -9.5q-238 0 -363 146.5t-94 365.5q31 215 208 369.5t396 154.5q209 0 338 -141t123 -352 q-2 -127 -23 -260q-51 -369 -219 -590t-463 -221zM690 635q168 0 297 116.5t152 282.5q23 168 -75.5 284t-264.5 116q-170 0 -301 -118t-154 -282q-25 -172 76.5 -285.5t269.5 -113.5z" glyph-name="nine" horiz-adv-x="1323" unicode="9"/><glyph d="M317 844q-41 0 -65.5 29.5t-20.5 70.5q6 41 40 70.5t75 29.5t66.5 -29.5t19.5 -70.5q-4 -41 -39 -70.5t-76 -29.5zM197 -20q-41 0 -67 29.5t-19.5 70.5t40 70.5t74.5 29.5t66.5 -29.5t19.5 -70.5t-39.5 -70.5t-74.5 -29.5z" glyph-name="colon" horiz-adv-x="583" unicode=":"/><glyph d="M319.5 844q-40.5 0 -65.5 29.5t-21 70.5q6 41 40 70.5t75 29.5t66.5 -29.5t19.5 -70.5q-4 -41 -39 -70.5t-75.5 -29.5zM168 -2q-63 25 -53 96q6 41 38.5 71t75.5 30q41 0 64.5 -30t17.5 -71t-45 -103.5t-73 -105.5l-37 -41h-43z" glyph-name="semicolon" horiz-adv-x="604" unicode=";"/><glyph d="M1399 1200l-1092 -514l946 -514l-16 -119l-1051 572l19 125l1210 567z" glyph-name="less" horiz-adv-x="1513" unicode="&lt;"/><glyph d="M147 782h1229l-12 -94h-1229zM94 399h1229l-12 -94h-1229z" glyph-name="equal" horiz-adv-x="1488" unicode="="/><glyph d="M1335 750l-18 -125l-1211 -572l17 119l1091 514l-946 514l17 117z" glyph-name="greater" horiz-adv-x="1513" unicode=">"/><glyph d="M477 520q12 86 60.5 159t110 124t122.5 98t107.5 106.5t54.5 125.5q18 129 -56.5 209.5t-209.5 80.5q-125 0 -222.5 -77.5t-124.5 -198.5h-120q31 172 167 283.5t316 111.5q186 0 291.5 -115.5t79.5 -293.5q-10 -78 -58.5 -149t-110 -125t-122 -103t-105.5 -105.5 t-53 -111.5l-22 -156h-123zM471 -20q-41 0 -66.5 29.5t-19.5 70.5t40 70.5t75 29.5t66.5 -29.5t19.5 -70.5t-40 -70.5t-75 -29.5z" glyph-name="question" horiz-adv-x="1118" unicode="?"/><glyph d="M594 -10q-262 0 -406.5 166t-109.5 424q37 256 242.5 435t459.5 179q248 0 386.5 -148.5t105.5 -381.5q-23 -164 -111 -267.5t-205 -103.5q-135 0 -153 108q-96 -117 -223 -116q-109 0 -165.5 71.5t-39.5 190.5q20 141 119.5 241.5t220.5 100.5q115 0 159 -80l17 68h113 l-93 -357q-37 -133 58 -133q74 0 128 74t72 201q27 199 -81.5 317.5t-321.5 118.5q-217 0 -382 -147.5t-196 -368.5q-33 -221 83 -358.5t335 -137.5zM608 379q76 0 140.5 70.5t78.5 168.5q12 82 -20.5 128.5t-99.5 46.5q-78 0 -140.5 -71t-77.5 -175q-10 -78 21.5 -123 t97.5 -45z" glyph-name="at" horiz-adv-x="1239" unicode="@"/><glyph d="M1100 401h-762l-213 -401h-152l832 1536h153l402 -1536h-152zM1077 526l-217 865l-457 -865h674z" glyph-name="A" horiz-adv-x="1517" unicode="A"/><glyph d="M864 809q137 -29 210 -141.5t52 -264.5q-25 -174 -160 -288.5t-309 -114.5h-677l215 1536h593q176 0 282 -113.5t81 -285.5q-20 -133 -97 -222.5t-190 -105.5zM1008 1120q18 121 -54.5 207t-193.5 86h-445l-79 -565h444q123 0 217.5 76.5t110.5 195.5zM657 125 q121 0 218.5 86t113.5 207q16 123 -55.5 218t-190.5 95h-524l-86 -606h524z" glyph-name="B" horiz-adv-x="1230" unicode="B"/><glyph d="M700 -20q-322 -4 -493.5 225t-124.5 563t282.5 561t557.5 227q152 0 271.5 -49t186 -123.5t99 -152.5t32.5 -150h-151q-6 55 -31.5 110.5t-76 111t-141.5 89t-208 33.5q-268 0 -459.5 -188t-230.5 -469t99.5 -468t406.5 -187q201 0 355.5 101t193.5 214h151 q-18 -63 -75.5 -137t-145.5 -144.5t-220.5 -117.5t-277.5 -49z" glyph-name="C" horiz-adv-x="1560" unicode="C"/><glyph d="M266 1536h449q164 0 294 -45t223 -136t131 -246t9 -357q-47 -344 -296 -548t-576 -204h-449zM514 125q276 0 477 163t242 464q47 342 -102.5 501.5t-434.5 159.5h-309l-182 -1288h309z" glyph-name="D" horiz-adv-x="1468" unicode="D"/><glyph d="M344 1413l-82 -582h705l-19 -124h-704l-82 -582h790l-16 -125h-930l215 1536h930l-16 -123h-791z" glyph-name="E" horiz-adv-x="1144" unicode="E"/><glyph d="M348 1413l-82 -582h705l-19 -124h-704l-98 -707h-140l215 1536h930l-16 -123h-791z" glyph-name="F" horiz-adv-x="1136" unicode="F"/><glyph d="M1432 772l-19 -119l-90 -653h-94l2 262q-104 -139 -236.5 -205.5t-335.5 -66.5q-217 0 -365.5 113.5t-204.5 286.5t-28 374q49 348 275.5 570t537.5 222q250 0 405 -125.5t161 -347.5h-131q-27 170 -153 256t-294 86q-264 0 -447.5 -183t-224.5 -478q-41 -287 100.5 -466 t383.5 -179q274 0 423.5 142t184.5 386h-438l18 125h570z" glyph-name="G" horiz-adv-x="1527" unicode="G"/><glyph d="M1442 1536l-215 -1536h-137l98 707h-879l-98 -707h-139l215 1536h139l-98 -705h878l99 705h137z" glyph-name="H" horiz-adv-x="1482" unicode="H"/><glyph d="M287 1536h139l-215 -1536h-139z" glyph-name="I" horiz-adv-x="487" unicode="I"/><glyph d="M145 -20q-88 0 -151 18l20 143q63 -23 152 -22q80 0 146.5 57t76.5 139l172 1221h137l-172 -1221q-20 -139 -131 -237t-250 -98z" glyph-name="J" horiz-adv-x="745" unicode="J"/><glyph d="M936 0l-666 717l-100 -717h-139l215 1536h139l-104 -743l796 741h180l-839 -774l694 -760h-176z" glyph-name="K" horiz-adv-x="1257" unicode="K"/><glyph d="M225 1536h140l-199 -1411h579l-16 -125h-719z" glyph-name="L" horiz-adv-x="919" unicode="L"/><glyph d="M1747 1536l-215 -1536h-137l186 1329l-756 -1329h-90l-379 1329l-186 -1329h-139l215 1536h186l371 -1364l760 1364h184z" glyph-name="M" horiz-adv-x="1787" unicode="M"/><glyph d="M1444 1536l-215 -1536h-125l-793 1303l-182 -1303h-139l215 1536h125l794 -1303l183 1303h137z" glyph-name="N" horiz-adv-x="1464" unicode="N"/><glyph d="M700 -20q-324 0 -505 228t-133.5 560t292 560t568.5 228q322 0 504 -229t135 -559q-47 -332 -293 -560t-568 -228zM719 113q270 0 470 189.5t238 465.5q39 279 -107 468t-416.5 189t-471.5 -189t-239 -468q-39 -276 108.5 -465.5t417.5 -189.5z" glyph-name="O" horiz-adv-x="1630" unicode="O"/><glyph d="M842 1536q174 0 279.5 -133t80.5 -309q-27 -178 -169 -310.5t-316 -132.5h-477l-90 -651h-140l215 1536h617zM725 770q125 0 227.5 94t122.5 228q16 129 -59.5 225t-198.5 96h-469l-92 -643h469z" glyph-name="P" horiz-adv-x="1241" unicode="P"/><glyph d="M1532 119l-16 -119h-31q-133 0 -219 104l-49 60q-233 -184 -517 -184q-324 0 -505 228t-133.5 560t292 560t568.5 228q322 0 504 -229t135 -559q-41 -295 -244 -512l57 -72q51 -66 129 -65h29zM719 113q236 0 420 145l-228 283l101 88l227 -279q156 180 188 418 q39 279 -107 468t-416.5 189t-471.5 -189t-239 -468q-39 -276 108.5 -465.5t417.5 -189.5z" glyph-name="Q" horiz-adv-x="1660" unicode="Q"/><glyph d="M1083 0h-155l-307 659h-400l-92 -659h-139l215 1536h616q174 0 279.5 -133t81.5 -311q-23 -158 -145 -282t-275 -144zM711 776q123 0 224 96.5t120 223.5q16 125 -58.5 221t-195.5 96h-473l-90 -637h473z" glyph-name="R" horiz-adv-x="1247" unicode="R"/><glyph d="M494 -20q-227 0 -361.5 129t-124.5 307h148q2 -125 91 -214t267 -89t302 78.5t147 224.5q8 57 -8.5 103t-46 77t-83 58.5t-98.5 45t-111 39.5q-29 10 -43 15q-88 31 -133 49t-114.5 56t-102.5 75t-54.5 96.5t-10.5 130.5q18 127 107 220.5t206 134t244 40.5 q242 0 357.5 -108.5t119.5 -286.5h-125q0 113 -95 194t-274 81q-88 0 -171 -27t-148.5 -88t-77.5 -150q-8 -57 13.5 -102t76.5 -82t98 -57.5t125 -52.5q27 -10 41 -17q25 -10 74 -29q66 -25 99.5 -40t91 -43.5t86 -56t59.5 -67.5t40 -90.5t1 -111.5q-20 -137 -113.5 -239.5 t-223.5 -152.5t-275 -50z" glyph-name="S" horiz-adv-x="1183" unicode="S"/><glyph d="M1194 1413h-471l-199 -1411h-137l199 1411h-471l16 125h1079z" glyph-name="T" horiz-adv-x="1155" unicode="T"/><glyph d="M559.5 -20q-237.5 0 -383 153.5t-115.5 372.5l146 1030h139l-141 -1010q-25 -174 84.5 -298t288.5 -124q182 0 333.5 124t175.5 298l142 1010h137l-145 -1030q-31 -217 -227.5 -371.5t-434 -154.5z" glyph-name="U" horiz-adv-x="1392" unicode="U"/><glyph d="M1505 1536l-831 -1536h-154l-403 1536h157l344 -1374l732 1374h155z" glyph-name="V" horiz-adv-x="1439" unicode="V"/><glyph d="M2122 1536l-701 -1536h-170l-153 1264l-512 -1264h-170l-273 1536h150l223 -1370l555 1370h143l152 -1372l606 1372h150z" glyph-name="W" horiz-adv-x="2039" unicode="W"/><glyph d="M989 0l-346 662l-528 -662h-160l629 776l-404 760h158l338 -645l520 645h158l-619 -760l416 -776h-162z" glyph-name="X" horiz-adv-x="1290" unicode="X"/><glyph d="M731 729l-102 -729h-137l100 725l-422 811h156l352 -688l547 688h153z" glyph-name="Y" horiz-adv-x="1302" unicode="Y"/><glyph d="M1180 125l-17 -125h-1159l8 70l1123 1343h-910l17 123h1101l-10 -70l-1120 -1341h967z" glyph-name="Z" horiz-adv-x="1353" unicode="Z"/><glyph d="M311 1673h383l-14 -106h-264l-297 -2110h264l-14 -106h-383z" glyph-name="bracketleft" horiz-adv-x="552" unicode="["/><glyph d="M223 1536l361 -2048h-133l-359 2048h131z" glyph-name="backslash" horiz-adv-x="1179" unicode="\"/><glyph d="M0 -543h264l297 2110h-264l14 106h383l-325 -2322h-383z" glyph-name="bracketright" horiz-adv-x="552" unicode="]"/><glyph d="M1178 406l-371 1017l-655 -1017h-119l729 1130h125l409 -1130h-118z" glyph-name="asciicircum" horiz-adv-x="1402" unicode="^"/><glyph d="M100 0h1024l-14 -98h-1024z" glyph-name="underscore" horiz-adv-x="1406" unicode="_"/><glyph d="M193 1536h141l145 -307h-114z" glyph-name="grave" horiz-adv-x="108" unicode="`"/><glyph d="M342 -8q-162 0 -257 92t-75 233q49 334 516 365l297 18l6 43q18 135 -53 206t-211 71q-123 0 -211 -69.5t-114 -176.5h-140q37 152 164 260.5t324 108.5q201 0 300 -109.5t73 -296.5l-62 -461q-14 -90 -1 -125.5t60 -33.5l-16 -117q-29 0 -57 6q-137 29 -127 170 q-57 -78 -173 -131t-243 -53zM367 117q145 0 272 88t143 203l23 170l-295 -21q-338 -23 -369 -242q-12 -90 58 -144t168 -54z" glyph-name="a" horiz-adv-x="1091" unicode="a"/><glyph d="M731 1137q229 0 350 -166t86 -414q-35 -246 -200.5 -409.5t-395.5 -163.5q-266 0 -378 217l-50 -201h-114l215 1536h143l-86 -614q174 215 430 215zM569 109q176 0 303 129t154 319q27 193 -62.5 321t-267.5 128q-145 0 -263 -96.5t-169 -247.5l-28 -209q8 -152 98 -248 t235 -96z" glyph-name="b" horiz-adv-x="1224" unicode="b"/><glyph d="M487 -12q-231 0 -352 164.5t-86 414.5q35 248 202 409t398 161q190 0 311 -102.5t119 -260.5h-135q-4 104 -90 172t-215 68q-178 0 -302 -121t-151 -326q-31 -207 60.5 -330.5t269.5 -123.5q123 0 221.5 68.5t147.5 176.5h129q-57 -160 -200 -265t-327 -105z" glyph-name="c" horiz-adv-x="1150" unicode="c"/><glyph d="M1239 1536l-215 -1536h-123l10 201q-166 -211 -436 -211q-229 0 -349 160.5t-85 406.5q35 248 203 414t397 166q254 0 371 -215l86 614h141zM512 109q145 0 263 96t171 248l29 209q-10 152 -100.5 248t-235.5 96q-174 0 -302 -129t-154.5 -319.5t64.5 -319.5t265 -129z " glyph-name="d" horiz-adv-x="1236" unicode="d"/><glyph d="M1063 569q-2 -16 -10 -57h-873q-25 -186 72.5 -292.5t234.5 -108.5q141 -2 235.5 58t133.5 157h129q-14 -49 -48 -102.5t-92.5 -109t-152.5 -90t-207 -34.5q-233 2 -350 165.5t-84 405.5q35 248 196 410t394 162q229 0 343 -157t79 -407zM627 1008q-162 0 -273.5 -103.5 t-154.5 -275.5h741q8 172 -72.5 275.5t-240.5 103.5z" glyph-name="e" horiz-adv-x="1142" unicode="e"/><glyph d="M166 0l141 1008h-145l16 116h146l14 113q18 121 87 203t177 98q131 18 211 -37l-20 -117q-27 12 -60 22.5t-85 9.5t-87 -25q-31 -23 -48 -59t-21.5 -54t-10.5 -64l-12 -90h240l-17 -116h-239l-142 -1008h-145z" glyph-name="f" horiz-adv-x="751" unicode="f"/><glyph d="M371 -492q-213 0 -342 94.5t-107 252.5q23 164 191 243q-2 2 -32 28t-41 39t-23.5 44t-8.5 63q8 61 49 103.5t115 89.5q-90 100 -68 276q25 166 156 277.5t311 111.5q131 0 234 -63q31 57 99.5 93t139.5 36l-18 -131q-43 0 -81 -22.5t-54 -59.5q68 -111 47 -242 q-23 -174 -153 -281.5t-322 -107.5q-152 0 -225 54q-41 -16 -64.5 -50t-19.5 -71q16 -104 178 -107l225 -2q344 -4 352 -250q4 -168 -140 -293t-398 -125zM801 741q16 111 -54.5 187t-193.5 76q-119 0 -209 -76t-106.5 -186.5t53 -187.5t188.5 -77q123 0 214.5 75.5 t107.5 188.5zM772 -76q-4 74 -69.5 104.5t-204.5 30.5h-248q-78 -18 -125 -74.5t-57 -127.5q-14 -100 79 -162t228 -62q195 0 300 82t97 209z" glyph-name="g" horiz-adv-x="1056" unicode="g"/><glyph d="M735 1139q184 0 281.5 -113t70.5 -297l-102 -729h-147l100 715q18 133 -52.5 213t-205.5 80q-141 0 -259 -85t-136 -214l-99 -709h-147l215 1534h147l-82 -580q72 84 185.5 134.5t230.5 50.5z" glyph-name="h" horiz-adv-x="1173" unicode="h"/><glyph d="M307 1335q-41 0 -66.5 30t-19.5 73q6 41 40 70.5t75 29.5t66.5 -29.5t19.5 -70.5q-6 -43 -40 -73t-75 -30zM207 1126h143l-157 -1126h-144z" glyph-name="i" horiz-adv-x="425" unicode="i"/><glyph d="M365 1339q-41 0 -66 30t-20 71q6 41 39.5 69.5t72.5 28.5t64.5 -29.5t19.5 -68.5q-4 -41 -37.5 -71t-72.5 -30zM-168 -506l18 129h46q92 0 128.5 45t49.5 127l186 1331h137l-188 -1351q-37 -281 -332 -281h-45z" glyph-name="j" horiz-adv-x="493" unicode="j"/><glyph d="M33 0l215 1536h147l-129 -922l514 512h187l-561 -536l479 -590h-185l-444 549l-76 -549h-147z" glyph-name="k" horiz-adv-x="946" unicode="k"/><glyph d="M102 0l217 1536h138l-215 -1536h-140z" glyph-name="l" horiz-adv-x="528" unicode="l"/><glyph d="M1446 1135q174 0 263 -105.5t65 -286.5l-105 -743h-145l102 731q16 125 -45 201t-186 76q-131 0 -238.5 -81t-126.5 -206l-100 -721h-144l103 731q16 125 -46.5 201t-187.5 76q-131 0 -237.5 -81t-124.5 -206l-100 -721h-146l158 1126h133l-21 -172q68 82 174.5 131.5 t213.5 49.5q225 0 307 -232q70 102 190.5 167t243.5 65z" glyph-name="m" horiz-adv-x="1884" unicode="m"/><glyph d="M723 1139q180 0 274.5 -113t67.5 -299l-100 -727h-144l101 715q18 133 -51.5 213t-200.5 80q-139 0 -255 -85t-134 -214l-99 -709h-143l158 1126h120l-6 -178q70 86 182.5 138.5t229.5 52.5z" glyph-name="n" horiz-adv-x="1181" unicode="n"/><glyph d="M483 -14q-236 0 -363.5 166.5t-93 412.5t209 413t409.5 167q238 0 365 -167t92 -413t-208 -412.5t-411 -166.5zM502 117q176 0 302 129t152 319q29 193 -61 321t-268 128q-176 0 -302 -128t-155 -321q-27 -190 64.5 -319t267.5 -129z" glyph-name="o" horiz-adv-x="1157" unicode="o"/><glyph d="M723 1137q229 0 349 -161t85 -406.5t-204 -410.5t-398 -165q-254 0 -367 211l-102 -717h-143l231 1638h127l-10 -194q164 205 432 205zM559 121q176 0 303 129t154 319q27 193 -63.5 321t-268.5 128q-145 0 -263 -96.5t-167 -247.5l-31 -209q10 -152 100.5 -248 t235.5 -96z" glyph-name="p" horiz-adv-x="1204" unicode="p"/><glyph d="M1151 1126l-231 -1638h-142l103 717q-174 -211 -437 -211q-229 0 -348 165t-84 410.5t200 406.5t394 161q266 0 377 -205l37 194h131zM483 121q145 0 263 96t169 248l31 209q-10 152 -101 248t-237 96q-174 0 -301 -129t-153.5 -319.5t64.5 -319.5t265 -129z" glyph-name="q" horiz-adv-x="1171" unicode="q"/><glyph d="M758 1137l-21 -123q-168 16 -298 -82t-156 -281l-90 -651h-148l158 1126h127l-11 -223q39 70 82 117t137.5 85t219.5 32z" glyph-name="r" horiz-adv-x="741" unicode="r"/><glyph d="M387 -18q-203 0 -296 105.5t-83 231.5h129q0 -82 76 -152.5t190.5 -70.5t201.5 62.5t100 158.5q14 98 -58 146.5t-215 73.5q-100 16 -166.5 42.5t-113 90t-31.5 159.5q18 143 144 227.5t280 84.5q362 0 356 -305h-123q-4 98 -76.5 141t-148.5 45q-104 4 -187 -41 t-96 -133q-14 -92 53.5 -133t198.5 -62q72 -12 129.5 -31.5t111.5 -55.5t78.5 -96t12.5 -142q-20 -145 -154.5 -245.5t-312.5 -100.5z" glyph-name="s" horiz-adv-x="970" unicode="s"/><glyph d="M414 -2q-295 0 -254 281l104 737h-172l17 114h172l57 406h143l-57 -406h252l-17 -116l-258 2l-100 -717q-4 -47 -4 -85t32.5 -62.5t102.5 -24.5h119l-19 -129h-118z" glyph-name="t" horiz-adv-x="702" unicode="t"/><glyph d="M1122 1126l-157 -1126h-127l8 180q-72 -86 -185.5 -139t-226.5 -53q-184 0 -284.5 117.5t-75.5 300.5l102 720h148l-99 -704q-20 -135 51.5 -219t206.5 -84q139 0 258 86t138 217l98 704h145z" glyph-name="u" horiz-adv-x="1163" unicode="u"/><glyph d="M1174 1116l-605 -1116h-143l-291 1116h158l231 -940l494 940h156z" glyph-name="v" horiz-adv-x="1144" unicode="v"/><glyph d="M1653 1116l-492 -1116h-164l-125 942l-383 -942h-161l-183 1116h162l135 -938l381 938h156l115 -944l399 944h160z" glyph-name="w" horiz-adv-x="1652" unicode="w"/><glyph d="M627 559l329 -559h-178l-256 453l-381 -453h-180l485 559l-327 567h178l254 -460l385 460h178z" glyph-name="x" horiz-adv-x="1122" unicode="x"/><glyph d="M1135 1126l-897 -1638h-138l318 573h-43l-295 1065h147l260 -936l498 936h150z" glyph-name="y" horiz-adv-x="1118" unicode="y"/><glyph d="M2 96l799 905h-654l19 125h854l-12 -90l-801 -911h694l-16 -125h-895z" glyph-name="z" horiz-adv-x="1038" unicode="z"/><glyph d="M279 -635q-84 0 -130.5 76t-29.5 186l67 486q25 137 5.5 218t-109.5 130l14 100q106 49 144.5 124t58.5 222l68 479q16 111 82.5 187t150.5 76h80l-14 -101q-94 0 -136.5 -39t-56.5 -137l-70 -495q-18 -129 -59 -216.5t-139 -150.5q80 -61 99.5 -161.5t-5.5 -205.5 l-70 -501q-12 -88 20 -129t124 -41l-15 -107h-79z" glyph-name="braceleft" horiz-adv-x="653" unicode="{"/><glyph d="M371 1536h92l-258 -1843h-92z" glyph-name="bar" horiz-adv-x="587" unicode="|"/><glyph d="M-55 -528q92 0 136 41t56 129l70 501q20 133 61 219.5t142 147.5q-82 63 -101.5 162.5t2.5 204.5l70 495q14 98 -17.5 137t-125.5 39l14 105h82q84 0 130 -75t30 -185l-68 -486q-25 -129 -6.5 -213t110.5 -133l-14 -100q-104 -49 -142 -121t-61 -227l-67 -486 q-16 -111 -83 -186.5t-151 -75.5h-82z" glyph-name="braceright" horiz-adv-x="653" unicode="}"/><glyph d="M758 377q-59 0 -108.5 27.5t-71 52t-56.5 71.5q-41 57 -76.5 85t-89.5 28q-86 0 -150.5 -68.5t-74.5 -171.5h-82q14 141 105.5 230.5t212.5 89.5q78 0 130 -39t101 -113q72 -113 166 -112q86 0 150.5 66.5t72.5 168.5h82q-12 -135 -102 -225t-209 -90z" glyph-name="asciitilde" horiz-adv-x="1150" unicode="~"/><glyph d="M315 823q-41 0 -66.5 30t-19 71t40 70.5t74.5 29.5t66.5 -29.5t19.5 -70.5t-40 -71t-75 -30zM229 602h109l-145 -1114h-134z" glyph-name="exclamdown" horiz-adv-x="583" unicode="¡"/><glyph d="M721 1128q-172 0 -308.5 -119.5t-160.5 -291.5q-25 -170 78.5 -291t275.5 -121q176 0 307 107l-20 -138q-133 -84 -285 -90l-26 -186h-88l28 190q-201 25 -317.5 175.5t-87.5 353.5q27 203 186.5 353.5t366.5 174.5l26 193h88l-26 -189q147 -6 260 -90l-19 -137 q-102 106 -278 106z" glyph-name="cent" horiz-adv-x="1097" unicode="¢"/><glyph d="M96 774h140q-23 154 -3 289q27 193 174.5 315.5t350.5 122.5q201 0 306 -110.5t89 -305.5h-152q2 145 -61 212t-203 67q-135 0 -231 -84t-115 -217q-18 -127 0 -289h475l-18 -125h-440q12 -150 -5 -260q-10 -80 -49 -149q61 -14 192.5 -76t196.5 -62q186 0 222 213h139 q-27 -162 -128.5 -257t-242.5 -95q-104 0 -255.5 75t-211.5 75q-61 0 -104 -36t-56 -97h-139q18 96 84 166.5t154 93.5q45 70 55 151q16 104 -6 258h-176z" glyph-name="sterling" horiz-adv-x="1228" unicode="£"/><glyph d="M117 377l116 100q-76 115 -54 266.5t132 266.5l-88 100l86 80l88 -105q131 94 280.5 94.5t252.5 -94.5l117 103l65 -76l-115 -100q78 -117 56.5 -267.5t-131.5 -267.5l86 -100l-84 -80l-90 104q-127 -94 -279 -94t-256 94l-117 -104zM348 512q84 -98 220.5 -98t248.5 98 q109 96 128.5 232.5t-62.5 232.5q-84 96 -221.5 95t-247.5 -97q-109 -96 -128.5 -232.5t62.5 -230.5z" glyph-name="currency" horiz-adv-x="1208" unicode="¤"/><glyph d="M745 707h435l-13 -95h-434l-31 -213h435l-13 -90h-434l-43 -309h-121l43 309h-428l13 90h428l30 213h-428l13 95h428l4 30l-416 799h131l358 -700l558 700h131l-641 -799z" glyph-name="yen" horiz-adv-x="1357" unicode="¥"/><glyph d="M371 1536h92l-105 -737h-92zM215 430h92l-102 -737h-92z" glyph-name="brokenbar" horiz-adv-x="587" unicode="¦"/><glyph d="M1010 496q74 -74 57 -179q-18 -141 -173 -227t-353 -86q-172 0 -298 65.5t-165 163.5l96 52q29 -80 131.5 -132.5t251.5 -52.5q156 0 273.5 57.5t130.5 159.5q8 59 -30 104.5t-104.5 73t-148.5 52t-163 53.5t-147.5 64.5t-101.5 95t-24 139.5q14 109 110 182 q-72 72 -57 179q20 139 155.5 217.5t307.5 78.5q119 0 220 -38.5t159 -102.5l-84 -59q-94 109 -301 108q-133 0 -236.5 -53t-116.5 -147q-10 -82 65 -136.5t187.5 -87t225 -70.5t184.5 -111t57 -181q-16 -104 -108 -182zM350 903q-10 -74 50.5 -127t144.5 -79.5t203.5 -66.5 t185.5 -77q70 55 78 127q14 92 -79 147.5t-263 105.5t-242 91q-70 -49 -78 -121z" glyph-name="section" horiz-adv-x="1249" unicode="§"/><glyph d="M313 1219q-41 0 -66.5 29.5t-19.5 70.5t40 70.5t75 29.5t66.5 -29.5t19.5 -70.5t-40 -70.5t-75 -29.5zM672 1219q-41 0 -66.5 29.5t-19.5 70.5t39.5 70.5t74.5 29.5t66 -29.5t18.5 -70.5t-39 -70.5t-73.5 -29.5z" glyph-name="dieresis" horiz-adv-x="108" unicode="¨"/><glyph d="M800.5 -20q-325.5 0 -524 231t-153.5 557q47 326 310 557t589 231t524.5 -231t153.5 -557t-309.5 -557t-590 -231zM813 63q295 0 529.5 206t275.5 499t-135 499t-471 206q-293 0 -528.5 -206t-276.5 -499t136 -499t470 -206zM842 344q-168 -2 -263.5 120t-70.5 306 q27 182 156 303t299 121q88 0 156.5 -32t103 -79t50 -93t9.5 -81h-117q-4 82 -63.5 130t-155.5 48q-125 0 -217 -89t-113 -228q-18 -139 49.5 -227t192.5 -88q90 0 172 50t92 111h117q0 -74 -116.5 -172t-280.5 -100z" glyph-name="copyright" horiz-adv-x="1794" unicode="©"/><glyph d="M842 1536l-86 -614h-78l20 143q-109 -156 -286 -156q-129 0 -208 93.5t-61 226.5q18 131 124 225t235 94q84 0 147.5 -43t93.5 -114l21 145h78zM436 979q102 0 186.5 72.5t98.5 177.5q14 102 -49.5 175t-165.5 73q-104 0 -187 -73t-98 -175q-14 -104 48.5 -177t166.5 -73 z" glyph-name="ordfeminine" horiz-adv-x="829" unicode="ª"/><glyph d="M223 571l365 377h119l-365 -377l258 -376h-119zM575 571l365 377h121l-365 -377l258 -376h-120z" glyph-name="guillemotleft" horiz-adv-x="1253" unicode="«"/><glyph d="M1321 776h-1112l12 94h1206l-86 -618h-94z" glyph-name="logicalnot" horiz-adv-x="1589" unicode="¬"/><glyph d="M182 582h717l-14 -99h-717z" glyph-name="uni00AD" horiz-adv-x="1208" unicode="­"/><glyph d="M1022 1556q326 0 524.5 -231t153.5 -557t-309.5 -557t-590 -231t-524 231t-153.5 557q47 326 310 557t589 231zM813 63q295 0 529.5 206t275.5 499t-135 499t-471 206q-293 0 -528.5 -206t-276.5 -499t136 -499t470 -206zM1178 354h-129l-156 340h-131l-47 -340h-113 l117 830h295q96 0 156.5 -74t46.5 -174q-12 -82 -69.5 -146.5t-135.5 -87.5zM956 795q53 0 99.5 43t54.5 100t-25.5 100t-87.5 43h-180l-41 -286h180z" glyph-name="registered" horiz-adv-x="1794" unicode="®"/><glyph d="M164 1337h635l-13 -94h-634z" glyph-name="macron" horiz-adv-x="137" unicode="¯"/><glyph d="M557 1008q-113 0 -182.5 80.5t-52.5 193.5q16 115 107 194.5t203.5 79.5t182.5 -80.5t55 -193.5q-16 -113 -108 -193.5t-205 -80.5zM567 1085q82 0 147.5 57.5t78.5 139.5q10 82 -39 139.5t-131 57.5q-84 0 -148.5 -57.5t-75.5 -139.5q-12 -82 37 -139.5t131 -57.5z" glyph-name="degree" horiz-adv-x="1013" unicode="°"/><glyph d="M1544 860l-14 -94h-656l-51 -369h-94l51 369h-655l14 94h656l51 369h94l-51 -369h655zM31 88h1405l-13 -88h-1405z" glyph-name="plusminus" horiz-adv-x="1626" unicode="±"/><glyph d="M106 829q369 330 418 383q59 63 68 121q10 72 -28 113t-103 43q-70 0 -120 -42t-62 -114h-74q14 100 92 163t176 60q94 0 149.5 -56t45.5 -150q-10 -84 -73 -154t-300 -281q-49 -43 -76 -67h408l-11 -70h-518z" glyph-name="uni00B2" horiz-adv-x="702" unicode="²"/><glyph d="M467 799q-94 -2 -151.5 59.5t-45.5 147.5l64 2q-8 -61 34 -105.5t107 -46.5q74 -2 130.5 40t68.5 120q10 66 -29 113t-104 47h-58l9 51h53q53 0 94 36.5t47 88.5q8 53 -25.5 88t-99.5 35q-59 0 -101 -31t-57 -86h-59q16 86 85 132t140 44q90 -2 137.5 -51t38.5 -125 q-12 -100 -114 -150q55 -23 83.5 -75t20.5 -117q-10 -100 -86 -157.5t-182 -59.5z" glyph-name="uni00B3" horiz-adv-x="753" unicode="³"/><glyph d="M381 1536h141l-258 -307h-114z" glyph-name="acute" horiz-adv-x="108" unicode="´"/><glyph d="M1092 1024l-144 -1024h-135l23 164q-68 -86 -163 -135t-198 -49q-174 0 -276 129l-88 -621h-105l217 1536h133l-88 -627q-16 -123 57.5 -210t196.5 -87q127 0 228.5 87t117.5 210l88 627h136z" glyph-name="uni00B5" horiz-adv-x="1208" unicode="µ"/><glyph d="M657 727h-71q-170 0 -280.5 120t-88.5 286q25 166 169 284.5t314 118.5h152l-258 -1843h-80zM1044 1536h80l-258 -1843h-80z" glyph-name="paragraph" horiz-adv-x="1255" unicode="¶"/><glyph d="M274.5 653q-34.5 0 -55 24.5t-16.5 59.5q4 33 32.5 58.5t63.5 25.5q33 0 54.5 -24.5t17.5 -59.5t-33 -59.5t-63.5 -24.5z" glyph-name="periodcentered" horiz-adv-x="552" unicode="·"/><glyph d="M135 -532q-66 0 -128 34.5t-89 85.5l72 33q23 -35 66.5 -57.5t88.5 -22.5q55 0 97.5 38t50.5 93q10 78 -49.5 109t-155.5 -2l-55 45l110 176h76l-86 -143q113 20 181.5 -33t54.5 -152q-12 -86 -80 -145t-154 -59z" glyph-name="cedilla" horiz-adv-x="108" unicode="¸"/><glyph d="M303 1468h-119l11 68h196l-108 -768h-78z" glyph-name="uni00B9" horiz-adv-x="522" unicode="¹"/><glyph d="M426 909q-135 0 -218 93.5t-65 226.5q18 131 128 225t245 94q137 0 219 -93t63.5 -226t-127 -226.5t-245.5 -93.5zM436 979q102 0 186.5 72.5t98.5 177.5q14 102 -49.5 175t-165.5 73q-104 0 -187 -73t-98 -175q-14 -104 48.5 -177t166.5 -73z" glyph-name="ordmasculine" horiz-adv-x="782" unicode="º"/><glyph d="M532 571l-258 377h119l258 -377l-364 -376h-119zM885 571l-258 377h121l258 -377l-365 -376h-121z" glyph-name="guillemotright" horiz-adv-x="1253" unicode="»"/><glyph d="M633 1051q41 0 66.5 -30t19.5 -71t-40 -70.5t-75 -29.5t-66.5 29.5t-19.5 70.5t40 71t75 30zM627 510q-12 -86 -60.5 -158.5t-110 -124t-123 -98.5t-107.5 -106.5t-54 -124.5q-18 -129 56.5 -210t209.5 -81q125 0 221.5 77.5t124.5 198.5h121q-31 -172 -168 -283.5 t-317 -111.5q-186 0 -290.5 115.5t-78.5 294.5q10 78 58.5 148.5t109 124.5t121.5 103.5t106.5 105.5t53.5 112l22 155h123z" glyph-name="questiondown" horiz-adv-x="1114" unicode="¿"/><glyph d="M829 1741l-172 307h142l145 -307h-115zM1100 401h-762l-213 -401h-152l832 1536h153l402 -1536h-152zM1077 526l-217 865l-457 -865h674z" glyph-name="Agrave" horiz-adv-x="1517" unicode="À"/><glyph d="M954 1741h-114l231 307h141zM1100 401h-762l-213 -401h-152l832 1536h153l402 -1536h-152zM1077 526l-217 865l-457 -865h674z" glyph-name="Aacute" horiz-adv-x="1517" unicode="Á"/><glyph d="M723 1698h-115l254 350h146l155 -350h-114l-123 280zM1100 401h-762l-213 -401h-152l832 1536h153l402 -1536h-152zM1077 526l-217 865l-457 -865h674z" glyph-name="Acircumflex" horiz-adv-x="1517" unicode="Â"/><glyph d="M559 1747q4 106 67.5 176t153.5 70q117 0 170 -109q33 -68 99 -67q51 0 85.5 44t36.5 111h89q-2 -106 -66 -174.5t-156 -68.5q-119 0 -168 108q-33 68 -98 68q-53 0 -87 -44t-36 -114h-90zM1100 401h-762l-213 -401h-152l832 1536h153l402 -1536h-152zM1077 526l-217 865 l-457 -865h674z" glyph-name="Atilde" horiz-adv-x="1517" unicode="Ã"/><glyph d="M713 1731q-41 0 -66.5 29.5t-19.5 70.5t39.5 70.5t74.5 29.5t67 -29.5t19.5 -70.5t-40 -70.5t-74.5 -29.5zM1071 1731q-41 0 -66.5 29.5t-19.5 70.5t40 70.5t75 29.5t65.5 -29.5t18.5 -70.5t-39 -70.5t-74 -29.5zM1100 401h-762l-213 -401h-152l832 1536h153l402 -1536 h-152zM1077 526l-217 865l-457 -865h674z" glyph-name="Adieresis" horiz-adv-x="1517" unicode="Ä"/><glyph d="M967 1503l393 -1503h-152l-108 401h-762l-213 -401h-152l811 1497h-20q-43 25 -64.5 71t-13.5 101q12 82 78.5 139.5t148.5 57.5q80 0 129.5 -57.5t36.5 -139.5q-14 -103 -112 -166zM756 1669q-8 -55 24.5 -92t86 -37t95.5 37t50 92q8 53 -24 91t-85 38t-96 -38t-51 -91z M403 526h674l-217 865z" glyph-name="Aring" horiz-adv-x="1517" unicode="Å"/><glyph d="M805 1536h1012l-17 -121h-690l-84 -592h604l-14 -110h-604l-84 -592h690l-16 -121h-826l47 344h-516l-178 -344h-156zM840 455l135 960h-88l-516 -960h469z" glyph-name="AE" horiz-adv-x="1759" unicode="Æ"/><glyph d="M719 113q201 0 355.5 101t193.5 214h151q-16 -61 -70.5 -133t-138.5 -139.5t-208.5 -116.5t-262.5 -57l54 -2l-74 -123q113 20 181.5 -33t53.5 -152q-12 -86 -79.5 -145t-153.5 -59q-66 0 -128.5 34.5t-88.5 85.5l71 33q23 -35 67 -57.5t89 -22.5q55 0 97 38t51 93 q10 78 -49.5 109t-155.5 -2l-56 45l95 156h-13q-322 -4 -493.5 225t-124.5 563t282.5 561t557.5 227q152 0 271.5 -49t186 -123.5t99 -152.5t32.5 -150h-151q-6 55 -31.5 110.5t-76 111t-141.5 89t-208 33.5q-268 0 -459.5 -188t-230.5 -469t99.5 -468t406.5 -187z" glyph-name="Ccedilla" horiz-adv-x="1560" unicode="Ç"/><glyph d="M666 1741l-172 307h141l145 -307h-114zM344 1413l-82 -582h705l-19 -124h-704l-82 -582h790l-16 -125h-930l215 1536h930l-16 -123h-791z" glyph-name="Egrave" horiz-adv-x="1144" unicode="È"/><glyph d="M791 1741h-115l231 307h142zM344 1413l-82 -582h705l-19 -124h-704l-82 -582h790l-16 -125h-930l215 1536h930l-16 -123h-791z" glyph-name="Eacute" horiz-adv-x="1144" unicode="É"/><glyph d="M559 1698h-115l254 350h146l155 -350h-114l-123 280zM344 1413l-82 -582h705l-19 -124h-704l-82 -582h790l-16 -125h-930l215 1536h930l-16 -123h-791z" glyph-name="Ecircumflex" horiz-adv-x="1144" unicode="Ê"/><glyph d="M549 1731q-41 0 -66.5 29.5t-19.5 70.5t40 70.5t74.5 29.5t66.5 -29.5t19.5 -70.5t-40 -70.5t-74.5 -29.5zM907 1731q-41 0 -66.5 29.5t-19.5 70.5t40 70.5t75 29.5t65.5 -29.5t18.5 -70.5t-39 -70.5t-74 -29.5zM344 1413l-82 -582h705l-19 -124h-704l-82 -582h790 l-16 -125h-930l215 1536h930l-16 -123h-791z" glyph-name="Edieresis" horiz-adv-x="1144" unicode="Ë"/><glyph d="M358 2048h144l145 -307h-115zM500 1536h139l-215 -1536h-139z" glyph-name="Igrave" horiz-adv-x="700" unicode="Ì"/><glyph d="M563 2048h142l-259 -307h-114zM287 1536h139l-215 -1536h-139z" glyph-name="Iacute" horiz-adv-x="694" unicode="Í"/><glyph d="M565 2048h146l155 -350h-114l-123 280l-203 -280h-117zM498 1536h139l-215 -1536h-139z" glyph-name="Icircumflex" horiz-adv-x="905" unicode="Î"/><glyph d="M416 1731q-41 0 -67.5 29.5t-20.5 70.5t40.5 70.5t75.5 29.5t67 -29.5t19.5 -70.5t-40 -70.5t-74.5 -29.5zM774 1731q-41 0 -66.5 29.5t-19.5 70.5t40 70.5t75 29.5t65.5 -29.5t18.5 -70.5t-39 -70.5t-74 -29.5zM500 1536h139l-215 -1536h-139z" glyph-name="Idieresis" horiz-adv-x="907" unicode="Ï"/><glyph d="M834 1536q338 0 525 -194.5t134 -573.5t-295 -573.5t-580 -194.5h-407l100 719h-159l14 100h160l100 717h408zM633 125q281 0 478.5 163t242.5 480q45 315 -107.5 480t-431.5 165h-268l-84 -594h280l-14 -100h-280l-84 -594h268z" glyph-name="Eth" horiz-adv-x="1587" unicode="Ð"/><glyph d="M594 1747q4 106 67.5 176t153.5 70q117 0 170 -109q33 -68 98 -67q51 0 86 44t37 111h88q-2 -106 -65.5 -174.5t-155.5 -68.5q-119 0 -168 108q-33 68 -98 68q-53 0 -87 -44t-36 -114h-90zM1444 1536l-215 -1536h-125l-793 1303l-182 -1303h-139l215 1536h125l794 -1303 l183 1303h137z" glyph-name="Ntilde" horiz-adv-x="1464" unicode="Ñ"/><glyph d="M713 2048h141l145 -307h-114zM700 -20q-324 0 -505 228t-133.5 560t292 560t568.5 228q322 0 504 -229t135 -559q-47 -332 -293 -560t-568 -228zM719 113q270 0 470 189.5t238 465.5q39 279 -107 468t-416.5 189t-471.5 -189t-239 -468q-39 -276 108.5 -465.5 t417.5 -189.5z" glyph-name="Ograve" horiz-adv-x="1630" unicode="Ò"/><glyph d="M1128 2048h142l-258 -307h-115zM700 -20q-324 0 -505 228t-133.5 560t292 560t568.5 228q322 0 504 -229t135 -559q-47 -332 -293 -560t-568 -228zM719 113q270 0 470 189.5t238 465.5q39 279 -107 468t-416.5 189t-471.5 -189t-239 -468q-39 -276 108.5 -465.5 t417.5 -189.5z" glyph-name="Oacute" horiz-adv-x="1630" unicode="Ó"/><glyph d="M920 2048h145l156 -350h-115l-123 280l-203 -280h-114zM700 -20q-324 0 -505 228t-133.5 560t292 560t568.5 228q322 0 504 -229t135 -559q-47 -332 -293 -560t-568 -228zM719 113q270 0 470 189.5t238 465.5q39 279 -107 468t-416.5 189t-471.5 -189t-239 -468 q-39 -276 108.5 -465.5t417.5 -189.5z" glyph-name="Ocircumflex" horiz-adv-x="1630" unicode="Ô"/><glyph d="M1094 1729q-119 0 -168 108q-33 68 -99 68q-53 0 -86.5 -44t-35.5 -114h-91q4 106 67.5 176t154.5 70q117 0 170 -109q33 -68 98 -67q51 0 86 44t37 111h88q-2 -106 -65.5 -174.5t-155.5 -68.5zM700 -20q-324 0 -505 228t-133.5 560t292 560t568.5 228q322 0 504 -229 t135 -559q-47 -332 -293 -560t-568 -228zM719 113q270 0 470 189.5t238 465.5q39 279 -107 468t-416.5 189t-471.5 -189t-239 -468q-39 -276 108.5 -465.5t417.5 -189.5z" glyph-name="Otilde" horiz-adv-x="1630" unicode="Õ"/><glyph d="M768 1731q-41 0 -66.5 29.5t-19.5 70.5t40 70.5t75 29.5t66.5 -29.5t19.5 -70.5t-40 -70.5t-75 -29.5zM1126 1731q-41 0 -66.5 29.5t-19 70.5t40 70.5t74.5 29.5t65.5 -29.5t18.5 -70.5t-39 -70.5t-74 -29.5zM700 -20q-324 0 -505 228t-133.5 560t292 560t568.5 228 q322 0 504 -229t135 -559q-47 -332 -293 -560t-568 -228zM719 113q270 0 470 189.5t238 465.5q39 279 -107 468t-416.5 189t-471.5 -189t-239 -468q-39 -276 108.5 -465.5t417.5 -189.5z" glyph-name="Odieresis" horiz-adv-x="1630" unicode="Ö"/><glyph d="M848 635l354 -410l-86 -75l-354 409l-467 -409l-66 75l467 410l-352 412l88 75l350 -411l471 411l64 -75z" glyph-name="multiply" horiz-adv-x="1497" unicode="×"/><glyph d="M1374 1386q113 -111 163 -271.5t24 -346.5q-47 -332 -293 -560t-568 -228q-219 0 -383 114l-92 -110h-106l135 163q-117 109 -168 272t-25 349q47 332 292 560t569 228q225 0 389 -118l92 112h104zM193 768q-20 -156 18.5 -289t130.5 -223l881 1073q-135 96 -320 96 q-270 0 -470.5 -189t-239.5 -468zM719 113q270 0 470 189.5t238 465.5q45 319 -143 508l-876 -1073q131 -90 311 -90z" glyph-name="Oslash" horiz-adv-x="1630" unicode="Ø"/><glyph d="M653 2048h142l145 -307h-115zM559.5 -20q-237.5 0 -383 153.5t-115.5 372.5l146 1030h139l-141 -1010q-25 -174 84.5 -298t288.5 -124q182 0 333.5 124t175.5 298l142 1010h137l-145 -1030q-31 -217 -227.5 -371.5t-434 -154.5z" glyph-name="Ugrave" horiz-adv-x="1392" unicode="Ù"/><glyph d="M1069 2048h141l-258 -307h-114zM559.5 -20q-237.5 0 -383 153.5t-115.5 372.5l146 1030h139l-141 -1010q-25 -174 84.5 -298t288.5 -124q182 0 333.5 124t175.5 298l142 1010h137l-145 -1030q-31 -217 -227.5 -371.5t-434 -154.5z" glyph-name="Uacute" horiz-adv-x="1392" unicode="Ú"/><glyph d="M860 2048h146l155 -350h-114l-123 280l-203 -280h-115zM559.5 -20q-237.5 0 -383 153.5t-115.5 372.5l146 1030h139l-141 -1010q-25 -174 84.5 -298t288.5 -124q182 0 333.5 124t175.5 298l142 1010h137l-145 -1030q-31 -217 -227.5 -371.5t-434 -154.5z" glyph-name="Ucircumflex" horiz-adv-x="1392" unicode="Û"/><glyph d="M709 1731q-41 0 -67 29.5t-19.5 70.5t40 70.5t74.5 29.5t66.5 -29.5t19.5 -70.5t-39.5 -70.5t-74.5 -29.5zM1067 1731q-41 0 -66.5 29.5t-19.5 70.5t40 70.5t75 29.5t65.5 -29.5t18.5 -70.5t-39 -70.5t-74 -29.5zM559.5 -20q-237.5 0 -383 153.5t-115.5 372.5l146 1030 h139l-141 -1010q-25 -174 84.5 -298t288.5 -124q182 0 333.5 124t175.5 298l142 1010h137l-145 -1030q-31 -217 -227.5 -371.5t-434 -154.5z" glyph-name="Udieresis" horiz-adv-x="1392" unicode="Ü"/><glyph d="M866 1741h-114l231 307h141zM731 729l-102 -729h-137l100 725l-422 811h156l352 -688l547 688h153z" glyph-name="Yacute" horiz-adv-x="1302" unicode="Ý"/><glyph d="M791 1325q176 0 281.5 -124t78.5 -300q-23 -174 -163 -296t-316 -122h-398l-67 -483h-135l186 1325l27 203h135l-27 -203h398zM684 604q125 0 225.5 87t118.5 214q16 125 -59.5 212t-200.5 87h-393l-84 -600h393z" glyph-name="Thorn" horiz-adv-x="1189" unicode="Þ"/><glyph d="M954 780q113 -49 171.5 -153.5t39.5 -233.5q-25 -172 -160 -292.5t-296 -120.5q-88 0 -175.5 37.5t-138.5 97.5l76 98q37 -45 100.5 -76t133.5 -31q115 2 212 86t113 207q18 125 -59.5 213t-206.5 88h-127l16 115h54q127 0 226 89t116 216q18 129 -60 212t-219 83 q-145 0 -253.5 -87t-127.5 -220l-156 -1108h-133l156 1108q27 186 177.5 307t350.5 121q197 0 308.5 -116.5t87.5 -295.5q-31 -217 -226 -344z" glyph-name="germandbls" horiz-adv-x="1351" unicode="ß"/><glyph d="M760 1229h-115l-172 307h141zM961 737l-62 -461q-14 -90 -1 -125.5t60 -33.5l-16 -117q-29 0 -57 6q-137 29 -127 170q-57 -78 -173 -131t-243 -53q-162 0 -257 92t-75 233q49 334 516 365l297 18l6 43q18 135 -53 206t-211 71q-123 0 -211 -69.5t-114 -176.5h-140 q37 152 164 260.5t324 108.5q201 0 300.5 -110t72.5 -296zM782 408l23 170l-295 -21q-338 -23 -369 -242q-12 -90 57.5 -144t168.5 -54q145 0 272 88t143 203z" glyph-name="agrave" horiz-adv-x="1091" unicode="à"/><glyph d="M987 1536l-258 -307h-115l232 307h141zM588 1143q201 0 300 -109.5t73 -296.5l-62 -461q-14 -90 -1 -125.5t60 -33.5l-16 -117q-29 0 -57 6q-137 29 -127 170q-57 -78 -173 -131t-243 -53q-162 0 -257 92t-75 233q49 334 516 365l297 18l6 43q18 135 -53 206t-211 71 q-123 0 -211 -69.5t-114 -176.5h-140q37 152 164 260.5t324 108.5zM782 408l23 170l-295 -21q-338 -23 -369 -242q-12 -90 57.5 -144t168.5 -54q145 0 272 88t143 203z" glyph-name="aacute" horiz-adv-x="1091" unicode="á"/><glyph d="M633 1466l-203 -280h-115l254 350h146l155 -350h-114zM961 737l-62 -461q-14 -90 -1 -125.5t60 -33.5l-16 -117q-29 0 -57 6q-137 29 -127 170q-57 -78 -173 -131t-243 -53q-162 0 -257 92t-75 233q49 334 516 365l297 18l6 43q18 135 -53 206t-211 71q-123 0 -211 -69.5 t-114 -176.5h-140q37 152 164 260.5t324 108.5q201 0 300.5 -110t72.5 -296zM782 408l23 170l-295 -21q-338 -23 -369 -242q-12 -90 57.5 -144t168.5 -54q145 0 272 88t143 203z" glyph-name="acircumflex" horiz-adv-x="1091" unicode="â"/><glyph d="M264 1235q4 106 67.5 176t153.5 70q117 0 170 -109q33 -68 99 -67q51 0 85.5 43t37.5 112h88q-2 -106 -65.5 -174.5t-156.5 -68.5q-119 0 -168 108q-33 68 -98 68q-53 0 -87 -44t-36 -114h-90zM342 -8q-162 0 -257 92t-75 233q49 334 516 365l297 18l6 43q18 135 -53 206 t-211 71q-123 0 -211 -69.5t-114 -176.5h-140q37 152 164 260.5t324 108.5q201 0 300 -109.5t73 -296.5l-62 -461q-14 -90 -1 -125.5t60 -33.5l-16 -117q-29 0 -57 6q-137 29 -127 170q-57 -78 -173 -131t-243 -53zM367 117q145 0 272 88t143 203l23 170l-295 -21 q-338 -23 -369 -242q-12 -90 58 -144t168 -54z" glyph-name="atilde" horiz-adv-x="1091" unicode="ã"/><glyph d="M422 1219q-41 0 -66.5 29.5t-19.5 70.5t40 70.5t75 29.5t66.5 -29.5t19 -70.5t-40 -70.5t-74.5 -29.5zM780 1219q-41 0 -66.5 29.5t-19.5 70.5t40 70.5t75 29.5t65.5 -29.5t18.5 -70.5t-39 -70.5t-74 -29.5zM342 -8q-162 0 -257 92t-75 233q49 334 516 365l297 18l6 43 q18 135 -53 206t-211 71q-123 0 -211 -69.5t-114 -176.5h-140q37 152 164 260.5t324 108.5q201 0 300 -109.5t73 -296.5l-62 -461q-14 -90 -1 -125.5t60 -33.5l-16 -117q-29 0 -57 6q-137 29 -127 170q-57 -78 -173 -131t-243 -53zM367 117q145 0 272 88t143 203l23 170 l-295 -21q-338 -23 -369 -242q-12 -90 58 -144t168 -54z" glyph-name="adieresis" horiz-adv-x="1091" unicode="ä"/><glyph d="M600 1190q-82 0 -132 58.5t-38 137.5q10 82 76.5 140.5t148.5 58.5q80 0 129.5 -58.5t38.5 -140.5q-12 -80 -77.5 -138t-145.5 -58zM647 1518q-53 0 -96 -39t-51 -92.5t24.5 -90t86 -36.5t95.5 36.5t50 90t-25 92.5t-84 39zM342 -8q-162 0 -257 92t-75 233 q49 334 516 365l297 18l6 43q18 135 -53 206t-211 71q-123 0 -211 -69.5t-114 -176.5h-140q37 152 164 260.5t324 108.5q201 0 300 -109.5t73 -296.5l-62 -461q-14 -90 -1 -125.5t60 -33.5l-16 -117q-29 0 -57 6q-137 29 -127 170q-57 -78 -173 -131t-243 -53zM367 117 q145 0 272 88t143 203l23 170l-295 -21q-338 -23 -369 -242q-12 -90 58 -144t168 -54z" glyph-name="aring" horiz-adv-x="1091" unicode="å"/><glyph d="M1817 580q-4 -39 -11 -58h-895q-16 -201 83.5 -308.5t271.5 -107.5q117 0 230.5 61.5t152.5 164.5h120q-49 -154 -199.5 -249t-344.5 -93q-260 2 -381 192l-25 -182h-114l12 180q-61 -84 -188.5 -139t-260.5 -47q-150 10 -233.5 99t-65.5 224q45 307 516 365l299 37l4 24 q18 141 -52 213t-212 72q-127 0 -212 -71.5t-113 -180.5h-133q39 156 160.5 261.5t320.5 105.5q305 0 366 -232q182 240 476 240q231 0 347 -158.5t81 -412.5zM930 639h762q10 174 -75 279.5t-245 105.5q-164 0 -280.5 -105.5t-161.5 -279.5zM741 408l29 206l-299 -39 q-342 -45 -373 -268q-12 -88 46.5 -139t150.5 -57q150 -10 289 81t157 216z" glyph-name="ae" horiz-adv-x="1828" unicode="æ"/><glyph d="M639 1014q-178 0 -302 -121t-151 -326q-31 -207 60.5 -330.5t269.5 -123.5q123 0 221.5 68.5t147.5 176.5h129q-57 -160 -199.5 -265t-327.5 -105h-30l-56 -90q113 20 181.5 -33t54.5 -152q-12 -86 -80 -145.5t-154 -59.5q-66 0 -128 35t-89 86l70 33q20 -33 66.5 -56.5 t91.5 -23.5q55 0 97 38t50 93q10 78 -49 109t-156 -2l-57 45l84 133q-182 39 -273.5 195.5t-60.5 373.5q35 248 202 409t398 161q190 0 311 -102.5t119 -260.5h-135q-4 104 -90 172t-215 68z" glyph-name="ccedilla" horiz-adv-x="1150" unicode="ç"/><glyph d="M590 1241l-172 307h141l146 -307h-115zM1063 569q-2 -16 -10 -57h-873q-25 -186 72.5 -292.5t234.5 -108.5q141 -2 235.5 58t133.5 157h129q-14 -49 -48 -102.5t-92.5 -109t-152.5 -90t-207 -34.5q-233 2 -350 165.5t-84 405.5q35 248 196 410t394 162q229 0 343 -157 t79 -407zM627 1008q-162 0 -273.5 -103.5t-154.5 -275.5h741q8 172 -72.5 275.5t-240.5 103.5z" glyph-name="egrave" horiz-adv-x="1142" unicode="è"/><glyph d="M975 1548l-258 -307h-115l232 307h141zM641 1133q229 0 343 -157t79 -407q-2 -16 -10 -57h-873q-25 -186 72.5 -292.5t234.5 -108.5q141 -2 235.5 58t133.5 157h129q-14 -49 -48 -102.5t-92.5 -109t-152.5 -90t-207 -34.5q-233 2 -350 165.5t-84 405.5q35 248 196 410 t394 162zM940 629q8 172 -73 275.5t-240 103.5q-162 0 -273.5 -103.5t-154.5 -275.5h741z" glyph-name="eacute" horiz-adv-x="1142" unicode="é"/><glyph d="M485 1198h-114l254 350h145l156 -350h-115l-123 281zM1063 569q-2 -16 -10 -57h-873q-25 -186 72.5 -292.5t234.5 -108.5q141 -2 235.5 58t133.5 157h129q-14 -49 -48 -102.5t-92.5 -109t-152.5 -90t-207 -34.5q-233 2 -350 165.5t-84 405.5q35 248 196 410t394 162 q229 0 343 -157t79 -407zM627 1008q-162 0 -273.5 -103.5t-154.5 -275.5h741q8 172 -72.5 275.5t-240.5 103.5z" glyph-name="ecircumflex" horiz-adv-x="1142" unicode="ê"/><glyph d="M473 1231q-41 0 -66.5 29.5t-19.5 70.5t40 71t75 30t66.5 -30t19.5 -71t-40 -70.5t-75 -29.5zM831.5 1231q-40.5 0 -66.5 29.5t-19.5 70.5t40 71t74.5 30t65.5 -30t18.5 -71t-39 -70.5t-73.5 -29.5zM1063 569q-2 -16 -10 -57h-873q-25 -186 72.5 -292.5t234.5 -108.5 q141 -2 235.5 58t133.5 157h129q-14 -49 -48 -102.5t-92.5 -109t-152.5 -90t-207 -34.5q-233 2 -350 165.5t-84 405.5q35 248 196 410t394 162q229 0 343 -157t79 -407zM627 1008q-162 0 -273.5 -103.5t-154.5 -275.5h741q8 172 -72.5 275.5t-240.5 103.5z" glyph-name="edieresis" horiz-adv-x="1142" unicode="ë"/><glyph d="M164 1536h143l146 -307h-115zM305 1024h135l-143 -1024h-135z" glyph-name="igrave" horiz-adv-x="501" unicode="ì"/><glyph d="M440 1536h142l-258 -307h-115zM164 1024h135l-143 -1024h-136z" glyph-name="iacute" horiz-adv-x="499" unicode="í"/><glyph d="M442 1536h146l155 -350h-114l-123 280l-203 -280h-117zM377 1024h135l-143 -1024h-136z" glyph-name="icircumflex" horiz-adv-x="782" unicode="î"/><glyph d="M293 1219q-41 0 -67.5 29.5t-20.5 70.5t41 70.5t75.5 29.5t66.5 -29.5t19.5 -70.5t-40 -70.5t-74.5 -29.5zM651 1219q-41 0 -66.5 29.5t-19.5 70.5t40 70.5t75 29.5t65.5 -29.5t18.5 -70.5t-39 -70.5t-74 -29.5zM377 1024h135l-143 -1024h-136z" glyph-name="idieresis" horiz-adv-x="784" unicode="ï"/><glyph d="M911 1395q152 -141 217.5 -374t28.5 -509q-33 -221 -214 -376.5t-408 -155.5q-225 0 -363.5 155.5t-105.5 376.5q31 221 212 376.5t406 155.5q201 0 336 -124q-45 242 -193 383l-135 -146l-45 43l133 141q-145 104 -327 109l39 111q213 0 372 -125l113 120l47 -40z M551 100q170 0 308 121t163 291q23 172 -80.5 292t-273.5 120q-172 0 -309.5 -120t-159.5 -292q-25 -170 78.5 -291t273.5 -121z" glyph-name="eth" horiz-adv-x="1265" unicode="ð"/><glyph d="M344 1235q4 106 67.5 176t153.5 70q115 0 170 -109q33 -68 99 -67q51 0 85.5 43t36.5 112h88q-2 -106 -65.5 -174.5t-155.5 -68.5q-119 0 -168 108q-33 68 -98 68q-53 0 -87 -44t-36 -114h-90zM723 1139q180 0 274.5 -113t67.5 -299l-100 -727h-144l101 715 q18 133 -51.5 213t-200.5 80q-139 0 -255 -85t-134 -214l-99 -709h-143l158 1126h120l-6 -178q70 86 182.5 138.5t229.5 52.5z" glyph-name="ntilde" horiz-adv-x="1181" unicode="ñ"/><glyph d="M422 1536h141l146 -307h-115zM483 -14q-236 0 -363.5 166.5t-93 412.5t209 413t409.5 167q238 0 365 -167t92 -413t-208 -412.5t-411 -166.5zM502 117q176 0 302 129t152 319q29 193 -61 321t-268 128q-176 0 -302 -128t-155 -321q-27 -190 64.5 -319t267.5 -129z" glyph-name="ograve" horiz-adv-x="1157" unicode="ò"/><glyph d="M838 1536h141l-258 -307h-115zM483 -14q-236 0 -363.5 166.5t-93 412.5t209 413t409.5 167q238 0 365 -167t92 -413t-208 -412.5t-411 -166.5zM502 117q176 0 302 129t152 319q29 193 -61 321t-268 128q-176 0 -302 -128t-155 -321q-27 -190 64.5 -319t267.5 -129z" glyph-name="oacute" horiz-adv-x="1157" unicode="ó"/><glyph d="M629 1536h145l156 -350h-115l-123 280l-203 -280h-114zM483 -14q-236 0 -363.5 166.5t-93 412.5t209 413t409.5 167q238 0 365 -167t92 -413t-208 -412.5t-411 -166.5zM502 117q176 0 302 129t152 319q29 193 -61 321t-268 128q-176 0 -302 -128t-155 -321 q-27 -190 64.5 -319t267.5 -129z" glyph-name="ocircumflex" horiz-adv-x="1157" unicode="ô"/><glyph d="M803 1217q-119 0 -168 108q-33 68 -98 68q-53 0 -87 -44t-36 -114h-90q4 106 67.5 176t153.5 70q115 0 170 -109q33 -68 98 -67q51 0 86 43t37 112h88q-2 -106 -65.5 -174.5t-155.5 -68.5zM483 -14q-236 0 -363.5 166.5t-93 412.5t209 413t409.5 167q238 0 365 -167 t92 -413t-208 -412.5t-411 -166.5zM502 117q176 0 302 129t152 319q29 193 -61 321t-268 128q-176 0 -302 -128t-155 -321q-27 -190 64.5 -319t267.5 -129z" glyph-name="otilde" horiz-adv-x="1157" unicode="õ"/><glyph d="M477 1219q-41 0 -66.5 29.5t-19.5 70.5t40 70.5t75 29.5t66.5 -29.5t19.5 -70.5t-40 -70.5t-75 -29.5zM836 1219q-41 0 -67 29.5t-19.5 70.5t40 70.5t74.5 29.5t65.5 -29.5t18.5 -70.5t-38.5 -70.5t-73.5 -29.5zM483 -14q-236 0 -363.5 166.5t-93 412.5t209 413 t409.5 167q238 0 365 -167t92 -413t-208 -412.5t-411 -166.5zM502 117q176 0 302 129t152 319q29 193 -61 321t-268 128q-176 0 -302 -128t-155 -321q-27 -190 64.5 -319t267.5 -129z" glyph-name="odieresis" horiz-adv-x="1157" unicode="ö"/><glyph d="M768 819q-39 0 -63.5 26.5t-18.5 65.5t39 67t69.5 28t61.5 -28t18.5 -67t-38 -65.5t-68.5 -26.5zM188 616h1115l-17 -120h-1114zM670 123q-37 0 -61.5 26.5t-20.5 65.5q6 39 38.5 66.5t69.5 27.5t61.5 -27.5t18.5 -66.5q-4 -39 -35.5 -65.5t-70.5 -26.5z" glyph-name="divide" horiz-adv-x="1488" unicode="÷"/><glyph d="M963 1024q158 -172 120 -455q-37 -248 -209 -416.5t-403 -168.5q-160 0 -274 86l-105 -131h-84l142 174q-162 168 -121 456q35 248 206 417t402 169q166 0 276 -88l107 131h82zM168 569q-31 -205 74 -340l581 723q-82 70 -205 70q-174 0 -298.5 -130t-151.5 -323z M492 117q174 0 297.5 130t150.5 322q29 207 -72 338l-579 -725q82 -65 203 -65z" glyph-name="oslash" horiz-adv-x="1136" unicode="ø"/><glyph d="M616 1229l-172 307h142l145 -307h-115zM1122 1126l-157 -1126h-127l8 180q-72 -86 -185.5 -139t-226.5 -53q-184 0 -284.5 117.5t-75.5 300.5l102 720h148l-99 -704q-20 -135 51.5 -219t206.5 -84q139 0 258 86t138 217l98 704h145z" glyph-name="ugrave" horiz-adv-x="1163" unicode="ù"/><glyph d="M743 1229h-114l231 307h141zM1122 1126l-157 -1126h-127l8 180q-72 -86 -185.5 -139t-226.5 -53q-184 0 -284.5 117.5t-75.5 300.5l102 720h148l-99 -704q-20 -135 51.5 -219t206.5 -84q139 0 258 86t138 217l98 704h145z" glyph-name="uacute" horiz-adv-x="1163" unicode="ú"/><glyph d="M512 1186h-115l254 350h146l155 -350h-114l-123 280zM1122 1126l-157 -1126h-127l8 180q-72 -86 -185.5 -139t-226.5 -53q-184 0 -284.5 117.5t-75.5 300.5l102 720h148l-99 -704q-20 -135 51.5 -219t206.5 -84q139 0 258 86t138 217l98 704h145z" glyph-name="ucircumflex" horiz-adv-x="1163" unicode="û"/><glyph d="M500 1219q-41 0 -66.5 29.5t-19.5 70.5t39.5 70.5t74.5 29.5t67 -29.5t19.5 -70.5t-40 -70.5t-74.5 -29.5zM858 1219q-41 0 -66.5 29.5t-19.5 70.5t40 70.5t75 29.5t65.5 -29.5t18.5 -70.5t-39 -70.5t-74 -29.5zM1122 1126l-157 -1126h-127l8 180q-72 -86 -185.5 -139 t-226.5 -53q-184 0 -284.5 117.5t-75.5 300.5l102 720h148l-99 -704q-20 -135 51.5 -219t206.5 -84q139 0 258 86t138 217l98 704h145z" glyph-name="udieresis" horiz-adv-x="1163" unicode="ü"/><glyph d="M702 1229h-114l231 307h142zM1135 1126l-897 -1638h-138l318 573h-43l-295 1065h147l260 -936l498 936h150z" glyph-name="yacute" horiz-adv-x="1138" unicode="ý"/><glyph d="M780 1044q217 0 348.5 -155.5t100.5 -376.5q-33 -221 -207 -376.5t-391 -155.5q-135 0 -238.5 65.5t-154.5 177.5l-103 -733h-135l287 2046h135l-103 -735q84 113 205 178t256 65zM631 100q170 0 308 121t163 291q23 172 -80.5 292t-273.5 120q-172 0 -309.5 -120 t-159.5 -292q-25 -170 78.5 -291t273.5 -121z" glyph-name="thorn" horiz-adv-x="1333" unicode="þ"/><glyph d="M475 1219q-41 0 -66.5 29.5t-19.5 70.5t40 70.5t75 29.5t66.5 -29.5t19.5 -70.5t-40 -70.5t-75 -29.5zM833.5 1219q-40.5 0 -66.5 29.5t-19.5 70.5t40 70.5t74.5 29.5t65.5 -29.5t18.5 -70.5t-39 -70.5t-73.5 -29.5zM1135 1126l-897 -1638h-138l318 573h-43l-295 1065 h147l260 -936l498 936h150z" glyph-name="ydieresis" horiz-adv-x="1138" unicode="ÿ"/><glyph d="M1212 1755h-634l14 94h635zM1100 401h-762l-213 -401h-152l832 1536h153l402 -1536h-152zM1077 526l-217 865l-457 -865h674z" glyph-name="Amacron" horiz-adv-x="1517" unicode="Ā"/><glyph d="M885 1243h-635l12 94h635zM342 -8q-162 0 -257 92t-75 233q49 334 516 365l297 18l6 43q18 135 -53 206t-211 71q-123 0 -211 -69.5t-114 -176.5h-140q37 152 164 260.5t324 108.5q201 0 300 -109.5t73 -296.5l-62 -461q-14 -90 -1 -125.5t60 -33.5l-16 -117q-29 0 -57 6 q-137 29 -127 170q-57 -78 -173 -131t-243 -53zM367 117q145 0 272 88t143 203l23 170l-295 -21q-338 -23 -369 -242q-12 -90 58 -144t168 -54z" glyph-name="amacron" horiz-adv-x="1091" unicode="ā"/><glyph d="M883 1677q-143 0 -225.5 84t-61.5 221h88q-14 -90 46.5 -153.5t164.5 -63.5t183 63.5t93 153.5h86q-20 -137 -124.5 -221t-249.5 -84zM1100 401h-762l-213 -401h-152l832 1536h153l402 -1536h-152zM1077 526l-217 865l-457 -865h674z" glyph-name="Abreve" horiz-adv-x="1517" unicode="Ă"/><glyph d="M555 1165q-143 0 -225 84t-62 221h88q-14 -90 46.5 -153.5t165 -63.5t183 63.5t93.5 153.5h86q-20 -137 -125 -221t-250 -84zM342 -8q-162 0 -257 92t-75 233q49 334 516 365l297 18l6 43q18 135 -53 206t-211 71q-123 0 -211 -69.5t-114 -176.5h-140q37 152 164 260.5 t324 108.5q201 0 300 -109.5t73 -296.5l-62 -461q-14 -90 -1 -125.5t60 -33.5l-16 -117q-29 0 -57 6q-137 29 -127 170q-57 -78 -173 -131t-243 -53zM367 117q145 0 272 88t143 203l23 170l-295 -21q-338 -23 -369 -242q-12 -90 58 -144t168 -54z" glyph-name="abreve" horiz-adv-x="1091" unicode="ă"/><glyph d="M1374 -365l37 -67q-121 -104 -278 -100q-100 2 -150.5 58t-38.5 150q27 172 283 324h-19l-108 401h-762l-213 -401h-152l832 1536h153l402 -1536h-19q-104 -43 -194 -128t-105 -183q-8 -63 24 -102.5t99 -39.5q117 0 209 88zM403 526h674l-217 865z" glyph-name="Aogonek" horiz-adv-x="1630" unicode="Ą"/><glyph d="M1036 -367l39 -67q-125 -106 -278 -101q-100 4 -150.5 59.5t-38.5 149.5q12 84 91 173.5t186 158.5q-137 29 -127 170q-57 -78 -173 -131t-243 -53q-162 0 -257 92t-75 233q49 334 516 365l297 18l6 43q18 135 -53 206t-211 71q-123 0 -211 -69.5t-114 -176.5h-140 q37 152 164 260.5t324 108.5q201 0 300 -109.5t73 -296.5l-62 -461q-14 -90 -1 -125.5t60 -33.5l-12 -92l60 -27q-102 -43 -193.5 -128t-105.5 -183q-10 -63 21.5 -102.5t98.5 -39.5q121 0 209 88zM782 408l23 170l-295 -21q-338 -23 -369 -242q-12 -90 57.5 -144t168.5 -54 q145 0 272 88t143 203z" glyph-name="aogonek" horiz-adv-x="1146" unicode="ą"/><glyph d="M1190 2048h141l-258 -307h-115zM700 -20q-322 -4 -493.5 225t-124.5 563t282.5 561t557.5 227q152 0 271.5 -49t186 -123.5t99 -152.5t32.5 -150h-151q-6 55 -31.5 110.5t-76 111t-141.5 89t-208 33.5q-268 0 -459.5 -188t-230.5 -469t99.5 -468t406.5 -187 q201 0 355.5 101t193.5 214h151q-18 -63 -75.5 -137t-145.5 -144.5t-220.5 -117.5t-277.5 -49z" glyph-name="Cacute" horiz-adv-x="1560" unicode="Ć"/><glyph d="M817 1536h141l-258 -307h-114zM487 -12q-231 0 -352 164.5t-86 414.5q35 248 202 409t398 161q190 0 311 -102.5t119 -260.5h-135q-4 104 -90 172t-215 68q-178 0 -302 -121t-151 -326q-31 -207 60.5 -330.5t269.5 -123.5q123 0 221.5 68.5t147.5 176.5h129 q-57 -160 -200 -265t-327 -105z" glyph-name="cacute" horiz-adv-x="1150" unicode="ć"/><glyph d="M948 1731q-41 0 -66.5 29.5t-19.5 70.5t40 70.5t75 29.5t66.5 -29.5t19.5 -70.5t-40 -70.5t-75 -29.5zM700 -20q-322 -4 -493.5 225t-124.5 563t282.5 561t557.5 227q152 0 271.5 -49t186 -123.5t99 -152.5t32.5 -150h-151q-6 55 -31.5 110.5t-76 111t-141.5 89 t-208 33.5q-268 0 -459.5 -188t-230.5 -469t99.5 -468t406.5 -187q201 0 355.5 101t193.5 214h151q-18 -63 -75.5 -137t-145.5 -144.5t-220.5 -117.5t-277.5 -49z" glyph-name="Cdotaccent" horiz-adv-x="1560" unicode="Ċ"/><glyph d="M637 1219q-41 0 -66.5 29.5t-19.5 70.5t40 70.5t75 29.5t66.5 -29.5t19 -70.5t-40 -70.5t-74.5 -29.5zM487 -12q-231 0 -352 164.5t-86 414.5q35 248 202 409t398 161q190 0 311 -102.5t119 -260.5h-135q-4 104 -90 172t-215 68q-178 0 -302 -121t-151 -326 q-31 -207 60.5 -330.5t269.5 -123.5q123 0 221.5 68.5t147.5 176.5h129q-57 -160 -200 -265t-327 -105z" glyph-name="cdotaccent" horiz-adv-x="1150" unicode="ċ"/><glyph d="M715 2048h110l129 -272l205 272h111l-254 -350h-146zM700 -20q-322 -4 -493.5 225t-124.5 563t282.5 561t557.5 227q152 0 271.5 -49t186 -123.5t99 -152.5t32.5 -150h-151q-6 55 -31.5 110.5t-76 111t-141.5 89t-208 33.5q-268 0 -459.5 -188t-230.5 -469t99.5 -468 t406.5 -187q201 0 355.5 101t193.5 214h151q-18 -63 -75.5 -137t-145.5 -144.5t-220.5 -117.5t-277.5 -49z" glyph-name="Ccaron" horiz-adv-x="1560" unicode="Č"/><glyph d="M403 1536h111l129 -272l205 272h110l-253 -350h-146zM487 -12q-231 0 -352 164.5t-86 414.5q35 248 202 409t398 161q190 0 311 -102.5t119 -260.5h-135q-4 104 -90 172t-215 68q-178 0 -302 -121t-151 -326q-31 -207 60.5 -330.5t269.5 -123.5q123 0 221.5 68.5 t147.5 176.5h129q-57 -160 -200 -265t-327 -105z" glyph-name="ccaron" horiz-adv-x="1150" unicode="č"/><glyph d="M487 2048h111l129 -272l205 272h110l-254 -350h-145zM266 1536h449q164 0 294 -45t223 -136t131 -246t9 -357q-47 -344 -296 -548t-576 -204h-449zM514 125q276 0 477 163t242 464q47 342 -102.5 501.5t-434.5 159.5h-309l-182 -1288h309z" glyph-name="Dcaron" horiz-adv-x="1468" unicode="Ď"/><glyph d="M1239 1536l-215 -1536h-123l10 201q-166 -211 -436 -211q-229 0 -349 160.5t-85 406.5q35 248 203 414t397 166q254 0 371 -215l86 614h141zM1468 1339q-66 25 -55 97q6 41 39 70.5t76 29.5q41 0 64.5 -29.5t17.5 -70.5t-45 -103.5t-74 -103.5l-37 -43h-43zM512 109 q145 0 263 96t171 248l29 209q-10 152 -100.5 248t-235.5 96q-174 0 -302 -129t-154.5 -319.5t64.5 -319.5t265 -129z" glyph-name="dcaron" horiz-adv-x="1622" unicode="ď"/><glyph d="M854 1536q164 0 294 -45t223 -136t131 -246t9 -357q-47 -344 -295.5 -548t-576.5 -204h-449l101 719h-139l14 100h139l101 717h448zM1372 752q47 342 -102.5 501.5t-433.5 159.5h-310l-84 -594h287l-14 -100h-287l-84 -594h309q276 0 477 163t242 464z" glyph-name="Dcroat" horiz-adv-x="1607" unicode="Đ"/><glyph d="M1247 1223h-139l-170 -1223h-121l17 184q-162 -205 -402 -204q-211 0 -320.5 153.5t-76.5 378.5q31 227 183.5 379.5t363.5 152.5q236 0 344 -198l51 377h-307l14 100h307l31 213h131l-31 -213h140zM467 100q133 0 241.5 88t155.5 228l27 192q-8 139 -91 227.5t-216 88.5 q-162 0 -279 -118t-139 -294q-25 -174 57 -293t244 -119z" glyph-name="dcroat" horiz-adv-x="1290" unicode="đ"/><glyph d="M1049 1755h-635l14 94h635zM344 1413l-82 -582h705l-19 -124h-704l-82 -582h790l-16 -125h-930l215 1536h930l-16 -123h-791z" glyph-name="Emacron" horiz-adv-x="1144" unicode="Ē"/><glyph d="M975 1255h-635l12 95h635zM1063 569q-2 -16 -10 -57h-873q-25 -186 72.5 -292.5t234.5 -108.5q141 -2 235.5 58t133.5 157h129q-14 -49 -48 -102.5t-92.5 -109t-152.5 -90t-207 -34.5q-233 2 -350 165.5t-84 405.5q35 248 196 410t394 162q229 0 343 -157t79 -407z M627 1008q-162 0 -273.5 -103.5t-154.5 -275.5h741q8 172 -72.5 275.5t-240.5 103.5z" glyph-name="emacron" horiz-adv-x="1142" unicode="ē"/><glyph d="M727 1731q-41 0 -66.5 29.5t-19.5 70.5t40 70.5t75 29.5t66.5 -29.5t19.5 -70.5t-40 -70.5t-75 -29.5zM344 1413l-82 -582h705l-19 -124h-704l-82 -582h790l-16 -125h-930l215 1536h930l-16 -123h-791z" glyph-name="Edotaccent" horiz-adv-x="1144" unicode="Ė"/><glyph d="M653 1231q-41 0 -66.5 29.5t-19.5 70.5t40 71t75 30t66.5 -30t19.5 -71t-40 -70.5t-75 -29.5zM1063 569q-2 -16 -10 -57h-873q-25 -186 72.5 -292.5t234.5 -108.5q141 -2 235.5 58t133.5 157h129q-14 -49 -48 -102.5t-92.5 -109t-152.5 -90t-207 -34.5q-233 2 -350 165.5 t-84 405.5q35 248 196 410t394 162q229 0 343 -157t79 -407zM627 1008q-162 0 -273.5 -103.5t-154.5 -275.5h741q8 172 -72.5 275.5t-240.5 103.5z" glyph-name="edotaccent" horiz-adv-x="1142" unicode="ė"/><glyph d="M1135 1413h-791l-82 -582h705l-19 -124h-704l-82 -582h790l-16 -125h-37q-104 -43 -195.5 -128t-105.5 -183q-8 -63 23.5 -102.5t99.5 -39.5q117 0 209 88l37 -67q-121 -104 -279 -100q-100 2 -150.5 58t-37.5 150q27 172 282 324h-776l215 1536h930z" glyph-name="Eogonek" horiz-adv-x="1236" unicode="Ę"/><glyph d="M641 1133q229 0 343 -157t79 -407q-2 -16 -10 -57h-873q-25 -186 72.5 -292.5t234.5 -108.5q141 -2 235.5 58t133.5 157h129q-25 -88 -106.5 -179.5t-214.5 -132.5q10 2 0 -2q-6 -2 -23 -8q-74 -82 -86 -164q-10 -63 21.5 -102t99.5 -39q117 0 209 88l37 -68 q-119 -104 -279 -100q-98 4 -149.5 59.5t-36.5 149.5q12 80 69 154l33 10q14 2 21 4q-43 -6 -95 -6q-233 2 -350 165.5t-84 405.5q35 248 196 410t394 162zM940 629q8 172 -73 275.5t-240 103.5q-162 0 -273.5 -103.5t-154.5 -275.5h741z" glyph-name="eogonek" horiz-adv-x="1124" unicode="ę"/><glyph d="M649 1698l-155 350h110l129 -272l205 272h111l-254 -350h-146zM344 1413l-82 -582h705l-19 -124h-704l-82 -582h790l-16 -125h-930l215 1536h930l-16 -123h-791z" glyph-name="Ecaron" horiz-adv-x="1144" unicode="Ě"/><glyph d="M575 1198l-155 350h110l129 -272l205 272h111l-254 -350h-146zM1063 569q-2 -16 -10 -57h-873q-25 -186 72.5 -292.5t234.5 -108.5q141 -2 235.5 58t133.5 157h129q-14 -49 -48 -102.5t-92.5 -109t-152.5 -90t-207 -34.5q-233 2 -350 165.5t-84 405.5q35 248 196 410 t394 162q229 0 343 -157t79 -407zM627 1008q-162 0 -273.5 -103.5t-154.5 -275.5h741q8 172 -72.5 275.5t-240.5 103.5z" glyph-name="ecaron" horiz-adv-x="1142" unicode="ě"/><glyph d="M881 1677q-143 0 -225.5 84t-61.5 221h88q-14 -90 46 -153.5t164.5 -63.5t183.5 63.5t93 153.5h86q-20 -137 -124.5 -221t-249.5 -84zM1432 772l-19 -119l-90 -653h-94l2 262q-104 -139 -236.5 -205.5t-335.5 -66.5q-217 0 -365.5 113.5t-204.5 286.5t-28 374 q49 348 275.5 570t537.5 222q250 0 405 -125.5t161 -347.5h-131q-27 170 -153 256t-294 86q-264 0 -447.5 -183t-224.5 -478q-41 -287 100.5 -466t383.5 -179q274 0 423.5 142t184.5 386h-438l18 125h570z" glyph-name="Gbreve" horiz-adv-x="1527" unicode="Ğ"/><glyph d="M664 1165q-143 0 -225.5 84t-61.5 221h88q-14 -90 46 -153.5t164.5 -63.5t183.5 63.5t93 153.5h86q-20 -137 -124.5 -221t-249.5 -84zM371 -492q-213 0 -342 94.5t-107 252.5q23 164 191 243q-2 2 -32 28t-41 39t-23.5 44t-8.5 63q8 61 49 103.5t115 89.5 q-90 100 -68 276q25 166 156 277.5t311 111.5q131 0 234 -63q31 57 99.5 93t139.5 36l-18 -131q-43 0 -81 -22.5t-54 -59.5q68 -111 47 -242q-23 -174 -153 -281.5t-322 -107.5q-152 0 -225 54q-41 -16 -64.5 -50t-19.5 -71q16 -104 178 -107l225 -2q344 -4 352 -250 q4 -168 -140 -293t-398 -125zM801 741q16 111 -54.5 187t-193.5 76q-119 0 -209 -76t-106.5 -186.5t53 -187.5t188.5 -77q123 0 214.5 75.5t107.5 188.5zM772 -76q-4 74 -69.5 104.5t-204.5 30.5h-248q-78 -18 -125 -74.5t-57 -127.5q-14 -100 79 -162t228 -62q195 0 300 82 t97 209z" glyph-name="gbreve" horiz-adv-x="1056" unicode="ğ"/><glyph d="M1012 1731q-41 0 -66.5 29.5t-19.5 70.5t39.5 70.5t74.5 29.5t67 -29.5t19.5 -70.5t-40 -70.5t-74.5 -29.5zM1432 772l-19 -119l-90 -653h-94l2 262q-104 -139 -236.5 -205.5t-335.5 -66.5q-217 0 -365.5 113.5t-204.5 286.5t-28 374q49 348 275.5 570t537.5 222 q250 0 405 -125.5t161 -347.5h-131q-27 170 -153 256t-294 86q-264 0 -447.5 -183t-224.5 -478q-41 -287 100.5 -466t383.5 -179q274 0 423.5 142t184.5 386h-438l18 125h570z" glyph-name="Gdotaccent" horiz-adv-x="1527" unicode="Ġ"/><glyph d="M672 1219q-41 0 -66.5 29.5t-19.5 70.5t39.5 70.5t74.5 29.5t67 -29.5t19.5 -70.5t-40 -70.5t-74.5 -29.5zM371 -492q-213 0 -342 94.5t-107 252.5q23 164 191 243q-2 2 -32 28t-41 39t-23.5 44t-8.5 63q8 61 49 103.5t115 89.5q-90 100 -68 276q25 166 156 277.5 t311 111.5q131 0 234 -63q31 57 99.5 93t139.5 36l-18 -131q-43 0 -81 -22.5t-54 -59.5q68 -111 47 -242q-23 -174 -153 -281.5t-322 -107.5q-152 0 -225 54q-41 -16 -64.5 -50t-19.5 -71q16 -104 178 -107l225 -2q344 -4 352 -250q4 -168 -140 -293t-398 -125zM801 741 q16 111 -54.5 187t-193.5 76q-119 0 -209 -76t-106.5 -186.5t53 -187.5t188.5 -77q123 0 214.5 75.5t107.5 188.5zM772 -76q-4 74 -69.5 104.5t-204.5 30.5h-248q-78 -18 -125 -74.5t-57 -127.5q-14 -100 79 -162t228 -62q195 0 300 82t97 209z" glyph-name="gdotaccent" horiz-adv-x="1056" unicode="ġ"/><glyph d="M1432 772l-19 -119l-90 -653h-94l2 262q-104 -139 -236.5 -205.5t-335.5 -66.5q-217 0 -365.5 113.5t-204.5 286.5t-28 374q49 348 275.5 570t537.5 222q250 0 405 -125.5t161 -347.5h-131q-27 170 -153 256t-294 86q-264 0 -447.5 -183t-224.5 -478q-41 -287 100.5 -466 t383.5 -179q274 0 423.5 142t184.5 386h-438l18 125h570zM694 -272q-66 27 -53 96q4 41 37 70.5t76 29.5q41 0 64.5 -28.5t19.5 -71.5q-6 -41 -46 -103.5t-75 -105.5l-37 -41h-43z" glyph-name="Gcommaaccent" horiz-adv-x="1527" unicode="Ģ"/><glyph d="M727 1378q29 -10 44 -36.5t11 -59.5q-6 -41 -38.5 -70.5t-75.5 -29.5q-41 0 -64.5 29.5t-17.5 70.5t45 103.5t74 105.5l36 41h43zM371 -492q-213 0 -342 94.5t-107 252.5q23 164 191 243q-2 2 -32 28t-41 39t-23.5 44t-8.5 63q8 61 49 103.5t115 89.5q-90 100 -68 276 q25 166 156 277.5t311 111.5q131 0 234 -63q31 57 99.5 93t139.5 36l-18 -131q-43 0 -81 -22.5t-54 -59.5q68 -111 47 -242q-23 -174 -153 -281.5t-322 -107.5q-152 0 -225 54q-41 -16 -64.5 -50t-19.5 -71q16 -104 178 -107l225 -2q344 -4 352 -250q4 -168 -140 -293 t-398 -125zM801 741q16 111 -54.5 187t-193.5 76q-119 0 -209 -76t-106.5 -186.5t53 -187.5t188.5 -77q123 0 214.5 75.5t107.5 188.5zM772 -76q-4 74 -69.5 104.5t-204.5 30.5h-248q-78 -18 -125 -74.5t-57 -127.5q-14 -100 79 -162t228 -62q195 0 300 82t97 209z" glyph-name="gcommaaccent" horiz-adv-x="1056" unicode="ģ"/><glyph d="M1681 1163h-145l-162 -1163h-137l98 707h-878l-99 -707h-139l162 1163h-148l11 68h147l43 305h139l-43 -305h879l43 305h137l-43 -305h146zM1399 1163h-879l-45 -332h879z" glyph-name="Hbar" horiz-adv-x="1775" unicode="Ħ"/><glyph d="M811 1139q184 0 281.5 -113t70.5 -297l-102 -729h-148l101 715q18 133 -52.5 213t-205.5 80q-141 0 -259 -85t-137 -214l-98 -709h-147l172 1229h-76l14 100h76l29 205h147l-28 -205h354l-15 -100h-354l-39 -275q72 84 185.5 134.5t230.5 50.5z" glyph-name="hbar" horiz-adv-x="1249" unicode="ħ"/><glyph d="M528 1729q-119 0 -168 108q-33 68 -98 68q-51 0 -86 -44t-39 -114h-90q4 106 68.5 176t154.5 70q117 0 170 -109q33 -68 99 -67q51 0 85.5 44t37.5 111h88q-2 -106 -66 -174.5t-156 -68.5zM287 1536h139l-215 -1536h-139z" glyph-name="Itilde" horiz-adv-x="466" unicode="Ĩ"/><glyph d="M457 1217q-119 0 -168 108q-33 68 -99 68q-51 0 -85.5 -44t-38.5 -114h-91q4 106 69 176t155 70q115 0 170 -109q33 -68 98 -67q51 0 86 43t37 112h88q-2 -106 -65.5 -174.5t-155.5 -68.5zM215 1024h135l-143 -1024h-135z" glyph-name="itilde" horiz-adv-x="462" unicode="ĩ"/><glyph d="M82 1849h637l-14 -94h-637zM287 1536h139l-215 -1536h-139z" glyph-name="Imacron" horiz-adv-x="466" unicode="Ī"/><glyph d="M6 1337h637l-12 -94h-637zM215 1024h135l-143 -1024h-135z" glyph-name="imacron" horiz-adv-x="462" unicode="ī"/><glyph d="M266 -432q-121 -104 -278 -100q-100 4 -151.5 59t-39.5 149q27 172 285 324h-10l215 1536h139l-215 -1536h-12q-104 -43 -195.5 -128t-105.5 -183q-8 -63 23.5 -102.5t98.5 -39.5q117 0 209 88z" glyph-name="Iogonek" horiz-adv-x="466" unicode="Į"/><glyph d="M309 1219q-41 0 -66.5 29.5t-19.5 70.5t40 70.5t75 29.5t66.5 -29.5t19.5 -70.5t-40 -70.5t-75 -29.5zM264 -432q-121 -104 -278 -100q-100 4 -151.5 59t-39.5 149q27 172 285 324h-8l143 1024h135l-143 -1024h-10q-104 -43 -195.5 -128t-105.5 -183q-8 -63 23.5 -102.5 t98.5 -39.5q117 0 209 88z" glyph-name="iogonek" horiz-adv-x="462" unicode="į"/><glyph d="M383 1731q-41 0 -66.5 29.5t-19.5 70.5t40 70.5t75 29.5t66.5 -29.5t19.5 -70.5t-40 -70.5t-75 -29.5zM287 1536h139l-215 -1536h-139z" glyph-name="Idotaccent" horiz-adv-x="466" unicode="İ"/><glyph d="M215 1024h135l-143 -1024h-135z" glyph-name="dotlessi" horiz-adv-x="462" unicode="ı"/><glyph d="M424 1536h139l-215 -1536h-139zM862 -20q-88 0 -151 18l20 143q63 -23 152 -22q80 0 146.5 57t76.5 139l172 1221h137l-172 -1221q-20 -139 -131 -237t-250 -98z" glyph-name="IJ" horiz-adv-x="1460" unicode="Ĳ"/><glyph d="M1143 1339q-41 0 -65.5 30t-20.5 71q6 41 39.5 69.5t72.5 28.5t65 -29.5t19 -68.5q-4 -41 -37.5 -71t-72.5 -30zM428 1219q-41 0 -66.5 29.5t-19.5 70.5t40 70.5t75 29.5t66.5 -29.5t19.5 -70.5t-40 -70.5t-75 -29.5zM610 -506l19 129h45q92 0 129 45t49 127l186 1331 h138l-189 -1351q-37 -281 -332 -281h-45zM334 1024h135l-143 -1024h-136z" glyph-name="ij" horiz-adv-x="1355" unicode="ĳ"/><glyph d="M936 0l-666 717l-100 -717h-139l215 1536h139l-104 -743l796 741h180l-839 -774l694 -760h-176zM426 -348q-29 10 -44 36.5t-11 59.5q6 41 38.5 70.5t75.5 29.5q41 0 64.5 -29.5t17.5 -70.5t-45 -103.5t-76 -103.5l-34 -43h-43z" glyph-name="Kcommaaccent" horiz-adv-x="1206" unicode="Ķ"/><glyph d="M33 0l215 1536h147l-129 -922l514 512h187l-561 -536l479 -590h-185l-444 549l-76 -549h-147zM340 -348q-29 10 -44 36.5t-11 59.5q6 41 38.5 70.5t75.5 29.5q41 0 64.5 -29.5t17.5 -70.5t-45 -103.5t-76 -103.5l-34 -43h-43z" glyph-name="kcommaaccent" horiz-adv-x="980" unicode="ķ"/><glyph d="M563 2048h142l-259 -307h-114zM287 1536h139l-199 -1411h580l-16 -125h-719z" glyph-name="Lacute" horiz-adv-x="929" unicode="Ĺ"/><glyph d="M559 2048h141l-258 -307h-114zM102 0l217 1536h138l-215 -1536h-140z" glyph-name="lacute" horiz-adv-x="626" unicode="ĺ"/><glyph d="M287 1536h139l-199 -1411h580l-16 -125h-719zM344 -348q-29 10 -44 36.5t-11 59.5q6 41 38.5 70.5t75.5 29.5q41 0 65 -29.5t17.5 -70.5t-45.5 -103.5t-75 -103.5l-35 -43h-43z" glyph-name="Lcommaaccent" horiz-adv-x="929" unicode="Ļ"/><glyph d="M102 0l217 1536h138l-215 -1536h-140zM106 -352q-63 25 -53 96q6 41 39 70.5t76 29.5q41 0 64.5 -29.5t17.5 -70.5t-45 -103.5t-74 -103.5l-37 -43h-43z" glyph-name="lcommaaccent" horiz-adv-x="626" unicode="ļ"/><glyph d="M287 1536h139l-199 -1411h580l-16 -125h-719zM864 1339q-66 25 -55 97q6 41 39 70.5t76 29.5q41 0 64.5 -29.5t17 -70.5t-45 -103.5t-75.5 -103.5l-35 -43h-43z" glyph-name="Lcaron" horiz-adv-x="956" unicode="Ľ"/><glyph d="M692 1346q-66 27 -53 96q4 41 37 70.5t76 29.5q41 0 64.5 -28.5t19.5 -71.5q-6 -41 -46 -103.5t-77 -105.5l-35 -41h-43zM102 0l217 1536h138l-215 -1536h-140z" glyph-name="lcaron" horiz-adv-x="808" unicode="ľ"/><glyph d="M102 0l217 1536h138l-215 -1536h-140zM581.5 653q-34.5 0 -55 24.5t-16.5 59.5q4 33 32.5 58.5t63.5 25.5q33 0 54.5 -24.5t17.5 -59.5t-33 -59.5t-63.5 -24.5z" glyph-name="ldot" horiz-adv-x="770" unicode="ŀ"/><glyph d="M807 125l-16 -125h-719l88 639l-131 -121h-109l258 240l109 778h139l-88 -631l129 123h115l-260 -242l-95 -661h580z" glyph-name="Lslash" horiz-adv-x="929" unicode="Ł"/><glyph d="M612 995l-254 -233l-12 -10l-104 -752h-140l86 602l-129 -117h-108l254 236l114 815h138l-95 -666l13 11l123 114h114z" glyph-name="lslash" horiz-adv-x="626" unicode="ł"/><glyph d="M991 1741h-114l231 307h141zM1526 1536l-215 -1536h-125l-793 1303l-182 -1303h-139l215 1536h125l794 -1303l183 1303h137z" glyph-name="Nacute" horiz-adv-x="1566" unicode="Ń"/><glyph d="M741 1229h-114l231 307h141zM723 1139q180 0 274.5 -113t67.5 -299l-100 -727h-144l101 715q18 133 -51.5 213t-200.5 80q-139 0 -255 -85t-134 -214l-99 -709h-143l158 1126h120l-6 -178q70 86 182.5 138.5t229.5 52.5z" glyph-name="nacute" horiz-adv-x="1191" unicode="ń"/><glyph d="M1526 1536l-215 -1536h-125l-793 1303l-182 -1303h-139l215 1536h125l794 -1303l183 1303h137zM623 -352q-63 25 -54 96q6 41 39 70.5t76 29.5q41 0 64.5 -29.5t17.5 -70.5t-45 -103.5t-74 -103.5l-37 -43h-43z" glyph-name="Ncommaaccent" horiz-adv-x="1566" unicode="Ņ"/><glyph d="M723 1139q180 0 274.5 -113t67.5 -299l-100 -727h-144l101 715q18 133 -51.5 213t-200.5 80q-139 0 -255 -85t-134 -214l-99 -709h-143l158 1126h120l-6 -178q70 86 182.5 138.5t229.5 52.5zM420 -352q-63 25 -53 96q6 41 38.5 70.5t75.5 29.5q41 0 64.5 -29.5 t17.5 -70.5t-45 -103.5t-76 -103.5l-34 -43h-43z" glyph-name="ncommaaccent" horiz-adv-x="1191" unicode="ņ"/><glyph d="M850 1698l-156 350h111l129 -272l205 272h110l-254 -350h-145zM1526 1536l-215 -1536h-125l-793 1303l-182 -1303h-139l215 1536h125l794 -1303l183 1303h137z" glyph-name="Ncaron" horiz-adv-x="1566" unicode="Ň"/><glyph d="M600 1186l-156 350h111l129 -272l205 272h110l-254 -350h-145zM723 1139q180 0 274.5 -113t67.5 -299l-100 -727h-144l101 715q18 133 -51.5 213t-200.5 80q-139 0 -255 -85t-134 -214l-99 -709h-143l158 1126h120l-6 -178q70 86 182.5 138.5t229.5 52.5z" glyph-name="ncaron" horiz-adv-x="1191" unicode="ň"/><glyph d="M1548 1536l-239 -1708q-16 -111 -100.5 -167t-198.5 -52l12 98q131 -12 149 121l27 197l-782 1271l-183 -1296h-133l215 1536h119l799 -1296l182 1296h133z" glyph-name="Eng" horiz-adv-x="1617" unicode="Ŋ"/><glyph d="M723 1139q180 0 274.5 -113t67.5 -299l-100 -727h-25l-27 -178q-14 -111 -99 -167t-202 -52l15 96q135 -8 151 123l27 188h18l99 705q18 133 -51.5 213t-200.5 80q-139 0 -255 -85t-134 -214l-99 -709h-143l158 1126h120l-6 -178q70 86 182.5 138.5t229.5 52.5z" glyph-name="eng" horiz-adv-x="1230" unicode="ŋ"/><glyph d="M711 1849h635l-15 -94h-635zM762 -20q-324 0 -505 228t-134 560t291.5 560t568.5 228q322 0 504 -229t135 -559q-47 -332 -292.5 -560t-567.5 -228zM780.5 113q270.5 0 470 189.5t238.5 465.5q39 279 -107.5 468t-417 189t-471 -189t-239.5 -468q-39 -276 108.5 -465.5 t418 -189.5z" glyph-name="Omacron" horiz-adv-x="1716" unicode="Ō"/><glyph d="M356 1337h635l-12 -94h-635zM481 -20q-217 0 -332.5 153.5t-82.5 378.5q31 225 190.5 378.5t374.5 153.5q217 0 333.5 -153.5t86.5 -378.5q-33 -225 -193 -378.5t-377 -153.5zM497.5 100q161.5 0 278.5 119t142 293q25 176 -58.5 294t-245 118t-278.5 -118t-139 -294 q-25 -174 57 -293t243.5 -119z" glyph-name="omacron" horiz-adv-x="1157" unicode="ō"/><glyph d="M1147 2048h135l-383 -354h-106zM1468 2048h134l-381 -354h-109zM762 -20q-324 0 -505 228t-134 560t291.5 560t568.5 228q322 0 504 -229t135 -559q-47 -332 -292.5 -560t-567.5 -228zM780.5 113q270.5 0 470 189.5t238.5 465.5q39 279 -107.5 468t-417 189t-471 -189 t-239.5 -468q-39 -276 108.5 -465.5t418 -189.5z" glyph-name="Ohungarumlaut" horiz-adv-x="1716" unicode="Ő"/><glyph d="M795 1536h135l-383 -354h-107zM1116 1536h133l-381 -354h-108zM481 -20q-217 0 -332.5 153.5t-82.5 378.5q31 225 190.5 378.5t374.5 153.5q217 0 333.5 -153.5t86.5 -378.5q-33 -225 -193 -378.5t-377 -153.5zM497.5 100q161.5 0 278.5 119t142 293q25 176 -58.5 294 t-245 118t-278.5 -118t-139 -294q-25 -174 57 -293t243.5 -119z" glyph-name="ohungarumlaut" horiz-adv-x="1157" unicode="ő"/><glyph d="M2507 1413h-791l-82 -582h705l-19 -124h-704l-82 -582h790l-16 -125h-930l37 268q-127 -133 -297 -209.5t-350 -76.5q-328 0 -525.5 230t-152.5 558q31 215 162 396.5t327.5 287t411.5 105.5q180 0 326.5 -76t238.5 -209l37 262h930zM786 115q203 0 384.5 112.5 t281.5 294.5l70 496q-49 182 -198.5 294.5t-352.5 112.5q-274 0 -491.5 -191.5t-256.5 -463.5q-37 -272 127 -463.5t436 -191.5z" glyph-name="OE" horiz-adv-x="2650" unicode="Œ"/><glyph d="M1563 1133q229 0 342.5 -157t79.5 -407q-2 -16 -11 -57h-872q-25 -186 72.5 -292.5t234.5 -108.5q141 -2 235.5 58t133.5 157h129q-14 -49 -48 -102.5t-92.5 -109t-152.5 -90t-207 -34.5q-162 2 -270.5 84t-147.5 223l-6 -39q-84 -129 -214 -203.5t-282 -74.5 q-231 0 -355 168.5t-89 416.5q37 248 208 417t402 169q152 0 259.5 -75t156.5 -204l-6 -38q80 139 209 219t291 80zM954 565q29 193 -59 323t-262 130q-172 0 -296 -130t-153 -323q-27 -193 61.5 -322.5t260.5 -129.5q174 0 297.5 129.5t150.5 322.5zM1862 629 q8 172 -73 275.5t-241 103.5q-162 0 -273.5 -103.5t-154.5 -275.5h742z" glyph-name="oe" horiz-adv-x="2082" unicode="œ"/><glyph d="M819 1741h-114l231 307h141zM1083 0h-155l-307 659h-400l-92 -659h-139l215 1536h616q174 0 279.5 -133t81.5 -311q-23 -158 -145 -282t-275 -144zM711 776q123 0 224 96.5t120 223.5q16 125 -58.5 221t-195.5 96h-473l-90 -637h473z" glyph-name="Racute" horiz-adv-x="1185" unicode="Ŕ"/><glyph d="M520 1229h-114l231 307h141zM758 1137l-21 -123q-168 16 -298 -82t-156 -281l-90 -651h-148l158 1126h127l-11 -223q39 70 82 117t137.5 85t219.5 32z" glyph-name="racute" horiz-adv-x="774" unicode="ŕ"/><glyph d="M1083 0h-155l-307 659h-400l-92 -659h-139l215 1536h616q174 0 279.5 -133t81.5 -311q-23 -158 -145 -282t-275 -144zM711 776q123 0 224 96.5t120 223.5q16 125 -58.5 221t-195.5 96h-473l-90 -637h473zM436 -344q-66 27 -53 96q4 41 37 71t76 30q41 0 64.5 -29 t19.5 -72q-6 -41 -46 -103.5t-75 -103.5l-37 -43h-43z" glyph-name="Rcommaaccent" horiz-adv-x="1185" unicode="Ŗ"/><glyph d="M758 1137l-21 -123q-168 16 -298 -82t-156 -281l-90 -651h-148l158 1126h127l-11 -223q39 70 82 117t137.5 85t219.5 32zM55 -346q-29 10 -44 36.5t-11 59.5q6 41 39 70.5t76 29.5q41 0 64.5 -29.5t17 -70.5t-45 -103.5t-73.5 -105.5l-37 -41h-43z" glyph-name="rcommaaccent" horiz-adv-x="774" unicode="ŗ"/><glyph d="M678 1698l-156 350h111l129 -272l205 272h110l-254 -350h-145zM1083 0h-155l-307 659h-400l-92 -659h-139l215 1536h616q174 0 279.5 -133t81.5 -311q-23 -158 -145 -282t-275 -144zM711 776q123 0 224 96.5t120 223.5q16 125 -58.5 221t-195.5 96h-473l-90 -637h473z " glyph-name="Rcaron" horiz-adv-x="1185" unicode="Ř"/><glyph d="M399 1186l-155 350h110l129 -272l205 272h111l-254 -350h-146zM758 1137l-21 -123q-168 16 -298 -82t-156 -281l-90 -651h-148l158 1126h127l-11 -223q39 70 82 117t137.5 85t219.5 32z" glyph-name="rcaron" horiz-adv-x="774" unicode="ř"/><glyph d="M1053 2046h141l-258 -307h-115zM494 -20q-227 0 -361.5 129t-124.5 307h148q2 -125 91 -214t267 -89t302 78.5t147 224.5q8 57 -8.5 103t-46 77t-83 58.5t-98.5 45t-111 39.5q-29 10 -43 15q-88 31 -133 49t-114.5 56t-102.5 75t-54.5 96.5t-10.5 130.5q18 127 107 220.5 t206 134t244 40.5q242 0 357.5 -108.5t119.5 -286.5h-125q0 113 -95 194t-274 81q-88 0 -171 -27t-148.5 -88t-77.5 -150q-8 -57 13.5 -102t76.5 -82t98 -57.5t125 -52.5q27 -10 41 -17q25 -10 74 -29q66 -25 99.5 -40t91 -43.5t86 -56t59.5 -67.5t40 -90.5t1 -111.5 q-20 -137 -113.5 -239.5t-223.5 -152.5t-275 -50z" glyph-name="Sacute" horiz-adv-x="1273" unicode="Ś"/><glyph d="M750 1536h141l-258 -307h-115zM387 -18q-203 0 -296 105.5t-83 231.5h129q0 -82 76 -152.5t190.5 -70.5t201.5 62.5t100 158.5q14 98 -58 146.5t-215 73.5q-100 16 -166.5 42.5t-113 90t-31.5 159.5q18 143 144 227.5t280 84.5q362 0 356 -305h-123q-4 98 -76.5 141 t-148.5 45q-104 4 -187 -41t-96 -133q-14 -92 53.5 -133t198.5 -62q72 -12 129.5 -31.5t111.5 -55.5t78.5 -96t12.5 -142q-20 -145 -154.5 -245.5t-312.5 -100.5z" glyph-name="sacute" horiz-adv-x="958" unicode="ś"/><glyph d="M655 860q25 -10 74 -29q66 -25 99.5 -40t91 -43.5t86 -56t59.5 -67.5t40 -90.5t1 -111.5q-29 -193 -190.5 -310.5t-372.5 -129.5l-72 -123q113 20 181.5 -33t54.5 -152q-12 -86 -80 -145t-154 -59q-66 0 -128 34.5t-89 85.5l72 33q23 -35 66.5 -57.5t88.5 -22.5 q55 0 97.5 38t50.5 93q10 78 -48.5 109t-154.5 -2l-57 45l96 154q-217 8 -343 135t-116 301h148q2 -125 91 -214t267 -89t302 78.5t147 224.5q8 57 -8.5 103t-46 77t-83 58.5t-98.5 45t-111 39.5q-29 10 -43 15q-88 31 -133 49t-114.5 56t-102.5 75t-54.5 96.5t-10.5 130.5 q18 127 107 220.5t206 134t244 40.5q242 0 357.5 -108.5t119.5 -286.5h-125q0 113 -95 194t-274 81q-88 0 -171 -27t-148.5 -88t-77.5 -150q-8 -57 13.5 -102t76.5 -82t98 -57.5t125 -52.5q27 -11 41 -17z" glyph-name="Scedilla" horiz-adv-x="1273" unicode="Ş"/><glyph d="M387 -18q-203 0 -296 105.5t-83 231.5h129q0 -82 76 -152.5t190.5 -70.5t201.5 62.5t100 158.5q14 98 -58 146.5t-215 73.5q-100 16 -166.5 42.5t-113 90t-31.5 159.5q18 143 144 227.5t280 84.5q362 0 356 -305h-123q-4 98 -76.5 141t-148.5 45q-104 4 -187 -41 t-96 -133q-14 -92 53.5 -133t198.5 -62q72 -12 129.5 -31.5t111.5 -55.5t78.5 -96t12.5 -142q-20 -145 -154.5 -245.5t-312.5 -100.5zM428 -18l-74 -125q113 20 181.5 -33t54.5 -152q-12 -86 -80 -145t-154 -59q-66 0 -128 34.5t-89 85.5l72 33q23 -35 67 -57.5t89 -22.5 q55 0 97 38t50 93q10 78 -49 109t-156 -2l-55 45l96 158h78z" glyph-name="scedilla" horiz-adv-x="958" unicode="ş"/><glyph d="M639 2046h111l129 -272l204 272h111l-254 -350h-145zM494 -20q-227 0 -361.5 129t-124.5 307h148q2 -125 91 -214t267 -89t302 78.5t147 224.5q8 57 -8.5 103t-46 77t-83 58.5t-98.5 45t-111 39.5q-29 10 -43 15q-88 31 -133 49t-114.5 56t-102.5 75t-54.5 96.5 t-10.5 130.5q18 127 107 220.5t206 134t244 40.5q242 0 357.5 -108.5t119.5 -286.5h-125q0 113 -95 194t-274 81q-88 0 -171 -27t-148.5 -88t-77.5 -150q-8 -57 13.5 -102t76.5 -82t98 -57.5t125 -52.5q27 -10 41 -17q25 -10 74 -29q66 -25 99.5 -40t91 -43.5t86 -56 t59.5 -67.5t40 -90.5t1 -111.5q-20 -137 -113.5 -239.5t-223.5 -152.5t-275 -50z" glyph-name="Scaron" horiz-adv-x="1273" unicode="Š"/><glyph d="M336 1536h110l129 -272l205 272h111l-254 -350h-145zM387 -18q-203 0 -296 105.5t-83 231.5h129q0 -82 76 -152.5t190.5 -70.5t201.5 62.5t100 158.5q14 98 -58 146.5t-215 73.5q-100 16 -166.5 42.5t-113 90t-31.5 159.5q18 143 144 227.5t280 84.5q362 0 356 -305h-123 q-4 98 -76.5 141t-148.5 45q-104 4 -187 -41t-96 -133q-14 -92 53.5 -133t198.5 -62q72 -12 129.5 -31.5t111.5 -55.5t78.5 -96t12.5 -142q-20 -145 -154.5 -245.5t-312.5 -100.5z" glyph-name="scaron" horiz-adv-x="958" unicode="š"/><glyph d="M1194 1413h-471l-199 -1411h-137l199 1411h-471l16 125h1079zM489 -532q-66 0 -128 34.5t-89 85.5l72 33q23 -35 67 -57.5t89 -22.5q55 0 97 38t50 93q10 78 -49 109t-156 -2l-55 45l111 176h75l-86 -143q113 20 181.5 -33t54.5 -152q-12 -86 -80 -145t-154 -59z" glyph-name="Tcommaaccent" horiz-adv-x="1052" unicode="Ţ"/><glyph d="M414 -2q-295 0 -254 281l104 737h-172l17 114h172l57 406h143l-57 -406h252l-17 -116l-258 2l-100 -717q-4 -47 -4 -85t32.5 -62.5t102.5 -24.5h119l-19 -129h-118zM307 -143q113 20 181.5 -33t54.5 -152q-12 -86 -80 -145t-154 -59q-66 0 -128 34.5t-89 85.5l72 33 q23 -35 66.5 -57.5t88.5 -22.5q55 0 97.5 38t50.5 93q10 78 -49.5 109t-155.5 -2l-55 45l98 160l76 -4z" glyph-name="tcommaaccent" horiz-adv-x="657" unicode="ţ"/><glyph d="M696 1698l-155 350h110l129 -272l205 272h111l-254 -350h-146zM1194 1413h-471l-199 -1411h-137l199 1411h-471l16 125h1079z" glyph-name="Tcaron" horiz-adv-x="1052" unicode="Ť"/><glyph d="M641 1372q-29 10 -44 37t-11 59q6 41 38.5 71t75.5 30q41 0 64.5 -30t17.5 -71t-45 -103t-73 -103l-37 -43h-43zM414 -2q-295 0 -254 281l104 737h-172l17 114h172l57 406h143l-57 -406h252l-17 -116l-258 2l-100 -717q-4 -47 -4 -85t32.5 -62.5t102.5 -24.5h119 l-19 -129h-118z" glyph-name="tcaron" horiz-adv-x="706" unicode="ť"/><glyph d="M1194 1413h-471l-84 -594h301l-14 -100h-301l-101 -717h-137l100 717h-139l14 100h140l84 594h-471l16 125h1079z" glyph-name="Tbar" horiz-adv-x="1052" unicode="Ŧ"/><glyph d="M659 1014l-258 2l-63 -455h278l-14 -100h-278l-23 -162q-4 -47 -4 -85t32.5 -62.5t102.5 -24.5h119l-19 -129h-118q-295 0 -254 281l26 182h-161l14 100h162l63 455h-172l17 114h172l57 406h143l-57 -406h252z" glyph-name="tbar" horiz-adv-x="657" unicode="ŧ"/><glyph d="M1034 1729q-119 0 -168 108q-33 68 -98 68q-53 0 -87 -44t-36 -114h-90q4 106 67.5 176t153.5 70q117 0 170 -109q33 -68 98 -67q51 0 86 44t37 111h88q-2 -106 -65.5 -174.5t-155.5 -68.5zM559.5 -20q-237.5 0 -383 153.5t-115.5 372.5l146 1030h139l-141 -1010 q-25 -174 84.5 -298t288.5 -124q182 0 333.5 124t175.5 298l142 1010h137l-145 -1030q-31 -217 -227.5 -371.5t-434 -154.5z" glyph-name="Utilde" horiz-adv-x="1474" unicode="Ũ"/><glyph d="M590 1849h635l-15 -94h-635zM559.5 -20q-237.5 0 -383 153.5t-115.5 372.5l146 1030h139l-141 -1010q-25 -174 84.5 -298t288.5 -124q182 0 333.5 124t175.5 298l142 1010h137l-145 -1030q-31 -217 -227.5 -371.5t-434 -154.5z" glyph-name="Umacron" horiz-adv-x="1474" unicode="Ū"/><glyph d="M1001 1243h-634l12 94h635zM1122 1126l-157 -1126h-127l8 180q-72 -86 -185.5 -139t-226.5 -53q-184 0 -284.5 117.5t-75.5 300.5l102 720h148l-99 -704q-20 -135 51.5 -219t206.5 -84q139 0 258 86t138 217l98 704h145z" glyph-name="umacron" horiz-adv-x="1198" unicode="ū"/><glyph d="M881 1661q-82 0 -132.5 58.5t-39.5 138.5q12 82 78.5 140t148.5 58q80 0 129 -58.5t37 -139.5q-10 -80 -75.5 -138.5t-145.5 -58.5zM889 1731q53 0 95 36.5t50 90t-24.5 92.5t-83.5 39q-53 0 -96.5 -39t-51.5 -92.5t25 -90t86 -36.5zM559.5 -20q-237.5 0 -383 153.5 t-115.5 372.5l146 1030h139l-141 -1010q-25 -174 84.5 -298t288.5 -124q182 0 333.5 124t175.5 298l142 1010h137l-145 -1030q-31 -217 -227.5 -371.5t-434 -154.5z" glyph-name="Uring" horiz-adv-x="1474" unicode="Ů"/><glyph d="M670 1149q-82 0 -131.5 58.5t-38.5 138.5q10 82 77.5 140t149.5 58q80 0 128 -58.5t38 -139.5q-10 -80 -76.5 -138.5t-146.5 -58.5zM717 1477q-53 0 -96 -39t-51.5 -92.5t24.5 -90t86 -36.5t95 36.5t50.5 90t-24.5 92.5t-84 39zM1122 1126l-157 -1126h-127l8 180 q-72 -86 -185.5 -139t-226.5 -53q-184 0 -284.5 117.5t-75.5 300.5l102 720h148l-99 -704q-20 -135 51.5 -219t206.5 -84q139 0 258 86t138 217l98 704h145z" glyph-name="uring" horiz-adv-x="1198" unicode="ů"/><glyph d="M1026 2048h135l-383 -354h-106zM1348 2048h133l-381 -354h-109zM559.5 -20q-237.5 0 -383 153.5t-115.5 372.5l146 1030h139l-141 -1010q-25 -174 84.5 -298t288.5 -124q182 0 333.5 124t175.5 298l142 1010h137l-145 -1030q-31 -217 -227.5 -371.5t-434 -154.5z" glyph-name="Uhungarumlaut" horiz-adv-x="1474" unicode="Ű"/><glyph d="M569 1182h-106l354 354h135zM782 1182l357 354h133l-381 -354h-109zM1122 1126l-157 -1126h-127l8 180q-72 -86 -185.5 -139t-226.5 -53q-184 0 -284.5 117.5t-75.5 300.5l102 720h148l-99 -704q-20 -135 51.5 -219t206.5 -84q139 0 258 86t138 217l98 704h145z" glyph-name="uhungarumlaut" horiz-adv-x="1198" unicode="ű"/><glyph d="M559.5 -20q-237.5 0 -383 153.5t-115.5 372.5l146 1030h139l-141 -1010q-25 -174 84.5 -298t288.5 -124q182 0 333.5 124t175.5 298l142 1010h137l-145 -1030q-31 -217 -227.5 -371.5t-434 -154.5zM799 2q-96 -47 -175 -128t-92 -171q-8 -63 24 -102t99 -39q117 0 209 88 l37 -68q-121 -104 -278 -100q-100 2 -150.5 58.5t-38.5 150.5q23 156 228 291z" glyph-name="Uogonek" horiz-adv-x="1474" unicode="Ų"/><glyph d="M766 -453q117 0 209 88l37 -67q-121 -104 -279 -100q-100 2 -150.5 58t-37.5 150q27 178 274 324h19l8 180q-72 -86 -185.5 -139t-226.5 -53q-184 0 -284.5 117.5t-75.5 300.5l102 720h148l-99 -704q-20 -135 51.5 -219t206.5 -84q139 0 258 86t138 217l98 704h145 l-157 -1126h-23q-104 -43 -194.5 -128t-104.5 -183q-8 -63 23.5 -102.5t99.5 -39.5z" glyph-name="uogonek" horiz-adv-x="1198" unicode="ų"/><glyph d="M1055 1698h-115l254 350h145l156 -350h-115l-123 280zM2122 1536l-701 -1536h-170l-153 1264l-512 -1264h-170l-273 1536h150l223 -1370l555 1370h143l152 -1372l606 1372h150z" glyph-name="Wcircumflex" horiz-adv-x="2142" unicode="Ŵ"/><glyph d="M659 1186h-114l254 350h145l156 -350h-115l-123 280zM1653 1116l-492 -1116h-164l-125 942l-383 -942h-161l-183 1116h162l135 -938l381 938h156l115 -944l399 944h160z" glyph-name="wcircumflex" horiz-adv-x="1435" unicode="ŵ"/><glyph d="M635 1698h-115l254 350h146l155 -350h-114l-123 280zM731 729l-102 -729h-137l100 725l-422 811h156l352 -688l547 688h153z" glyph-name="Ycircumflex" horiz-adv-x="1302" unicode="Ŷ"/><glyph d="M451 1186h-115l254 350h145l156 -350h-115l-123 280zM1135 1126l-897 -1638h-138l318 573h-43l-295 1065h147l260 -936l498 936h150z" glyph-name="ycircumflex" horiz-adv-x="1200" unicode="ŷ"/><glyph d="M625 1731q-41 0 -67 29.5t-19.5 70.5t40 70.5t74.5 29.5t66.5 -29.5t19.5 -70.5t-39.5 -70.5t-74.5 -29.5zM983 1731q-41 0 -66.5 29.5t-19.5 70.5t40 70.5t75 29.5t65.5 -29.5t18.5 -70.5t-39 -70.5t-74 -29.5zM731 729l-102 -729h-137l100 725l-422 811h156l352 -688 l547 688h153z" glyph-name="Ydieresis" horiz-adv-x="1302" unicode="Ÿ"/><glyph d="M893 1741h-115l232 307h141zM1180 125l-17 -125h-1159l8 70l1123 1343h-910l17 123h1101l-10 -70l-1120 -1341h967z" glyph-name="Zacute" horiz-adv-x="1353" unicode="Ź"/><glyph d="M807 1536h141l-258 -307h-115zM6 90l793 819h-662l17 115h845l-12 -84l-794 -825h698l-14 -115h-883z" glyph-name="zacute" horiz-adv-x="1054" unicode="ź"/><glyph d="M829 1731q-41 0 -66.5 29.5t-19 70.5t40 70.5t74.5 29.5t66.5 -29.5t19.5 -70.5t-40 -70.5t-75 -29.5zM1180 125l-17 -125h-1159l8 70l1123 1343h-910l17 123h1101l-10 -70l-1120 -1341h967z" glyph-name="Zdotaccent" horiz-adv-x="1353" unicode="Ż"/><glyph d="M627 1219q-41 0 -66.5 29.5t-19.5 70.5t39.5 70.5t74.5 29.5t67 -29.5t19.5 -70.5t-40 -70.5t-74.5 -29.5zM6 90l793 819h-662l17 115h845l-12 -84l-794 -825h698l-14 -115h-883z" glyph-name="zdotaccent" horiz-adv-x="1054" unicode="ż"/><glyph d="M752 1698l-156 350h111l129 -272l204 272h111l-254 -350h-145zM1180 125l-17 -125h-1159l8 70l1123 1343h-910l17 123h1101l-10 -70l-1120 -1341h967z" glyph-name="Zcaron" horiz-adv-x="1353" unicode="Ž"/><glyph d="M393 1536h111l129 -272l205 272h110l-254 -350h-145zM6 90l793 819h-662l17 115h845l-12 -84l-794 -825h698l-14 -115h-883z" glyph-name="zcaron" horiz-adv-x="1054" unicode="ž"/><glyph d="M809 1454q-76 0 -141.5 -52t-89.5 -134l-74 -244h291l-31 -106h-291l-430 -1430h-123l428 1430h-170l31 106h172l78 262q33 115 136 192.5t220 77.5q78 0 121 -34l-27 -105q-37 37 -100 37z" glyph-name="florin" horiz-adv-x="856" unicode="ƒ"/><glyph d="M813 1698l-156 350h111l129 -272l205 272h110l-254 -350h-145zM1100 401h-762l-213 -401h-152l832 1536h153l402 -1536h-152zM1077 526l-217 865l-457 -865h674z" glyph-name="uni01CD" horiz-adv-x="1480" unicode="Ǎ"/><glyph d="M506 1186l-156 350h111l129 -272l205 272h110l-254 -350h-145zM342 -8q-162 0 -257 92t-75 233q49 334 516 365l297 18l6 43q18 135 -53 206t-211 71q-123 0 -211 -69.5t-114 -176.5h-140q37 152 164 260.5t324 108.5q201 0 300 -109.5t73 -296.5l-62 -461 q-14 -90 -1 -125.5t60 -33.5l-16 -117q-29 0 -57 6q-137 29 -127 170q-57 -78 -173 -131t-243 -53zM367 117q145 0 272 88t143 203l23 170l-295 -21q-338 -23 -369 -242q-12 -90 58 -144t168 -54z" glyph-name="uni01CE" horiz-adv-x="1097" unicode="ǎ"/><glyph d="M147 2048h113l129 -272l205 272h111l-254 -350h-146zM287 1536h139l-215 -1536h-139z" glyph-name="uni01CF" horiz-adv-x="466" unicode="Ǐ"/><glyph d="M74 1536h112l129 -272l205 272h111l-254 -350h-146zM215 1024h135l-143 -1024h-135z" glyph-name="uni01D0" horiz-adv-x="462" unicode="ǐ"/><glyph d="M776 2048h111l129 -272l205 272h110l-254 -350h-145zM762 -20q-324 0 -505 228t-134 560t291.5 560t568.5 228q322 0 504 -229t135 -559q-47 -332 -292.5 -560t-567.5 -228zM780.5 113q270.5 0 470 189.5t238.5 465.5q39 279 -107.5 468t-417 189t-471 -189t-239.5 -468 q-39 -276 108.5 -465.5t418 -189.5z" glyph-name="uni01D1" horiz-adv-x="1716" unicode="Ǒ"/><glyph d="M424 1536h111l129 -272l204 272h111l-254 -350h-145zM481 -20q-217 0 -332.5 153.5t-82.5 378.5q31 225 190.5 378.5t374.5 153.5q217 0 333.5 -153.5t86.5 -378.5q-33 -225 -193 -378.5t-377 -153.5zM497.5 100q161.5 0 278.5 119t142 293q25 176 -58.5 294t-245 118 t-278.5 -118t-139 -294q-25 -174 57 -293t243.5 -119z" glyph-name="uni01D2" horiz-adv-x="1157" unicode="ǒ"/><glyph d="M655 2048h111l129 -272l205 272h110l-254 -350h-145zM641 -20q-238 0 -381 153.5t-113 372.5l146 1030h139l-141 -1010q-25 -176 82.5 -299t285.5 -123q180 0 322.5 123t167.5 299l141 1010h137l-145 -1030q-31 -219 -217 -372.5t-424 -153.5z" glyph-name="uni01D3" horiz-adv-x="1474" unicode="Ǔ"/><glyph d="M602 1186l-156 350h111l129 -272l205 272h110l-253 -350h-146zM1122 1126l-157 -1126h-127l8 180q-72 -86 -185.5 -139t-226.5 -53q-184 0 -284.5 117.5t-75.5 300.5l102 720h148l-99 -704q-20 -135 51.5 -219t206.5 -84q139 0 258 86t138 217l98 704h145z" glyph-name="uni01D4" horiz-adv-x="1198" unicode="ǔ"/><glyph d="M934 1698l-156 350h111l129 -272l205 272h110l-254 -350h-145zM1432 772l-19 -119l-90 -653h-94l2 262q-104 -139 -236.5 -205.5t-335.5 -66.5q-217 0 -365.5 113.5t-204.5 286.5t-28 374q49 348 275.5 570t537.5 222q250 0 405 -125.5t161 -347.5h-131q-27 170 -153 256 t-294 86q-264 0 -447.5 -183t-224.5 -478q-41 -287 100.5 -466t383.5 -179q274 0 423.5 142t184.5 386h-438l18 125h570z" glyph-name="Gcaron" horiz-adv-x="1507" unicode="Ǧ"/><glyph d="M594 1186l-156 350h111l129 -272l205 272h110l-254 -350h-145zM371 -492q-213 0 -342 94.5t-107 252.5q23 164 191 243q-2 2 -32 28t-41 39t-23.5 44t-8.5 63q8 61 49 103.5t115 89.5q-90 100 -68 276q25 166 156 277.5t311 111.5q131 0 234 -63q31 57 99.5 93t139.5 36 l-18 -131q-43 0 -81 -22.5t-54 -59.5q68 -111 47 -242q-23 -174 -153 -281.5t-322 -107.5q-152 0 -225 54q-41 -16 -64.5 -50t-19.5 -71q16 -104 178 -107l225 -2q344 -4 352 -250q4 -168 -140 -293t-398 -125zM801 741q16 111 -54.5 187t-193.5 76q-119 0 -209 -76 t-106.5 -186.5t53 -187.5t188.5 -77q123 0 214.5 75.5t107.5 188.5zM772 -76q-4 74 -69.5 104.5t-204.5 30.5h-248q-78 -18 -125 -74.5t-57 -127.5q-14 -100 79 -162t228 -62q195 0 300 82t97 209z" glyph-name="gcaron" horiz-adv-x="1224" unicode="ǧ"/><glyph d="M1073 1741h-115l232 307h141zM1436 1386q113 -111 163 -271.5t23 -346.5q-47 -332 -293 -560t-567 -228q-219 0 -383 114l-92 -110h-107l135 163q-117 109 -168 272t-24 349q47 332 291.5 560t568.5 228q225 0 389 -118l92 112h105zM254 768q-20 -156 18.5 -289 t130.5 -223l881 1073q-135 96 -319 96q-270 0 -471 -189t-240 -468zM780 113q270 0 470 189.5t239 465.5q45 319 -143 508l-877 -1073q131 -90 311 -90z" glyph-name="Oslashacute" horiz-adv-x="1716" unicode="Ǿ"/><glyph d="M721 1229h-115l232 307h141zM936 926q150 -156 115 -414q-33 -225 -193 -378.5t-377 -153.5q-150 0 -256 77l-98 -118h-78l131 157q-154 156 -114 416q31 225 190.5 378.5t374.5 153.5q152 0 260 -79l98 118h76zM197 512q-29 -190 71 -309l539 657q-80 63 -193 64 q-162 0 -278 -118t-139 -294zM498 100q162 0 278.5 119t141.5 293q25 190 -70 307l-537 -659q76 -60 187 -60z" glyph-name="oslashacute" horiz-adv-x="1157" unicode="ǿ"/><glyph d="M494 -20q-227 0 -361.5 129t-124.5 307h148q2 -125 91 -214t267 -89t302 78.5t147 224.5q8 57 -8.5 103t-46 77t-83 58.5t-98.5 45t-111 39.5q-29 10 -43 15q-88 31 -133 49t-114.5 56t-102.5 75t-54.5 96.5t-10.5 130.5q18 127 107 220.5t206 134t244 40.5 q242 0 357.5 -108.5t119.5 -286.5h-125q0 113 -95 194t-274 81q-88 0 -171 -27t-148.5 -88t-77.5 -150q-8 -57 13.5 -102t76.5 -82t98 -57.5t125 -52.5q27 -10 41 -17q25 -10 74 -29q66 -25 99.5 -40t91 -43.5t86 -56t59.5 -67.5t40 -90.5t1 -111.5q-20 -137 -113.5 -239.5 t-223.5 -152.5t-275 -50zM487 -350q-29 10 -44 36.5t-11 59.5q6 41 39 70.5t76 29.5q41 0 64.5 -29.5t17.5 -70.5t-45 -103.5t-76 -105.5l-35 -41h-43z" glyph-name="Scommaaccent" horiz-adv-x="1273" unicode="Ș"/><glyph d="M387 -18q-203 0 -296 105.5t-83 231.5h129q0 -82 76 -152.5t190.5 -70.5t201.5 62.5t100 158.5q14 98 -58 146.5t-215 73.5q-100 16 -166.5 42.5t-113 90t-31.5 159.5q18 143 144 227.5t280 84.5q362 0 356 -305h-123q-4 98 -76.5 141t-148.5 45q-104 4 -187 -41 t-96 -133q-14 -92 53.5 -133t198.5 -62q72 -12 129.5 -31.5t111.5 -55.5t78.5 -96t12.5 -142q-20 -145 -154.5 -245.5t-312.5 -100.5zM315 -342q-63 25 -53 96q4 41 38 71t77 30q41 0 64.5 -30t17.5 -71t-45 -103.5t-74 -105.5l-37 -41h-43z" glyph-name="scommaaccent" horiz-adv-x="958" unicode="ș"/><glyph d="M1194 1413h-471l-199 -1411h-137l199 1411h-471l16 125h1079zM434 -340q-63 25 -53 96q6 41 39 71t76 30q41 0 64.5 -30t17 -71t-45 -103.5t-73.5 -103.5l-37 -43h-43z" glyph-name="uni021A" horiz-adv-x="1052" unicode="Ț"/><glyph d="M414 -2q-295 0 -254 281l104 737h-172l17 114h172l57 406h143l-57 -406h252l-17 -116l-258 2l-100 -717q-4 -47 -4 -85t32.5 -62.5t102.5 -24.5h119l-19 -129h-118zM227 -340q-63 25 -53 96q6 41 39 71t76 30q41 0 64.5 -30t17.5 -71t-45 -103.5t-76 -103.5l-35 -43h-43z " glyph-name="uni021B" horiz-adv-x="657" unicode="ț"/><glyph d="M1135 1413h-791l-82 -582h705l-19 -124h-704l-82 -582h790l-16 -125h-414l-86 -143q113 20 181.5 -33t54.5 -152q-12 -86 -80 -145t-154 -59q-66 0 -128 34.5t-89 85.5l72 33q23 -35 66.5 -57.5t89.5 -22.5q55 0 97 38t50 93q10 78 -49.5 109t-155.5 -2l-55 45l110 176 h-440l215 1536h930z" glyph-name="uni0228" horiz-adv-x="1107" unicode="Ȩ"/><glyph d="M641 1133q229 0 343 -157t79 -407q-2 -16 -10 -57h-873q-25 -186 72.5 -292.5t234.5 -108.5q141 -2 235.5 58t133.5 157h129q-31 -113 -149.5 -219.5t-315.5 -116.5l-14 -10l-74 -123q113 20 181.5 -33t54.5 -152q-12 -86 -80 -145t-154 -59q-66 0 -128 34.5t-89 85.5 l72 33q23 -35 66.5 -57.5t88.5 -22.5q55 0 97.5 38t50.5 93q10 78 -49.5 109t-155.5 -2l-55 45l98 158q-23 8 -29 14q-193 31 -287 188.5t-63 376.5q35 248 196 410t394 162zM940 629q8 172 -73 275.5t-240 103.5q-162 0 -273.5 -103.5t-154.5 -275.5h741z" glyph-name="uni0229" horiz-adv-x="1124" unicode="ȩ"/><glyph d="M-78 -532q-80 0 -123 32l19 121q43 -39 108 -39q68 0 122 49.5t63 118.5l180 1274h135l-180 -1280q-16 -115 -110.5 -195.5t-213.5 -80.5z" glyph-name="uni0237" horiz-adv-x="571" unicode="ȷ"/><glyph d="M397 1536h146l155 -350h-114l-123 280l-203 -280h-115z" glyph-name="circumflex" horiz-adv-x="108" unicode="ˆ"/><glyph d="M193 1536h110l129 -272l205 272h111l-254 -350h-146z" glyph-name="caron" horiz-adv-x="108" unicode="ˇ"/><glyph d="M664 1165q-143 0 -225.5 84t-61.5 221h88q-14 -90 46 -153.5t164.5 -63.5t183.5 63.5t93 153.5h86q-20 -137 -124.5 -221t-249.5 -84z" glyph-name="breve" horiz-adv-x="108" unicode="˘"/><glyph d="M371 1219q-41 0 -66.5 29.5t-19.5 70.5t39.5 70.5t74.5 29.5t67 -29.5t19.5 -70.5t-40 -70.5t-74.5 -29.5z" glyph-name="dotaccent" horiz-adv-x="108" unicode="˙"/><glyph d="M248 1149q-82 0 -132 58.5t-40 138.5q10 82 77.5 140t151.5 58q80 0 128 -58.5t38 -139.5q-10 -80 -76.5 -138.5t-146.5 -58.5zM258 1219q53 0 95 36.5t50.5 90t-24.5 92.5t-84 39q-53 0 -96 -39t-51.5 -92.5t24.5 -90t86 -36.5z" glyph-name="ring" horiz-adv-x="108" unicode="˚"/><glyph d="M102 -532q-100 2 -150 58t-38 150q29 186 326 349l73 -25q-104 -43 -195 -128t-106 -183q-8 -63 24 -102.5t99 -39.5q117 0 209 88l37 -67q-121 -104 -279 -100z" glyph-name="ogonek" horiz-adv-x="108" unicode="˛"/><glyph d="M639 1278q-115 0 -168 108q-33 68 -98 68q-53 0 -87 -44t-34 -114h-90q2 106 65.5 176t153.5 70q117 0 170 -108q33 -68 98 -68q51 0 86 44t37 112h88q-2 -106 -65.5 -175t-155.5 -69z" glyph-name="tilde" horiz-adv-x="114" unicode="˜"/><glyph d="M498 1536h135l-383 -354h-107zM819 1536h133l-381 -354h-108z" glyph-name="hungarumlaut" horiz-adv-x="108" unicode="˝"/><glyph d="M-276 1536h141l145 -307h-114z" glyph-name="gravecomb" unicode="̀"/><glyph d="M-88 1536h141l-258 -307h-114z" glyph-name="acutecomb" unicode="́"/><glyph d="M-297 1536h145l156 -350h-115l-122 280l-203 -280h-115z" glyph-name="uni0302" unicode="̂"/><glyph d="M-174 1278q-115 0 -168 108q-33 68 -98 68q-53 0 -87 -44t-34 -114h-90q2 106 65.5 176t153.5 70q117 0 170 -108q33 -68 98 -68q51 0 86 44t37 112h88q-2 -106 -65.5 -175t-155.5 -69z" glyph-name="tildecomb" unicode="̃"/><glyph d="M-608 1337h635l-13 -94h-635z" glyph-name="uni0304" unicode="̄"/><glyph d="M-621 1165q-143 0 -225 84t-61 221h88q-14 -90 46 -153.5t164.5 -63.5t183.5 63.5t93 153.5h86q-20 -137 -125 -221t-250 -84z" glyph-name="uni0306" unicode="̆"/><glyph d="M-213 1219q-41 0 -66.5 29.5t-19.5 70.5t40 70.5t75 29.5t66.5 -29.5t19.5 -70.5t-40 -70.5t-75 -29.5z" glyph-name="uni0307" unicode="̇"/><glyph d="M-514 1219q-41 0 -66.5 29.5t-19.5 70.5t40 70.5t75 29.5t66.5 -29.5t19 -70.5t-40 -70.5t-74.5 -29.5zM-156 1219q-41 0 -66.5 29.5t-19.5 70.5t40 70.5t75 29.5t65.5 -29.5t18.5 -70.5t-39 -70.5t-74 -29.5z" glyph-name="uni0308" unicode="̈"/><glyph d="M-109 1149q-82 0 -132 58.5t-40 138.5q10 82 78 140t152 58q80 0 128 -58.5t38 -139.5q-10 -80 -77 -138.5t-147 -58.5zM-98.5 1219q53.5 0 95.5 36.5t50 90t-24.5 92.5t-83.5 39q-53 0 -96.5 -39t-51.5 -92.5t24.5 -90t86 -36.5z" glyph-name="uni030A" unicode="̊"/><glyph d="M-401 1536h135l-383 -354h-107zM-80 1536h133l-381 -354h-108z" glyph-name="uni030B" unicode="̋"/><glyph d="M-502 1536h111l129 -272l205 272h110l-254 -350h-145z" glyph-name="uni030C" unicode="̌"/><glyph d="M-106 1378q29 -10 44 -36.5t11 -59.5q-6 -41 -39 -70.5t-76 -29.5q-41 0 -64.5 29.5t-17.5 70.5t45 103.5t76 105.5l35 41h43z" glyph-name="uni0312" unicode="̒"/><glyph d="M-334 -512q-41 0 -65.5 29.5t-20.5 70.5q6 41 40 71t75 30t66.5 -31t19.5 -70q-4 -41 -39 -70.5t-76 -29.5z" glyph-name="dotbelowcomb" unicode="̣"/><glyph d="M-270 -2q-63 25 -54 96q6 41 39 71t76 30q41 0 64.5 -30t17.5 -71t-45 -103.5t-74 -105.5l-37 -41h-43z" glyph-name="uni0326" unicode="̦"/><glyph d="M-440 -532q-66 0 -128.5 34.5t-88.5 85.5l71 33q23 -35 67 -57.5t89 -22.5q55 0 97 38t50 93q10 78 -49 109t-155 -2l-56 45l111 176h76l-86 -143q113 20 181 -33t54 -152q-12 -86 -79.5 -145t-153.5 -59z" glyph-name="uni0327" unicode="̧"/><glyph d="M-500 -532q-100 2 -150 58t-38 150q29 186 326 349l73 -25q-104 -43 -195 -128t-106 -183q-8 -63 23.5 -102.5t99.5 -39.5q117 0 209 88l37 -67q-121 -104 -279 -100z" glyph-name="uni0328" unicode="̨"/><glyph d="M-944 590h577l-14 -101h-577z" glyph-name="uni0335" unicode="̵"/><glyph d="M-1530 567h1448l-10 -67h-1448z" glyph-name="uni0336" unicode="̶"/><glyph d="M-344 776h115l-553 -510h-107z" glyph-name="uni0337" unicode="̷"/><glyph d="M-31 1552h105l-1280 -1566h-107z" glyph-name="uni0338" unicode="̸"/><glyph d="M-2 94l858 1460h160l440 -1458l-12 -96h-1458zM1319 109l-275 892q-6 23 -57 200t-61 231h-25q-12 -27 -51 -96.5t-91 -160t-75 -131.5l-553 -935h1188z" glyph-name="Delta" horiz-adv-x="1613" unicode="Δ"/><glyph d="M1190 0l-350 1378l-734 -1378h-151l831 1536h154l401 -1536h-151z" glyph-name="Lambda" horiz-adv-x="1480" unicode="Λ"/><glyph d="M270 1536h867l-17 -123h-866zM270 831h672l-18 -124h-672zM72 125h866l-16 -125h-867z" glyph-name="Xi" horiz-adv-x="1208" unicode="Ξ"/><glyph d="M51 102h367l2 17q-127 106 -197.5 283.5t-40.5 394.5q45 315 291 528t571 213q217 0 376 -104.5t226.5 -271.5t41.5 -359q-31 -219 -156 -404.5t-275 -279.5l-2 -17h371l-14 -102h-582l10 74q182 86 329 274.5t181 435.5q20 160 -26.5 305.5t-174.5 246t-317 100.5 q-276 0 -477 -191.5t-240 -464.5q-33 -242 61.5 -432t250.5 -274l-11 -74h-579z" glyph-name="Omega" horiz-adv-x="1832" unicode="Ω"/><glyph d="M977 1126h145l-157 -1126h-127l8 180q-72 -86 -185.5 -139t-226.5 -53q-143 0 -241 75l-82 -575h-105l98 688q-49 104 -30 230l102 720h148l-99 -704q-20 -135 51.5 -219t206.5 -84q139 0 258 86t138 217z" glyph-name="mu" horiz-adv-x="1243" unicode="μ"/><glyph d="M66 0q90 166 186 461t143 547q-211 0 -309 -31q27 47 34 60.5t26.5 37t24.5 24.5t35 8t47 5t71.5 -3t97.5 -1h989l-27 -100h-217l-96 -678q-33 -227 -8 -330h-129q-27 66 8 309l98 699l-516 2q-45 -238 -146.5 -554.5t-184.5 -455.5h-127z" glyph-name="pi" horiz-adv-x="1396" unicode="π"/><glyph d="M864 809q137 -29 210 -141.5t52 -264.5q-25 -174 -160 -288.5t-309 -114.5h-677l215 1536h593q176 0 282 -113.5t81 -285.5q-20 -133 -97 -222.5t-190 -105.5zM1008 1120q18 121 -54.5 207t-193.5 86h-445l-79 -565h444q123 0 217.5 76.5t110.5 195.5zM657 125 q121 0 218.5 86t113.5 207q16 123 -55.5 218t-190.5 95h-524l-86 -606h524zM512 -154q41 0 66.5 -30.5t19.5 -69.5q-6 -41 -40 -70.5t-75 -29.5t-66.5 29.5t-19.5 70.5t40 70.5t75 29.5z" glyph-name="uni1E04" horiz-adv-x="1316" unicode="Ḅ"/><glyph d="M731 1137q229 0 350 -166t86 -414q-35 -246 -200.5 -409.5t-395.5 -163.5q-266 0 -378 217l-50 -201h-114l215 1536h143l-86 -614q174 215 430 215zM569 109q176 0 303 129t154 319q27 193 -62.5 321t-267.5 128q-145 0 -263 -96.5t-169 -247.5l-28 -209q8 -152 98 -248 t235 -96zM528 -154q41 0 67 -30.5t19 -69.5q-6 -41 -39.5 -70.5t-74.5 -29.5t-66.5 29.5t-19.5 70.5t39.5 70.5t74.5 29.5z" glyph-name="uni1E05" horiz-adv-x="1224" unicode="ḅ"/><glyph d="M1442 1536l-215 -1536h-137l98 707h-879l-98 -707h-139l215 1536h139l-98 -705h878l99 705h137zM635 -154q41 0 66.5 -30.5t19.5 -69.5q-6 -41 -40 -70.5t-75 -29.5t-66.5 29.5t-19.5 70.5t40 70.5t75 29.5z" glyph-name="uni1E24" horiz-adv-x="1482" unicode="Ḥ"/><glyph d="M735 1139q184 0 281.5 -113t70.5 -297l-102 -729h-147l100 715q18 133 -52.5 213t-205.5 80q-141 0 -259 -85t-136 -214l-99 -709h-147l215 1534h147l-82 -580q72 84 185.5 134.5t230.5 50.5zM471 -154q41 0 66.5 -30.5t19.5 -69.5q-6 -41 -40 -70.5t-75 -29.5 t-66.5 29.5t-19.5 70.5t40 70.5t75 29.5z" glyph-name="uni1E25" horiz-adv-x="1191" unicode="ḥ"/><glyph d="M287 1536h139l-199 -1411h580l-16 -125h-719zM381 -354q-41 0 -66.5 29.5t-19.5 70.5t40 70.5t75 29.5t66.5 -30.5t19.5 -69.5q-6 -41 -40 -70.5t-75 -29.5z" glyph-name="uni1E36" horiz-adv-x="929" unicode="Ḷ"/><glyph d="M102 0l217 1536h138l-215 -1536h-140zM135 -354q-41 0 -66.5 29.5t-19.5 70.5t40 70.5t75 29.5t66.5 -30.5t19.5 -69.5q-6 -41 -40 -70.5t-75 -29.5z" glyph-name="uni1E37" horiz-adv-x="626" unicode="ḷ"/><glyph d="M928 1731q-41 0 -66.5 29.5t-19.5 70.5t39.5 70.5t74.5 29.5t67 -29.5t19.5 -70.5t-40 -70.5t-74.5 -29.5zM1526 1536l-215 -1536h-125l-793 1303l-182 -1303h-139l215 1536h125l794 -1303l183 1303h137z" glyph-name="uni1E44" horiz-adv-x="1566" unicode="Ṅ"/><glyph d="M678 1219q-41 0 -66.5 29.5t-19.5 70.5t40 70.5t75 29.5t66.5 -29.5t19 -70.5t-40 -70.5t-74.5 -29.5zM723 1139q180 0 274.5 -113t67.5 -299l-100 -727h-144l101 715q18 133 -51.5 213t-200.5 80q-139 0 -255 -85t-134 -214l-99 -709h-143l158 1126h120l-6 -178 q70 86 182.5 138.5t229.5 52.5z" glyph-name="uni1E45" horiz-adv-x="1191" unicode="ṅ"/><glyph d="M1526 1536l-215 -1536h-125l-793 1303l-182 -1303h-139l215 1536h125l794 -1303l183 1303h137zM678 -154q41 0 66.5 -30.5t19.5 -69.5q-6 -41 -40 -70.5t-75 -29.5t-66.5 29.5t-19.5 70.5t40 70.5t75 29.5z" glyph-name="uni1E46" horiz-adv-x="1566" unicode="Ṇ"/><glyph d="M723 1139q180 0 274.5 -113t67.5 -299l-100 -727h-144l101 715q18 133 -51.5 213t-200.5 80q-139 0 -255 -85t-134 -214l-99 -709h-143l158 1126h120l-6 -178q70 86 182.5 138.5t229.5 52.5zM485 -154q41 0 67 -30.5t19 -69.5q-6 -41 -39.5 -70.5t-74.5 -29.5t-66.5 29.5 t-19.5 70.5t39.5 70.5t74.5 29.5z" glyph-name="uni1E47" horiz-adv-x="1191" unicode="ṇ"/><glyph d="M494 -20q-227 0 -361.5 129t-124.5 307h148q2 -125 91 -214t267 -89t302 78.5t147 224.5q8 57 -8.5 103t-46 77t-83 58.5t-98.5 45t-111 39.5q-29 10 -43 15q-88 31 -133 49t-114.5 56t-102.5 75t-54.5 96.5t-10.5 130.5q18 127 107 220.5t206 134t244 40.5 q242 0 357.5 -108.5t119.5 -286.5h-125q0 113 -95 194t-274 81q-88 0 -171 -27t-148.5 -88t-77.5 -150q-8 -57 13.5 -102t76.5 -82t98 -57.5t125 -52.5q27 -10 41 -17q25 -10 74 -29q66 -25 99.5 -40t91 -43.5t86 -56t59.5 -67.5t40 -90.5t1 -111.5q-20 -137 -113.5 -239.5 t-223.5 -152.5t-275 -50zM551 -352q-41 0 -65.5 29.5t-20.5 70.5q6 41 40 70.5t75 29.5t66.5 -30.5t19.5 -69.5q-4 -41 -39 -70.5t-76 -29.5z" glyph-name="uni1E62" horiz-adv-x="1273" unicode="Ṣ"/><glyph d="M387 -18q-203 0 -296 105.5t-83 231.5h129q0 -82 76 -152.5t190.5 -70.5t201.5 62.5t100 158.5q14 98 -58 146.5t-215 73.5q-100 16 -166.5 42.5t-113 90t-31.5 159.5q18 143 144 227.5t280 84.5q362 0 356 -305h-123q-4 98 -76.5 141t-148.5 45q-104 4 -187 -41 t-96 -133q-14 -92 53.5 -133t198.5 -62q72 -12 129.5 -31.5t111.5 -55.5t78.5 -96t12.5 -142q-20 -145 -154.5 -245.5t-312.5 -100.5zM352 -354q-41 0 -66.5 29.5t-19.5 70.5t40 70.5t75 29.5t66.5 -30.5t19.5 -69.5q-6 -41 -40 -70.5t-75 -29.5z" glyph-name="uni1E63" horiz-adv-x="958" unicode="ṣ"/><glyph d="M1194 1413h-471l-199 -1411h-137l199 1411h-471l16 125h1079zM494 -154q41 0 66.5 -30.5t19.5 -69.5q-6 -41 -40 -70.5t-75 -29.5t-66.5 29.5t-19.5 70.5t40 70.5t75 29.5z" glyph-name="uni1E6C" horiz-adv-x="1052" unicode="Ṭ"/><glyph d="M414 -2q-295 0 -254 281l104 737h-172l17 114h172l57 406h143l-57 -406h252l-17 -116l-258 2l-100 -717q-4 -47 -4 -85t32.5 -62.5t102.5 -24.5h119l-19 -129h-118zM293 -154q41 0 66.5 -30.5t19.5 -69.5q-6 -41 -40 -70.5t-75 -29.5t-66.5 29.5t-19.5 70.5t40 70.5 t75 29.5z" glyph-name="uni1E6D" horiz-adv-x="657" unicode="ṭ"/><glyph d="M1159 1741l-172 307h141l146 -307h-115zM2122 1536l-701 -1536h-170l-153 1264l-512 -1264h-170l-273 1536h150l223 -1370l555 1370h143l152 -1372l606 1372h150z" glyph-name="Wgrave" horiz-adv-x="2142" unicode="Ẁ"/><glyph d="M745 1229l-172 307h142l145 -307h-115zM1653 1116l-492 -1116h-164l-125 942l-383 -942h-161l-183 1116h162l135 -938l381 938h156l115 -944l399 944h160z" glyph-name="wgrave" horiz-adv-x="1435" unicode="ẁ"/><glyph d="M1286 1741h-115l232 307h141zM2122 1536l-701 -1536h-170l-153 1264l-512 -1264h-170l-273 1536h150l223 -1370l555 1370h143l152 -1372l606 1372h150z" glyph-name="Wacute" horiz-adv-x="2142" unicode="Ẃ"/><glyph d="M891 1229h-115l232 307h141zM1653 1116l-492 -1116h-164l-125 942l-383 -942h-161l-183 1116h162l135 -938l381 938h156l115 -944l399 944h160z" glyph-name="wacute" horiz-adv-x="1435" unicode="ẃ"/><glyph d="M1042 1731q-41 0 -66.5 29.5t-19 70.5t40 70.5t74.5 29.5t66.5 -29.5t19.5 -70.5t-40 -70.5t-75 -29.5zM1401 1731q-41 0 -66.5 29.5t-19.5 70.5t40 70.5t74.5 29.5t65.5 -29.5t18.5 -70.5t-39 -70.5t-73.5 -29.5zM2122 1536l-701 -1536h-170l-153 1264l-512 -1264h-170 l-273 1536h150l223 -1370l555 1370h143l152 -1372l606 1372h150z" glyph-name="Wdieresis" horiz-adv-x="2142" unicode="Ẅ"/><glyph d="M649 1219q-41 0 -66.5 29.5t-19.5 70.5t40 70.5t75 29.5t66.5 -29.5t19.5 -70.5t-40 -70.5t-75 -29.5zM1008 1219q-41 0 -67 29.5t-19.5 70.5t40 70.5t74.5 29.5t65.5 -29.5t18.5 -70.5t-38.5 -70.5t-73.5 -29.5zM1653 1116l-492 -1116h-164l-125 942l-383 -942h-161 l-183 1116h162l135 -938l381 938h156l115 -944l399 944h160z" glyph-name="wdieresis" horiz-adv-x="1435" unicode="ẅ"/><glyph d="M1180 125l-17 -125h-1159l8 70l1123 1343h-910l17 123h1101l-10 -70l-1120 -1341h967zM555 -154q41 0 66.5 -30.5t19.5 -69.5q-6 -41 -40 -70.5t-75 -29.5t-66.5 29.5t-19.5 70.5t40 70.5t75 29.5z" glyph-name="uni1E92" horiz-adv-x="1353" unicode="Ẓ"/><glyph d="M6 90l793 819h-662l17 115h845l-12 -84l-794 -825h698l-14 -115h-883zM385 -354q-41 0 -66.5 29.5t-19.5 70.5t40 70.5t75 29.5t66.5 -30.5t19.5 -69.5q-6 -41 -40 -70.5t-75 -29.5z" glyph-name="uni1E93" horiz-adv-x="1054" unicode="ẓ"/><glyph d="M1100 401h-762l-213 -401h-152l832 1536h153l402 -1536h-152zM1077 526l-217 865l-457 -865h674zM627 -154q41 0 66.5 -30.5t19.5 -69.5q-6 -41 -40 -70.5t-75 -29.5t-66.5 29.5t-19.5 70.5t40 70.5t75 29.5z" glyph-name="uni1EA0" horiz-adv-x="1480" unicode="Ạ"/><glyph d="M342 -8q-162 0 -257 92t-75 233q49 334 516 365l297 18l6 43q18 135 -53 206t-211 71q-123 0 -211 -69.5t-114 -176.5h-140q37 152 164 260.5t324 108.5q201 0 300 -109.5t73 -296.5l-62 -461q-14 -90 -1 -125.5t60 -33.5l-16 -117q-29 0 -57 6q-137 29 -127 170 q-57 -78 -173 -131t-243 -53zM367 117q145 0 272 88t143 203l23 170l-295 -21q-338 -23 -369 -242q-12 -90 58 -144t168 -54zM401 -154q41 0 67 -30.5t19 -69.5q-6 -41 -39.5 -70.5t-74.5 -29.5t-66.5 29.5t-19.5 70.5t39.5 70.5t74.5 29.5z" glyph-name="uni1EA1" horiz-adv-x="1097" unicode="ạ"/><glyph d="M344 1413l-82 -582h705l-19 -124h-704l-82 -582h790l-16 -125h-930l215 1536h930l-16 -123h-791zM463 -154q41 0 66.5 -30.5t19.5 -69.5q-6 -41 -40 -70.5t-75 -29.5t-66.5 29.5t-19.5 70.5t40 70.5t75 29.5z" glyph-name="uni1EB8" horiz-adv-x="1107" unicode="Ẹ"/><glyph d="M1063 569q-2 -16 -10 -57h-873q-25 -186 72.5 -292.5t234.5 -108.5q141 -2 235.5 58t133.5 157h129q-14 -49 -48 -102.5t-92.5 -109t-152.5 -90t-207 -34.5q-233 2 -350 165.5t-84 405.5q35 248 196 410t394 162q229 0 343 -157t79 -407zM627 1008q-162 0 -273.5 -103.5 t-154.5 -275.5h741q8 172 -72.5 275.5t-240.5 103.5zM459 -154q41 0 66.5 -30.5t19.5 -69.5q-6 -41 -40 -70.5t-75 -29.5t-66.5 29.5t-19.5 70.5t40 70.5t75 29.5z" glyph-name="uni1EB9" horiz-adv-x="1124" unicode="ẹ"/><glyph d="M395 1747q4 106 67.5 176t153.5 70q117 0 170 -109q33 -68 99 -67q51 0 86 44t37 111h88q-2 -106 -65.5 -174.5t-156.5 -68.5q-119 0 -167 108q-33 68 -99 68q-53 0 -87 -44t-36 -114h-90zM344 1413l-82 -582h705l-19 -124h-704l-82 -582h790l-16 -125h-930l215 1536h930 l-16 -123h-791z" glyph-name="uni1EBC" horiz-adv-x="1107" unicode="Ẽ"/><glyph d="M319 1245q4 106 68 176t154 70q115 0 168 -109q33 -68 100 -67q51 0 86 43t37 112h88q-2 -106 -65.5 -174.5t-155.5 -68.5q-117 0 -170 108q-33 68 -97 68q-53 0 -87.5 -44t-34.5 -114h-91zM1063 569q-2 -16 -10 -57h-873q-25 -186 72.5 -292.5t234.5 -108.5 q141 -2 235.5 58t133.5 157h129q-14 -49 -48 -102.5t-92.5 -109t-152.5 -90t-207 -34.5q-233 2 -350 165.5t-84 405.5q35 248 196 410t394 162q229 0 343 -157t79 -407zM627 1008q-162 0 -273.5 -103.5t-154.5 -275.5h741q8 172 -72.5 275.5t-240.5 103.5z" glyph-name="uni1EBD" horiz-adv-x="1124" unicode="ẽ"/><glyph d="M287 1536h139l-215 -1536h-139zM90 -354q-41 0 -66.5 29.5t-19.5 70.5t40 70.5t75 29.5t66.5 -30.5t19.5 -69.5q-6 -41 -40 -70.5t-75 -29.5z" glyph-name="uni1ECA" horiz-adv-x="466" unicode="Ị"/><glyph d="M346 1219q-41 0 -66.5 29.5t-19.5 70.5t40 70.5t75 29.5t66.5 -29.5t19.5 -70.5t-40 -70.5t-75 -29.5zM252 1024h135l-143 -1024h-135zM133 -379q-41 0 -66.5 30t-21.5 70q6 41 40 71t75 30t66.5 -31t19.5 -70q-4 -41 -38 -70.5t-75 -29.5z" glyph-name="uni1ECB" horiz-adv-x="536" unicode="ị"/><glyph d="M762 -20q-324 0 -505 228t-134 560t291.5 560t568.5 228q322 0 504 -229t135 -559q-47 -332 -292.5 -560t-567.5 -228zM780.5 113q270.5 0 470 189.5t238.5 465.5q39 279 -107.5 468t-417 189t-471 -189t-239.5 -468q-39 -276 108.5 -465.5t418 -189.5zM717 -354 q-41 0 -66.5 29.5t-19.5 70.5t40 70.5t74.5 29.5t66.5 -30.5t19 -69.5q-6 -41 -39.5 -70.5t-74.5 -29.5z" glyph-name="uni1ECC" horiz-adv-x="1716" unicode="Ọ"/><glyph d="M481 -20q-217 0 -332.5 153.5t-82.5 378.5q31 225 190.5 378.5t374.5 153.5q217 0 333.5 -153.5t86.5 -378.5q-33 -225 -193 -378.5t-377 -153.5zM497.5 100q161.5 0 278.5 119t142 293q25 176 -58.5 294t-245 118t-278.5 -118t-139 -294q-25 -174 57 -293t243.5 -119z M436 -354q-41 0 -66.5 29.5t-19.5 70.5t40 70.5t75 29.5t66.5 -30.5t19.5 -69.5q-6 -41 -40 -70.5t-75 -29.5z" glyph-name="uni1ECD" horiz-adv-x="1157" unicode="ọ"/><glyph d="M641 -20q-238 0 -381 153.5t-113 372.5l146 1030h139l-141 -1010q-25 -176 82.5 -299t285.5 -123q180 0 322.5 123t167.5 299l141 1010h137l-145 -1030q-31 -219 -217 -372.5t-424 -153.5zM596 -354q-41 0 -66.5 29.5t-19.5 70.5t40 70.5t75 29.5t66.5 -30.5t19.5 -69.5 q-6 -41 -40 -70.5t-75 -29.5z" glyph-name="uni1EE4" horiz-adv-x="1474" unicode="Ụ"/><glyph d="M741 1741l-172 307h142l145 -307h-115zM731 729l-102 -729h-137l100 725l-422 811h156l352 -688l547 688h153z" glyph-name="Ygrave" horiz-adv-x="1302" unicode="Ỳ"/><glyph d="M575 1229l-172 307h142l145 -307h-115zM1135 1126l-897 -1638h-138l318 573h-43l-295 1065h147l260 -936l498 936h150z" glyph-name="ygrave" horiz-adv-x="1200" unicode="ỳ"/><glyph d="M592 725l-422 811h156l352 -688l547 688h153l-647 -807l-102 -729h-137zM539 -154q41 0 66.5 -30.5t19.5 -69.5q-6 -41 -40 -70.5t-75 -29.5t-66.5 29.5t-19.5 70.5t40 70.5t75 29.5z" glyph-name="uni1EF4" horiz-adv-x="1302" unicode="Ỵ"/><glyph d="M471 1747q4 106 67.5 176t153.5 70q117 0 170 -109q33 -68 99 -67q51 0 85.5 44t36.5 111h88q-2 -106 -65.5 -174.5t-155.5 -68.5q-119 0 -168 108q-33 68 -98 68q-53 0 -87 -44t-36 -114h-90zM731 729l-102 -729h-137l100 725l-422 811h156l352 -688l547 688h153z" glyph-name="uni1EF8" horiz-adv-x="1302" unicode="Ỹ"/><glyph d="M182 582h1024l-14 -99h-1024z" glyph-name="endash" horiz-adv-x="1406" unicode="–"/><glyph d="M10 582h2048l-14 -99h-2048z" glyph-name="emdash" horiz-adv-x="2086" unicode="—"/><glyph d="M209 1186q-41 0 -64.5 29.5t-17.5 70.5t45 103.5t74 105.5l37 41h43l-58 -154q29 -10 44.5 -36.5t11.5 -59.5q-6 -41 -39 -70.5t-76 -29.5z" glyph-name="quoteleft" horiz-adv-x="276" unicode="‘"/><glyph d="M203 1339q-66 25 -56 97q6 41 39 70.5t76 29.5q41 0 64.5 -29.5t17.5 -70.5t-45 -103.5t-74 -103.5l-37 -43h-43z" glyph-name="quoteright" horiz-adv-x="276" unicode="’"/><glyph d="M12 -2q-63 25 -53 96q6 41 39 71t76 30q41 0 64.5 -30t17.5 -71t-45 -103.5t-74 -105.5l-37 -41h-43z" glyph-name="quotesinglbase" horiz-adv-x="276" unicode="‚"/><glyph d="M209 1186q-41 0 -64.5 29.5t-17.5 70.5t45 103.5t74 105.5l37 41h43l-58 -154q29 -10 44.5 -36.5t11.5 -59.5q-6 -41 -39 -70.5t-76 -29.5zM481 1186q-41 0 -64.5 29.5t-17 70.5t45 103.5t75.5 105.5l35 41h43l-57 -154q29 -10 44 -36.5t11 -59.5q-6 -41 -39 -70.5 t-76 -29.5z" glyph-name="quotedblleft" horiz-adv-x="548" unicode="“"/><glyph d="M203 1339q-66 25 -56 97q6 41 39 70.5t76 29.5q41 0 64.5 -29.5t17.5 -70.5t-45 -103.5t-74 -103.5l-37 -43h-43zM475 1339q-66 25 -55 97q6 41 39 70.5t76 29.5q41 0 64.5 -29.5t17 -70.5t-45.5 -103.5t-75 -103.5l-35 -43h-43z" glyph-name="quotedblright" horiz-adv-x="548" unicode="”"/><glyph d="M14 0q-29 10 -44 36.5t-11 59.5q6 41 39 71t76 30q41 0 64.5 -30t17.5 -71t-45 -103.5t-74 -103.5l-37 -43h-43zM287 0q-29 10 -44.5 36.5t-11.5 59.5q6 41 39 71t76 30q41 0 64.5 -30t17.5 -71t-45 -103.5t-76 -103.5l-35 -43h-43z" glyph-name="quotedblbase" horiz-adv-x="548" unicode="„"/><glyph d="M1116 862h-364l-170 -1210h-95l170 1210h-354l12 94h355l59 416h94l-59 -416h364z" glyph-name="dagger" horiz-adv-x="1361" unicode="†"/><glyph d="M752 862l-99 -692h365l-12 -94h-365l-59 -424h-95l60 424h-354l12 94h354l98 692h-354l12 94h355l59 416h94l-59 -416h364l-12 -94h-364z" glyph-name="daggerdbl" horiz-adv-x="1361" unicode="‡"/><glyph d="M432 432q-94 0 -153.5 66.5t-45.5 163.5q14 94 92 162.5t173 68.5q92 0 151.5 -68.5t44.5 -162.5q-14 -96 -91 -163t-171 -67z" glyph-name="bullet" horiz-adv-x="927" unicode="•"/><glyph d="M141 -14q-39 0 -64.5 28.5t-21.5 69.5q6 41 39 70.5t74 29.5t65.5 -29.5t18.5 -70.5q-4 -41 -37 -69.5t-74 -28.5zM618 -14q-39 0 -64.5 28.5t-21.5 69.5q6 41 39 70.5t74 29.5t66.5 -29.5t19.5 -70.5q-4 -41 -38 -69.5t-75 -28.5zM1096 -14q-39 0 -63.5 28.5t-20.5 69.5 q6 41 38.5 70.5t71.5 29.5q41 0 66.5 -29.5t19.5 -70.5q-4 -41 -37.5 -69.5t-74.5 -28.5z" glyph-name="ellipsis" horiz-adv-x="1415" unicode="…"/><glyph d="M430 938q-111 0 -175.5 91t-47.5 218q18 127 108.5 218t201 91t176 -91t46.5 -218q-16 -127 -107 -218t-202 -91zM1321 1536h141l-1272 -1536h-141zM444.5 1044q65.5 0 121 59.5t67.5 143.5t-27 143.5t-104.5 59.5t-119.5 -59.5t-66.5 -143.5t25.5 -143.5t103.5 -59.5z M995.5 -20q-110.5 0 -175 91t-46.5 220q16 127 107.5 218t202 91t175 -91t48.5 -218q-18 -129 -109.5 -220t-202 -91zM1630.5 -20q-110.5 0 -175 91t-46.5 220q16 127 107.5 218t202 91t175 -91t48.5 -218q-18 -129 -109.5 -220t-202 -91zM1011.5 88q65.5 0 120 58.5 t66.5 144.5q10 84 -27.5 142.5t-103.5 58.5t-121 -58.5t-65 -142.5q-12 -86 26.5 -144.5t104 -58.5zM1646.5 88q65.5 0 120 58.5t66.5 144.5q10 84 -28 142.5t-103.5 58.5t-120.5 -58.5t-65 -142.5q-12 -86 26.5 -144.5t104 -58.5z" glyph-name="perthousand" horiz-adv-x="2101" unicode="‰"/><glyph d="M100 571l365 377h119l-365 -377l258 -376h-119z" glyph-name="guilsinglleft" horiz-adv-x="694" unicode="‹"/><glyph d="M451 571l-258 377h118l258 -377l-364 -376h-119z" glyph-name="guilsinglright" horiz-adv-x="694" unicode="›"/><glyph d="M1165 1536h142l-1287 -1536h-143z" glyph-name="fraction" horiz-adv-x="1183" unicode="⁄"/><glyph d="M100 909h142q53 256 216 414t400 158q207 0 317.5 -113t106.5 -311h-108q-2 160 -85 246t-243 86q-188 0 -317.5 -129.5t-174.5 -350.5h516l-24 -78h-504l-29 -200h465l-24 -78h-449q-18 -223 73 -348t286 -125q168 0 281.5 94t162.5 266h106q-57 -215 -204.5 -335.5 t-360.5 -120.5q-238 0 -357.5 155.5t-98.5 413.5h-142l10 78h140l28 200h-139z" glyph-name="Euro" horiz-adv-x="1318" unicode="€"/><glyph d="M569 -10q-190 0 -275 116.5t-71 286.5l2 25q-27 -16 -84 -56t-78 -55l-34 88q18 12 96 66.5t117 85.5l86 612q20 145 67 252t110.5 164t128 82.5t134.5 25.5q147 0 209.5 -102t42.5 -254q-29 -201 -192.5 -400.5t-452.5 -422.5l-6 -55q-23 -168 51 -256.5t192 -88.5 q115 0 219.5 73t169.5 169l66 -63q-207 -293 -498 -293zM395 643q229 197 359.5 356.5t152.5 317.5q37 260 -157 260q-88 0 -169 -96.5t-110 -300.5z" glyph-name="afii61289" horiz-adv-x="1241" unicode="ℓ"/><glyph d="M164 1536h479l-10 -70h-201l-90 -651h-78l90 651h-200zM1487 1530l-103 -717h-63l88 623l-354 -623h-43l-172 623l-88 -623h-68l102 717h88l173 -635l354 635h86z" glyph-name="trademark" horiz-adv-x="1460" unicode="™"/><glyph d="M842 -18q-362 0 -585.5 230t-178.5 554q45 328 333.5 559t651.5 231q365 0 588 -231t178 -559l-2 -21h-1417q-12 0 -15 -8l-59 -430q-4 -23 10 -49q197 -233 504 -233q340 0 602 262h125q-137 -141 -331.5 -223t-403.5 -82zM1503 788q6 0 10 15l60 430q4 35 -12 51 q-199 225 -502 225q-301 0 -567 -231q-25 -25 -27 -53l-59 -422q-4 -14 10 -15h1087z" glyph-name="estimated" horiz-adv-x="1880" unicode="℮"/><glyph d="M1538 598h-1100l25 -260l-445 385l553 385l-98 -262h1100z" glyph-name="arrowleft" horiz-adv-x="1720" unicode="←"/><glyph d="M436 1100l-270 -62l455 498l315 -498l-252 62l-154 -1100h-247z" glyph-name="arrowup" horiz-adv-x="1054" unicode="↑"/><glyph d="M1300 846l-24 262l442 -385l-551 -385l99 260h-1100l35 248h1099z" glyph-name="arrowright" horiz-adv-x="1720" unicode="→"/><glyph d="M745 1536l-153 -1100l268 62l-454 -498l-316 498l254 -62l154 1100h247z" glyph-name="arrowdown" horiz-adv-x="995" unicode="↓"/><glyph d="M-131 682l553 385l-100 -260l1148 -2l-24 260l442 -385l-549 -385l99 262l-1151 2l22 -264z" glyph-name="arrowboth" horiz-adv-x="1753" unicode="↔"/><glyph d="M70 350l252 -61l112 798l-270 -61l454 496l316 -498l-252 61l-111 -794l269 61l-455 -497z" glyph-name="arrowupdn" horiz-adv-x="995" unicode="↕"/><glyph d="M981 137l-670 776l-172 -227l8 625l613 -80l-250 -141l670 -779z" glyph-name="uni2196" horiz-adv-x="1095" unicode="↖"/><glyph d="M705 1090l-209 141l637 80l-168 -625l-111 227l-887 -776l-149 174z" glyph-name="uni2197" horiz-adv-x="1095" unicode="↗"/><glyph d="M147 1399l668 -776l174 227l-8 -625l-612 80l247 141l-667 779z" glyph-name="uni2198" horiz-adv-x="1097" unicode="↘"/><glyph d="M420 446l211 -141l-637 -80l168 625l108 -227l889 776l150 -174z" glyph-name="uni2199" horiz-adv-x="1097" unicode="↙"/><glyph d="M469 1442q260 29 404.5 -195.5t91.5 -574.5q-41 -276 -204 -465t-362 -189q-231 0 -301.5 173.5t58.5 422.5q121 233 319.5 319.5t376.5 -9.5q-20 213 -129 329.5t-268 87.5zM844 672q10 76 10 133q-152 113 -316.5 50.5t-273.5 -273.5q-100 -195 -57 -332t205 -137 q145 0 271 163t161 396z" glyph-name="partialdiff" horiz-adv-x="1073" unicode="∂"/><glyph d="M1350 1006q131 -174 98 -410q-35 -254 -239.5 -433t-458.5 -179q-231 0 -388 155l-100 -86l-41 47l101 86q-129 172 -99 410q37 254 242 433t459 179q229 0 385 -155l100 88l41 -47zM334 596q-25 -188 78 -330l807 707q-121 125 -312 125q-209 0 -375.5 -146.5 t-197.5 -355.5zM766 96q209 0 375 145.5t194 354.5q27 186 -75 330l-807 -707q118 -123 313 -123z" glyph-name="emptyset" horiz-adv-x="1689" unicode="∅"/><glyph d="M1497 1339h-592l-223 -1585h-107l224 1585h-592l12 101h1290z" glyph-name="product" horiz-adv-x="1509" unicode="∏"/><glyph d="M76 -172l878 770l-663 770l10 72h1161l-14 -107h-975l627 -735l-834 -735h975l-14 -107h-1161z" glyph-name="summation" horiz-adv-x="1546" unicode="∑"/><glyph d="M127 637h1229l-13 -96h-1228z" glyph-name="minus" horiz-adv-x="1488" unicode="−"/><glyph d="M270 575h-131l15 95h198l123 -660l959 1546l82 -36l-1041 -1680h-67z" glyph-name="radical" horiz-adv-x="1484" unicode="√"/><glyph d="M354 309q-113 0 -179 82t-54 205q23 123 112 205t201 82q180 0 344 -215q221 215 406 215q115 0 180.5 -81t50.5 -206q-20 -125 -108 -206t-203 -81q-184 0 -344 215q-228 -215 -406 -215zM367 403q141 0 338 193q-139 193 -283 192q-72 0 -131.5 -55t-75.5 -137 q-8 -80 36 -136.5t116 -56.5zM1116 403q72 0 131.5 55.5t73.5 137.5q8 82 -35 137t-115 55q-145 0 -342 -192q146 -193 287 -193z" glyph-name="infinity" horiz-adv-x="1554" unicode="∞"/><glyph d="M203 -387q-72 0 -111 50t-20 130h78q-12 -100 65 -100q29 0 53.5 21.5t30.5 58.5l223 1585q10 72 62.5 116t117.5 44q70 0 108 -50.5t17 -130.5h-77q14 100 -62 101q-31 0 -56.5 -21.5t-29.5 -58.5l-223 -1585q-10 -74 -61.5 -117t-114.5 -43z" glyph-name="integral" horiz-adv-x="927" unicode="∫"/><glyph d="M811 657q-57 0 -106.5 27t-73 52.5t-58.5 72.5q-41 57 -76.5 85t-88.5 28q-86 0 -149.5 -69t-74.5 -169h-82q14 141 105.5 229t212.5 88q76 0 127 -37.5t102 -113.5q37 -55 73 -84t93 -29q86 0 150.5 66.5t72.5 169.5h82q-12 -135 -101 -225.5t-208 -90.5zM756 268 q-57 0 -106.5 27t-71 51.5t-60.5 73.5q-76 113 -166 112q-86 0 -149.5 -67.5t-73.5 -169.5h-82q14 141 106.5 230t213.5 89q76 0 125 -37.5t102 -113.5q37 -57 72.5 -86t93.5 -29q86 0 150.5 66.5t74.5 171.5h82q-14 -135 -103 -226.5t-208 -91.5z" glyph-name="approxequal" horiz-adv-x="1175" unicode="≈"/><glyph d="M940 688l-289 -289h672l-12 -94h-752l-297 -299h-96l299 299h-383l12 94h463l289 289h-711l12 94h791l248 248h96l-250 -248h344l-12 -94h-424z" glyph-name="notequal" horiz-adv-x="1488" unicode="≠"/><glyph d="M1470 1268l-1087 -486l950 -487l-16 -119l-1055 545l19 125l1206 540zM174 88h1131l-13 -88h-1130z" glyph-name="lessequal" horiz-adv-x="1636" unicode="≤"/><glyph d="M1411 846l-18 -125l-1207 -545l17 119l1083 487l-946 486l16 118zM174 88h1131l-13 -88h-1130z" glyph-name="greaterequal" horiz-adv-x="1636" unicode="≥"/><glyph d="M201 723l706 618l529 -616l-703 -619zM1280 725l-395 463l-529 -465l400 -461z" glyph-name="lozenge" horiz-adv-x="1619" unicode="◊"/><glyph glyph-name="glyph432"/><glyph d="M436 1100l-270 -62l455 498l315 -498l-252 62l-154 -1100h-247z" glyph-name="glyph433" horiz-adv-x="995"/><glyph d="M321.5 1219q-40.5 0 -66.5 29.5t-19.5 70.5t40 70.5t74.5 29.5t66.5 -29.5t19.5 -70.5t-40 -70.5t-74.5 -29.5zM227 1024h135l-143 -1024h-135z" glyph-name="i.locl" horiz-adv-x="552"/><glyph d="M1100 401h-762l-213 -401h-152l832 1536h153l402 -1536h-152zM1077 526l-217 865l-457 -865h674z" glyph-name="glyph435" horiz-adv-x="1517"/><glyph d="M954 1741h-114l231 307h141zM1100 401h-762l-213 -401h-152l832 1536h153l402 -1536h-152zM1077 526l-217 865l-457 -865h674z" glyph-name="glyph436" horiz-adv-x="1517"/><glyph d="M883 1677q-143 0 -225.5 84t-61.5 221h88q-14 -90 46.5 -153.5t164.5 -63.5t183 63.5t93 153.5h86q-20 -137 -124.5 -221t-249.5 -84zM1100 401h-762l-213 -401h-152l832 1536h153l402 -1536h-152zM1077 526l-217 865l-457 -865h674z" glyph-name="glyph437" horiz-adv-x="1517"/><glyph d="M813 1698l-156 350h111l129 -272l205 272h110l-254 -350h-145zM1100 401h-762l-213 -401h-152l832 1536h153l402 -1536h-152zM1077 526l-217 865l-457 -865h674z" glyph-name="glyph438" horiz-adv-x="1517"/><glyph d="M723 1698h-115l254 350h146l155 -350h-114l-123 280zM1100 401h-762l-213 -401h-152l832 1536h153l402 -1536h-152zM1077 526l-217 865l-457 -865h674z" glyph-name="glyph439" horiz-adv-x="1517"/><glyph d="M713 1731q-41 0 -66.5 29.5t-19.5 70.5t39.5 70.5t74.5 29.5t67 -29.5t19.5 -70.5t-40 -70.5t-74.5 -29.5zM1071 1731q-41 0 -66.5 29.5t-19.5 70.5t40 70.5t75 29.5t65.5 -29.5t18.5 -70.5t-39 -70.5t-74 -29.5zM1100 401h-762l-213 -401h-152l832 1536h153l402 -1536 h-152zM1077 526l-217 865l-457 -865h674z" glyph-name="glyph440" horiz-adv-x="1517"/><glyph d="M1100 401h-762l-213 -401h-152l832 1536h153l402 -1536h-152zM1077 526l-217 865l-457 -865h674zM627 -154q41 0 66.5 -30.5t19.5 -69.5q-6 -41 -40 -70.5t-75 -29.5t-66.5 29.5t-19.5 70.5t40 70.5t75 29.5z" glyph-name="glyph441" horiz-adv-x="1517"/><glyph d="M829 1741l-172 307h142l145 -307h-115zM1100 401h-762l-213 -401h-152l832 1536h153l402 -1536h-152zM1077 526l-217 865l-457 -865h674z" glyph-name="glyph442" horiz-adv-x="1517"/><glyph d="M1212 1755h-634l14 94h635zM1100 401h-762l-213 -401h-152l832 1536h153l402 -1536h-152zM1077 526l-217 865l-457 -865h674z" glyph-name="glyph443" horiz-adv-x="1517"/><glyph d="M1374 -365l37 -67q-121 -104 -278 -100q-100 2 -150.5 58t-38.5 150q27 172 283 324h-19l-108 401h-762l-213 -401h-152l832 1536h153l402 -1536h-19q-104 -43 -194 -128t-105 -183q-8 -63 24 -102.5t99 -39.5q117 0 209 88zM403 526h674l-217 865z" glyph-name="glyph444" horiz-adv-x="1480"/><glyph d="M967 1503l393 -1503h-152l-108 401h-762l-213 -401h-152l811 1497h-20q-43 25 -64.5 71t-13.5 101q12 82 78.5 139.5t148.5 57.5q80 0 129.5 -57.5t36.5 -139.5q-14 -103 -112 -166zM756 1669q-8 -55 24.5 -92t86 -37t95.5 37t50 92q8 53 -24 91t-85 38t-96 -38t-51 -91z M403 526h674l-217 865z" glyph-name="glyph445" horiz-adv-x="1517"/><glyph d="M559 1747q4 106 67.5 176t153.5 70q117 0 170 -109q33 -68 99 -67q51 0 85.5 44t36.5 111h89q-2 -106 -66 -174.5t-156 -68.5q-119 0 -168 108q-33 68 -98 68q-53 0 -87 -44t-36 -114h-90zM1100 401h-762l-213 -401h-152l832 1536h153l402 -1536h-152zM1077 526l-217 865 l-457 -865h674z" glyph-name="glyph446" horiz-adv-x="1517"/><glyph d="M805 1536h1012l-17 -121h-690l-84 -592h604l-14 -110h-604l-84 -592h690l-16 -121h-826l47 344h-516l-178 -344h-156zM840 455l135 960h-88l-516 -960h469z" glyph-name="glyph447" horiz-adv-x="1810"/><glyph d="M762 809q137 -29 209.5 -141.5t52.5 -264.5q-25 -174 -160 -288.5t-309 -114.5h-575l215 1536h491q176 0 281.5 -113.5t81.5 -285.5q-20 -133 -97 -222.5t-190 -105.5zM905 1120q18 121 -54.5 207t-193.5 86h-342l-79 -565h342q123 0 217 76.5t110 195.5zM555 125 q121 0 218 86t114 207q16 123 -55.5 218t-190.5 95h-422l-86 -606h422z" glyph-name="glyph448" horiz-adv-x="1128"/><glyph d="M864 809q137 -29 210 -141.5t52 -264.5q-25 -174 -160 -288.5t-309 -114.5h-677l215 1536h593q176 0 282 -113.5t81 -285.5q-20 -133 -97 -222.5t-190 -105.5zM1008 1120q18 121 -54.5 207t-193.5 86h-445l-79 -565h444q123 0 217.5 76.5t110.5 195.5zM657 125 q121 0 218.5 86t113.5 207q16 123 -55.5 218t-190.5 95h-524l-86 -606h524zM512 -154q41 0 66.5 -30.5t19.5 -69.5q-6 -41 -40 -70.5t-75 -29.5t-66.5 29.5t-19.5 70.5t40 70.5t75 29.5z" glyph-name="glyph449" horiz-adv-x="1230"/><glyph d="M700 -20q-322 -4 -493.5 225t-124.5 563t282.5 561t557.5 227q152 0 271.5 -49t186 -123.5t99 -152.5t32.5 -150h-151q-6 55 -31.5 110.5t-76 111t-141.5 89t-208 33.5q-268 0 -459.5 -188t-230.5 -469t99.5 -468t406.5 -187q201 0 355.5 101t193.5 214h151 q-18 -63 -75.5 -137t-145.5 -144.5t-220.5 -117.5t-277.5 -49z" glyph-name="glyph450" horiz-adv-x="1560"/><glyph d="M1190 2048h141l-258 -307h-115zM700 -20q-322 -4 -493.5 225t-124.5 563t282.5 561t557.5 227q152 0 271.5 -49t186 -123.5t99 -152.5t32.5 -150h-151q-6 55 -31.5 110.5t-76 111t-141.5 89t-208 33.5q-268 0 -459.5 -188t-230.5 -469t99.5 -468t406.5 -187 q201 0 355.5 101t193.5 214h151q-18 -63 -75.5 -137t-145.5 -144.5t-220.5 -117.5t-277.5 -49z" glyph-name="glyph451" horiz-adv-x="1560"/><glyph d="M715 2048h110l129 -272l205 272h111l-254 -350h-146zM700 -20q-322 -4 -493.5 225t-124.5 563t282.5 561t557.5 227q152 0 271.5 -49t186 -123.5t99 -152.5t32.5 -150h-151q-6 55 -31.5 110.5t-76 111t-141.5 89t-208 33.5q-268 0 -459.5 -188t-230.5 -469t99.5 -468 t406.5 -187q201 0 355.5 101t193.5 214h151q-18 -63 -75.5 -137t-145.5 -144.5t-220.5 -117.5t-277.5 -49z" glyph-name="glyph452" horiz-adv-x="1560"/><glyph d="M719 113q201 0 355.5 101t193.5 214h151q-16 -61 -70.5 -133t-138.5 -139.5t-208.5 -116.5t-262.5 -57l54 -2l-74 -123q113 20 181.5 -33t53.5 -152q-12 -86 -79.5 -145t-153.5 -59q-66 0 -128.5 34.5t-88.5 85.5l71 33q23 -35 67 -57.5t89 -22.5q55 0 97 38t51 93 q10 78 -49.5 109t-155.5 -2l-56 45l95 156h-13q-322 -4 -493.5 225t-124.5 563t282.5 561t557.5 227q152 0 271.5 -49t186 -123.5t99 -152.5t32.5 -150h-151q-6 55 -31.5 110.5t-76 111t-141.5 89t-208 33.5q-268 0 -459.5 -188t-230.5 -469t99.5 -468t406.5 -187z" glyph-name="glyph453" horiz-adv-x="1560"/><glyph d="M948 1731q-41 0 -66.5 29.5t-19.5 70.5t40 70.5t75 29.5t66.5 -29.5t19.5 -70.5t-40 -70.5t-75 -29.5zM700 -20q-322 -4 -493.5 225t-124.5 563t282.5 561t557.5 227q152 0 271.5 -49t186 -123.5t99 -152.5t32.5 -150h-151q-6 55 -31.5 110.5t-76 111t-141.5 89 t-208 33.5q-268 0 -459.5 -188t-230.5 -469t99.5 -468t406.5 -187q201 0 355.5 101t193.5 214h151q-18 -63 -75.5 -137t-145.5 -144.5t-220.5 -117.5t-277.5 -49z" glyph-name="glyph454" horiz-adv-x="1560"/><glyph d="M266 1536h408q164 0 294 -45t223 -136t131 -246t9 -357q-47 -344 -296 -548t-576 -204h-408zM473 125q276 0 477 163t242 464q47 342 -102.5 501.5t-434.5 159.5h-268l-182 -1288h268z" glyph-name="glyph455" horiz-adv-x="1427"/><glyph d="M834 1536q338 0 525 -194.5t134 -573.5t-295 -573.5t-580 -194.5h-407l100 719h-159l14 100h160l100 717h408zM633 125q281 0 478.5 163t242.5 480q45 315 -107.5 480t-431.5 165h-268l-84 -594h280l-14 -100h-280l-84 -594h268z" glyph-name="glyph456" horiz-adv-x="1587"/><glyph d="M487 2048h111l129 -272l205 272h110l-254 -350h-145zM266 1536h449q164 0 294 -45t223 -136t131 -246t9 -357q-47 -344 -296 -548t-576 -204h-449zM514 125q276 0 477 163t242 464q47 342 -102.5 501.5t-434.5 159.5h-309l-182 -1288h309z" glyph-name="glyph457" horiz-adv-x="1468"/><glyph d="M854 1536q164 0 294 -45t223 -136t131 -246t9 -357q-47 -344 -295.5 -548t-576.5 -204h-449l101 719h-139l14 100h139l101 717h448zM1372 752q47 342 -102.5 501.5t-433.5 159.5h-310l-84 -594h287l-14 -100h-287l-84 -594h309q276 0 477 163t242 464z" glyph-name="glyph458" horiz-adv-x="1607"/><glyph d="M344 1413l-82 -582h643l-18 -124h-643l-82 -582h729l-17 -125h-868l215 1536h869l-17 -123h-729z" glyph-name="glyph459" horiz-adv-x="1083"/><glyph d="M791 1741h-115l231 307h142zM344 1413l-82 -582h705l-19 -124h-704l-82 -582h790l-16 -125h-930l215 1536h930l-16 -123h-791z" glyph-name="glyph460" horiz-adv-x="1144"/><glyph d="M649 1698l-155 350h110l129 -272l205 272h111l-254 -350h-146zM344 1413l-82 -582h705l-19 -124h-704l-82 -582h790l-16 -125h-930l215 1536h930l-16 -123h-791z" glyph-name="glyph461" horiz-adv-x="1144"/><glyph d="M1135 1413h-791l-82 -582h705l-19 -124h-704l-82 -582h790l-16 -125h-414l-86 -143q113 20 181.5 -33t54.5 -152q-12 -86 -80 -145t-154 -59q-66 0 -128 34.5t-89 85.5l72 33q23 -35 66.5 -57.5t89.5 -22.5q55 0 97 38t50 93q10 78 -49.5 109t-155.5 -2l-55 45l110 176 h-440l215 1536h930z" glyph-name="glyph462" horiz-adv-x="1144"/><glyph d="M559 1698h-115l254 350h146l155 -350h-114l-123 280zM344 1413l-82 -582h705l-19 -124h-704l-82 -582h790l-16 -125h-930l215 1536h930l-16 -123h-791z" glyph-name="glyph463" horiz-adv-x="1144"/><glyph d="M549 1731q-41 0 -66.5 29.5t-19.5 70.5t40 70.5t74.5 29.5t66.5 -29.5t19.5 -70.5t-40 -70.5t-74.5 -29.5zM907 1731q-41 0 -66.5 29.5t-19.5 70.5t40 70.5t75 29.5t65.5 -29.5t18.5 -70.5t-39 -70.5t-74 -29.5zM344 1413l-82 -582h705l-19 -124h-704l-82 -582h790 l-16 -125h-930l215 1536h930l-16 -123h-791z" glyph-name="glyph464" horiz-adv-x="1144"/><glyph d="M727 1731q-41 0 -66.5 29.5t-19.5 70.5t40 70.5t75 29.5t66.5 -29.5t19.5 -70.5t-40 -70.5t-75 -29.5zM344 1413l-82 -582h705l-19 -124h-704l-82 -582h790l-16 -125h-930l215 1536h930l-16 -123h-791z" glyph-name="glyph465" horiz-adv-x="1144"/><glyph d="M344 1413l-82 -582h705l-19 -124h-704l-82 -582h790l-16 -125h-930l215 1536h930l-16 -123h-791zM463 -154q41 0 66.5 -30.5t19.5 -69.5q-6 -41 -40 -70.5t-75 -29.5t-66.5 29.5t-19.5 70.5t40 70.5t75 29.5z" glyph-name="glyph466" horiz-adv-x="1144"/><glyph d="M666 1741l-172 307h141l145 -307h-114zM344 1413l-82 -582h705l-19 -124h-704l-82 -582h790l-16 -125h-930l215 1536h930l-16 -123h-791z" glyph-name="glyph467" horiz-adv-x="1144"/><glyph d="M1049 1755h-635l14 94h635zM344 1413l-82 -582h705l-19 -124h-704l-82 -582h790l-16 -125h-930l215 1536h930l-16 -123h-791z" glyph-name="glyph468" horiz-adv-x="1144"/><glyph d="M1135 1413h-791l-82 -582h705l-19 -124h-704l-82 -582h790l-16 -125h-37q-104 -43 -195.5 -128t-105.5 -183q-8 -63 23.5 -102.5t99.5 -39.5q117 0 209 88l37 -67q-121 -104 -279 -100q-100 2 -150.5 58t-37.5 150q27 172 282 324h-776l215 1536h930z" glyph-name="glyph469" horiz-adv-x="1236"/><glyph d="M395 1747q4 106 67.5 176t153.5 70q117 0 170 -109q33 -68 99 -67q51 0 86 44t37 111h88q-2 -106 -65.5 -174.5t-156.5 -68.5q-119 0 -167 108q-33 68 -99 68q-53 0 -87 -44t-36 -114h-90zM344 1413l-82 -582h705l-19 -124h-704l-82 -582h790l-16 -125h-930l215 1536h930 l-16 -123h-791z" glyph-name="glyph470" horiz-adv-x="1144"/><glyph d="M348 1413l-82 -582h643l-18 -124h-643l-98 -707h-140l215 1536h869l-17 -123h-729z" glyph-name="glyph471" horiz-adv-x="1075"/><glyph d="M862 1425q-264 0 -447.5 -183t-224.5 -478q-41 -289 97.5 -472t384.5 -183q260 0 412.5 147t197.5 391h-438l18 125h570q-39 -387 -242 -584.5t-531 -197.5q-168 0 -295.5 65.5t-198.5 175t-97.5 246.5t-6.5 287q49 348 275.5 570t537.5 222q250 0 405 -125.5t161 -347.5 h-131q-27 170 -153 256t-294 86z" glyph-name="glyph472" horiz-adv-x="1529"/><glyph d="M983 1677q-143 0 -225 84t-62 221h88q-14 -90 46.5 -153.5t165 -63.5t183 63.5t93.5 153.5h86q-20 -137 -125 -221t-250 -84zM1432 772l-19 -119l-90 -653h-94l2 262q-104 -139 -236.5 -205.5t-335.5 -66.5q-217 0 -365.5 113.5t-204.5 286.5t-28 374q49 348 275.5 570 t537.5 222q250 0 405 -125.5t161 -347.5h-131q-27 170 -153 256t-294 86q-264 0 -447.5 -183t-224.5 -478q-41 -287 100.5 -466t383.5 -179q274 0 423.5 142t184.5 386h-438l18 125h570z" glyph-name="glyph473" horiz-adv-x="1527"/><glyph d="M934 1698l-156 350h111l129 -272l205 272h110l-254 -350h-145zM1432 772l-19 -119l-90 -653h-94l2 262q-104 -139 -236.5 -205.5t-335.5 -66.5q-217 0 -365.5 113.5t-204.5 286.5t-28 374q49 348 275.5 570t537.5 222q250 0 405 -125.5t161 -347.5h-131q-27 170 -153 256 t-294 86q-264 0 -447.5 -183t-224.5 -478q-41 -287 100.5 -466t383.5 -179q274 0 423.5 142t184.5 386h-438l18 125h570z" glyph-name="glyph474" horiz-adv-x="1527"/><glyph d="M1432 772l-19 -119l-90 -653h-94l2 262q-104 -139 -236.5 -205.5t-335.5 -66.5q-217 0 -365.5 113.5t-204.5 286.5t-28 374q49 348 275.5 570t537.5 222q250 0 405 -125.5t161 -347.5h-131q-27 170 -153 256t-294 86q-264 0 -447.5 -183t-224.5 -478q-41 -287 100.5 -466 t383.5 -179q274 0 423.5 142t184.5 386h-438l18 125h570zM694 -272q-66 27 -53 96q4 41 37 70.5t76 29.5q41 0 64.5 -28.5t19.5 -71.5q-6 -41 -46 -103.5t-75 -105.5l-37 -41h-43z" glyph-name="glyph475" horiz-adv-x="1527"/><glyph d="M1012 1731q-41 0 -66.5 29.5t-19.5 70.5t39.5 70.5t74.5 29.5t67 -29.5t19.5 -70.5t-40 -70.5t-74.5 -29.5zM1432 772l-19 -119l-90 -653h-94l2 262q-104 -139 -236.5 -205.5t-335.5 -66.5q-217 0 -365.5 113.5t-204.5 286.5t-28 374q49 348 275.5 570t537.5 222 q250 0 405 -125.5t161 -347.5h-131q-27 170 -153 256t-294 86q-264 0 -447.5 -183t-224.5 -478q-41 -287 100.5 -466t383.5 -179q274 0 423.5 142t184.5 386h-438l18 125h570z" glyph-name="glyph476" horiz-adv-x="1527"/><glyph d="M1442 1536l-215 -1536h-137l98 707h-879l-98 -707h-139l215 1536h139l-98 -705h878l99 705h137z" glyph-name="glyph477" horiz-adv-x="1482"/><glyph d="M1681 1163h-145l-162 -1163h-137l98 707h-878l-99 -707h-139l162 1163h-148l11 68h147l43 305h139l-43 -305h879l43 305h137l-43 -305h146zM1399 1163h-879l-45 -332h879z" glyph-name="glyph478" horiz-adv-x="1775"/><glyph d="M1442 1536l-215 -1536h-137l98 707h-879l-98 -707h-139l215 1536h139l-98 -705h878l99 705h137zM635 -154q41 0 66.5 -30.5t19.5 -69.5q-6 -41 -40 -70.5t-75 -29.5t-66.5 29.5t-19.5 70.5t40 70.5t75 29.5z" glyph-name="glyph479" horiz-adv-x="1482"/><glyph d="M287 1536h139l-215 -1536h-139z" glyph-name="glyph480" horiz-adv-x="466"/><glyph d="M424 1536h139l-215 -1536h-139zM862 -20q-88 0 -151 18l20 143q63 -23 152 -22q80 0 146.5 57t76.5 139l172 1221h137l-172 -1221q-20 -139 -131 -237t-250 -98z" glyph-name="glyph481" horiz-adv-x="1460"/><glyph d="M563 2048h142l-259 -307h-114zM287 1536h139l-215 -1536h-139z" glyph-name="glyph482" horiz-adv-x="466"/><glyph d="M147 2048h113l129 -272l205 272h111l-254 -350h-146zM287 1536h139l-215 -1536h-139z" glyph-name="glyph483" horiz-adv-x="466"/><glyph d="M354 2048h146l155 -350h-114l-123 280l-203 -280h-117zM287 1536h139l-215 -1536h-139z" glyph-name="glyph484" horiz-adv-x="466"/><glyph d="M203 1731q-41 0 -67.5 29.5t-20.5 70.5t40.5 70.5t75.5 29.5t67 -29.5t19.5 -70.5t-40 -70.5t-74.5 -29.5zM561 1731q-41 0 -66.5 29.5t-19.5 70.5t40 70.5t75 29.5t65.5 -29.5t18.5 -70.5t-39 -70.5t-74 -29.5zM287 1536h139l-215 -1536h-139z" glyph-name="glyph485" horiz-adv-x="466"/><glyph d="M383 1731q-41 0 -66.5 29.5t-19.5 70.5t40 70.5t75 29.5t66.5 -29.5t19.5 -70.5t-40 -70.5t-75 -29.5zM287 1536h139l-215 -1536h-139z" glyph-name="glyph486" horiz-adv-x="466"/><glyph d="M287 1536h139l-215 -1536h-139zM90 -354q-41 0 -66.5 29.5t-19.5 70.5t40 70.5t75 29.5t66.5 -30.5t19.5 -69.5q-6 -41 -40 -70.5t-75 -29.5z" glyph-name="glyph487" horiz-adv-x="466"/><glyph d="M145 2048h144l145 -307h-115zM287 1536h139l-215 -1536h-139z" glyph-name="glyph488" horiz-adv-x="466"/><glyph d="M82 1849h637l-14 -94h-637zM287 1536h139l-215 -1536h-139z" glyph-name="glyph489" horiz-adv-x="466"/><glyph d="M266 -432q-121 -104 -278 -100q-100 4 -151.5 59t-39.5 149q27 172 285 324h-10l215 1536h139l-215 -1536h-12q-104 -43 -195.5 -128t-105.5 -183q-8 -63 23.5 -102.5t98.5 -39.5q117 0 209 88z" glyph-name="glyph490" horiz-adv-x="466"/><glyph d="M528 1729q-119 0 -168 108q-33 68 -98 68q-51 0 -86 -44t-39 -114h-90q4 106 68.5 176t154.5 70q117 0 170 -109q33 -68 99 -67q51 0 85.5 44t37.5 111h88q-2 -106 -66 -174.5t-156 -68.5zM287 1536h139l-215 -1536h-139z" glyph-name="glyph491" horiz-adv-x="466"/><glyph d="M145 -20q-88 0 -151 18l20 143q63 -23 152 -22q80 0 146.5 57t76.5 139l172 1221h137l-172 -1221q-20 -139 -131 -237t-250 -98z" glyph-name="glyph492" horiz-adv-x="745"/><glyph d="M854 0l-584 717l-100 -717h-139l215 1536h139l-104 -743l714 741h181l-758 -774l612 -760h-176z" glyph-name="glyph493" horiz-adv-x="1175"/><glyph d="M936 0l-666 717l-100 -717h-139l215 1536h139l-104 -743l796 741h180l-839 -774l694 -760h-176zM426 -348q-29 10 -44 36.5t-11 59.5q6 41 38.5 70.5t75.5 29.5q41 0 64.5 -29.5t17.5 -70.5t-45 -103.5t-76 -103.5l-34 -43h-43z" glyph-name="glyph494" horiz-adv-x="1257"/><glyph d="M225 1536h140l-199 -1411h579l-16 -125h-719z" glyph-name="glyph495" horiz-adv-x="919"/><glyph d="M502 2048h141l-258 -307h-115zM225 1536h140l-199 -1411h579l-16 -125h-719z" glyph-name="glyph496" horiz-adv-x="919"/><glyph d="M225 1536h140l-199 -1411h579l-16 -125h-719zM803 1339q-66 25 -55 97q6 41 38.5 70.5t75.5 29.5q41 0 64.5 -29.5t17.5 -70.5t-45 -103.5t-76 -103.5l-35 -43h-43z" glyph-name="glyph497" horiz-adv-x="933"/><glyph d="M225 1536h140l-199 -1411h579l-16 -125h-719zM283 -348q-29 10 -44.5 36.5t-11.5 59.5q6 41 39 70.5t76 29.5q41 0 64.5 -29.5t17.5 -70.5t-45 -103.5t-76 -103.5l-35 -43h-43z" glyph-name="glyph498" horiz-adv-x="919"/><glyph d="M225 1536h140l-199 -1411h579l-16 -125h-719zM319.5 -354q-40.5 0 -66.5 29.5t-19.5 70.5t40 70.5t74.5 29.5t66.5 -30.5t19.5 -69.5q-6 -41 -40 -70.5t-74.5 -29.5z" glyph-name="glyph499" horiz-adv-x="919"/><glyph d="M969 125l-17 -125h-719l89 639l-132 -121h-108l258 240l109 778h139l-88 -631l129 123h114l-260 -242l-94 -661h580z" glyph-name="glyph500" horiz-adv-x="1142"/><glyph d="M1788 1536l-215 -1536h-137l186 1329l-756 -1329h-90l-379 1329l-186 -1329h-139l215 1536h186l371 -1364l760 1364h184z" glyph-name="glyph501" horiz-adv-x="1828"/><glyph d="M1444 1536l-215 -1536h-125l-793 1303l-182 -1303h-139l215 1536h125l794 -1303l183 1303h137z" glyph-name="glyph502" horiz-adv-x="1464"/><glyph d="M909 1741h-114l231 307h141zM1444 1536l-215 -1536h-125l-793 1303l-182 -1303h-139l215 1536h125l794 -1303l183 1303h137z" glyph-name="glyph503" horiz-adv-x="1464"/><glyph d="M768 1698l-156 350h111l129 -272l205 272h110l-254 -350h-145zM1444 1536l-215 -1536h-125l-793 1303l-182 -1303h-139l215 1536h125l794 -1303l183 1303h137z" glyph-name="glyph504" horiz-adv-x="1464"/><glyph d="M1444 1536l-215 -1536h-125l-793 1303l-182 -1303h-139l215 1536h125l794 -1303l183 1303h137zM541 -352q-63 25 -54 96q6 41 39 70.5t76 29.5q41 0 64.5 -29.5t17.5 -70.5t-45 -103.5t-74 -103.5l-37 -43h-43z" glyph-name="glyph505" horiz-adv-x="1464"/><glyph d="M846 1731q-41 0 -66.5 29.5t-19.5 70.5t40 70.5t74.5 29.5t66.5 -29.5t19.5 -70.5t-40 -70.5t-74.5 -29.5zM1444 1536l-215 -1536h-125l-793 1303l-182 -1303h-139l215 1536h125l794 -1303l183 1303h137z" glyph-name="glyph506" horiz-adv-x="1464"/><glyph d="M1444 1536l-215 -1536h-125l-793 1303l-182 -1303h-139l215 1536h125l794 -1303l183 1303h137zM596 -154q41 0 66.5 -30.5t19.5 -69.5q-6 -41 -40 -70.5t-75 -29.5t-66.5 29.5t-19.5 70.5t40 70.5t75 29.5z" glyph-name="glyph507" horiz-adv-x="1464"/><glyph d="M1438 1536l-240 -1708q-16 -111 -100 -167t-199 -52l12 98q131 -12 150 121l26 197l-782 1271l-182 -1296h-133l215 1536h119l798 -1296l183 1296h133z" glyph-name="glyph508" horiz-adv-x="1458"/><glyph d="M594 1747q4 106 67.5 176t153.5 70q117 0 170 -109q33 -68 98 -67q51 0 86 44t37 111h88q-2 -106 -65.5 -174.5t-155.5 -68.5q-119 0 -168 108q-33 68 -98 68q-53 0 -87 -44t-36 -114h-90zM1444 1536l-215 -1536h-125l-793 1303l-182 -1303h-139l215 1536h125l794 -1303 l183 1303h137z" glyph-name="glyph509" horiz-adv-x="1464"/><glyph d="M700 -20q-324 0 -505 228t-133.5 560t292 560t568.5 228q322 0 504 -229t135 -559q-47 -332 -293 -560t-568 -228zM719 113q270 0 470 189.5t238 465.5q39 279 -107 468t-416.5 189t-471.5 -189t-239 -468q-39 -276 108.5 -465.5t417.5 -189.5z" glyph-name="glyph510" horiz-adv-x="1630"/><glyph d="M1128 2048h142l-258 -307h-115zM700 -20q-324 0 -505 228t-133.5 560t292 560t568.5 228q322 0 504 -229t135 -559q-47 -332 -293 -560t-568 -228zM719 113q270 0 470 189.5t238 465.5q39 279 -107 468t-416.5 189t-471.5 -189t-239 -468q-39 -276 108.5 -465.5 t417.5 -189.5z" glyph-name="glyph511" horiz-adv-x="1630"/><glyph d="M715 2048h110l129 -272l205 272h111l-254 -350h-146zM700 -20q-324 0 -505 228t-133.5 560t292 560t568.5 228q322 0 504 -229t135 -559q-47 -332 -293 -560t-568 -228zM719 113q270 0 470 189.5t238 465.5q39 279 -107 468t-416.5 189t-471.5 -189t-239 -468 q-39 -276 108.5 -465.5t417.5 -189.5z" glyph-name="glyph512" horiz-adv-x="1630"/><glyph d="M920 2048h145l156 -350h-115l-123 280l-203 -280h-114zM700 -20q-324 0 -505 228t-133.5 560t292 560t568.5 228q322 0 504 -229t135 -559q-47 -332 -293 -560t-568 -228zM719 113q270 0 470 189.5t238 465.5q39 279 -107 468t-416.5 189t-471.5 -189t-239 -468 q-39 -276 108.5 -465.5t417.5 -189.5z" glyph-name="glyph513" horiz-adv-x="1630"/><glyph d="M768 1731q-41 0 -66.5 29.5t-19.5 70.5t40 70.5t75 29.5t66.5 -29.5t19.5 -70.5t-40 -70.5t-75 -29.5zM1126 1731q-41 0 -66.5 29.5t-19 70.5t40 70.5t74.5 29.5t65.5 -29.5t18.5 -70.5t-39 -70.5t-74 -29.5zM700 -20q-324 0 -505 228t-133.5 560t292 560t568.5 228 q322 0 504 -229t135 -559q-47 -332 -293 -560t-568 -228zM719 113q270 0 470 189.5t238 465.5q39 279 -107 468t-416.5 189t-471.5 -189t-239 -468q-39 -276 108.5 -465.5t417.5 -189.5z" glyph-name="glyph514" horiz-adv-x="1630"/><glyph d="M700 -20q-324 0 -505 228t-133.5 560t292 560t568.5 228q322 0 504 -229t135 -559q-47 -332 -293 -560t-568 -228zM719 113q270 0 470 189.5t238 465.5q39 279 -107 468t-416.5 189t-471.5 -189t-239 -468q-39 -276 108.5 -465.5t417.5 -189.5zM655 -354 q-41 0 -66.5 29.5t-19.5 70.5t40 70.5t75 29.5t66.5 -30.5t19.5 -69.5q-6 -41 -40 -70.5t-75 -29.5z" glyph-name="glyph515" horiz-adv-x="1630"/><glyph d="M713 2048h141l145 -307h-114zM700 -20q-324 0 -505 228t-133.5 560t292 560t568.5 228q322 0 504 -229t135 -559q-47 -332 -293 -560t-568 -228zM719 113q270 0 470 189.5t238 465.5q39 279 -107 468t-416.5 189t-471.5 -189t-239 -468q-39 -276 108.5 -465.5 t417.5 -189.5z" glyph-name="glyph516" horiz-adv-x="1630"/><glyph d="M1085 2048h136l-383 -354h-107zM1407 2048h133l-381 -354h-108zM700 -20q-324 0 -505 228t-133.5 560t292 560t568.5 228q322 0 504 -229t135 -559q-47 -332 -293 -560t-568 -228zM719 113q270 0 470 189.5t238 465.5q39 279 -107 468t-416.5 189t-471.5 -189t-239 -468 q-39 -276 108.5 -465.5t417.5 -189.5z" glyph-name="glyph517" horiz-adv-x="1630"/><glyph d="M649 1849h635l-14 -94h-635zM700 -20q-324 0 -505 228t-133.5 560t292 560t568.5 228q322 0 504 -229t135 -559q-47 -332 -293 -560t-568 -228zM719 113q270 0 470 189.5t238 465.5q39 279 -107 468t-416.5 189t-471.5 -189t-239 -468q-39 -276 108.5 -465.5 t417.5 -189.5z" glyph-name="glyph518" horiz-adv-x="1630"/><glyph d="M1374 1386q113 -111 163 -271.5t24 -346.5q-47 -332 -293 -560t-568 -228q-219 0 -383 114l-92 -110h-106l135 163q-117 109 -168 272t-25 349q47 332 292 560t569 228q225 0 389 -118l92 112h104zM193 768q-20 -156 18.5 -289t130.5 -223l881 1073q-135 96 -320 96 q-270 0 -470.5 -189t-239.5 -468zM719 113q270 0 470 189.5t238 465.5q45 319 -143 508l-876 -1073q131 -90 311 -90z" glyph-name="glyph519" horiz-adv-x="1630"/><glyph d="M1012 1741h-115l231 307h142zM1374 1386q113 -111 163 -271.5t24 -346.5q-47 -332 -293 -560t-568 -228q-219 0 -383 114l-92 -110h-106l135 163q-117 109 -168 272t-25 349q47 332 292 560t569 228q225 0 389 -118l92 112h104zM193 768q-20 -156 18.5 -289t130.5 -223 l881 1073q-135 96 -320 96q-270 0 -470.5 -189t-239.5 -468zM719 113q270 0 470 189.5t238 465.5q45 319 -143 508l-876 -1073q131 -90 311 -90z" glyph-name="glyph520" horiz-adv-x="1630"/><glyph d="M1094 1729q-119 0 -168 108q-33 68 -99 68q-53 0 -86.5 -44t-35.5 -114h-91q4 106 67.5 176t154.5 70q117 0 170 -109q33 -68 98 -67q51 0 86 44t37 111h88q-2 -106 -65.5 -174.5t-155.5 -68.5zM700 -20q-324 0 -505 228t-133.5 560t292 560t568.5 228q322 0 504 -229 t135 -559q-47 -332 -293 -560t-568 -228zM719 113q270 0 470 189.5t238 465.5q39 279 -107 468t-416.5 189t-471.5 -189t-239 -468q-39 -276 108.5 -465.5t417.5 -189.5z" glyph-name="glyph521" horiz-adv-x="1630"/><glyph d="M2478 1413h-790l-82 -582h704l-18 -124h-705l-82 -582h791l-17 -125h-929l36 268q-127 -133 -296.5 -209.5t-350.5 -76.5q-328 0 -525.5 230t-152.5 558q31 215 162 396.5t328 287t412 105.5q180 0 326.5 -76t238.5 -209l37 262h929zM758 115q203 0 384 112.5t281 294.5 l70 496q-49 182 -198.5 294.5t-352.5 112.5q-274 0 -491.5 -191.5t-255.5 -463.5q-37 -272 127 -463.5t436 -191.5z" glyph-name="glyph522" horiz-adv-x="2488"/><glyph d="M760 1536q174 0 279.5 -133t80.5 -309q-27 -178 -169 -310.5t-316 -132.5h-395l-90 -651h-140l215 1536h535zM643 770q125 0 227.5 94t122.5 228q16 129 -59.5 225t-198.5 96h-387l-92 -643h387z" glyph-name="glyph523" horiz-adv-x="1138"/><glyph d="M729 1325q176 0 281.5 -124t79.5 -300q-23 -174 -163.5 -296t-316.5 -122h-397l-68 -483h-135l187 1325l26 203h135l-26 -203h397zM623 604q125 0 225 87t119 214q16 125 -60 212t-200 87h-394l-84 -600h394z" glyph-name="glyph524" horiz-adv-x="1136"/><glyph d="M1532 119l-16 -119h-31q-133 0 -219 104l-49 60q-233 -184 -517 -184q-324 0 -505 228t-133.5 560t292 560t568.5 228q322 0 504 -229t135 -559q-41 -295 -244 -512l57 -72q51 -66 129 -65h29zM719 113q236 0 420 145l-228 283l101 88l227 -279q156 180 188 418 q39 279 -107 468t-416.5 189t-471.5 -189t-239 -468q-39 -276 108.5 -465.5t417.5 -189.5z" glyph-name="glyph525" horiz-adv-x="1660"/><glyph d="M1001 0h-155l-307 659h-318l-92 -659h-139l215 1536h534q174 0 279.5 -133t81.5 -311q-23 -158 -144.5 -282t-275.5 -144zM629 776q123 0 224 96.5t120 223.5q16 125 -58.5 221t-195.5 96h-391l-90 -637h391z" glyph-name="glyph526" horiz-adv-x="1165"/><glyph d="M819 1741h-114l231 307h141zM1083 0h-155l-307 659h-400l-92 -659h-139l215 1536h616q174 0 279.5 -133t81.5 -311q-23 -158 -145 -282t-275 -144zM711 776q123 0 224 96.5t120 223.5q16 125 -58.5 221t-195.5 96h-473l-90 -637h473z" glyph-name="glyph527" horiz-adv-x="1247"/><glyph d="M678 1698l-156 350h111l129 -272l205 272h110l-254 -350h-145zM1083 0h-155l-307 659h-400l-92 -659h-139l215 1536h616q174 0 279.5 -133t81.5 -311q-23 -158 -145 -282t-275 -144zM711 776q123 0 224 96.5t120 223.5q16 125 -58.5 221t-195.5 96h-473l-90 -637h473z " glyph-name="glyph528" horiz-adv-x="1247"/><glyph d="M1083 0h-155l-307 659h-400l-92 -659h-139l215 1536h616q174 0 279.5 -133t81.5 -311q-23 -158 -145 -282t-275 -144zM711 776q123 0 224 96.5t120 223.5q16 125 -58.5 221t-195.5 96h-473l-90 -637h473zM436 -344q-66 27 -53 96q4 41 37 71t76 30q41 0 64.5 -29 t19.5 -72q-6 -41 -46 -103.5t-75 -103.5l-37 -43h-43z" glyph-name="glyph529" horiz-adv-x="1247"/><glyph d="M473 -20q-225 0 -351 128t-114 308h148q2 -129 81.5 -216t256 -87t291 77.5t137.5 225.5q8 55 -7.5 100t-38 73.5t-75.5 58.5t-86 43.5t-103 39.5q-41 14 -59 23q-209 82 -283 137q-135 104 -112 270q18 129 102 221.5t196.5 133t237.5 40.5q463 0 475 -415h-125 q-2 123 -88 209t-278 86q-137 0 -248 -68t-129 -197q-8 -59 14.5 -106t70.5 -82t101.5 -60.5t124.5 -54.5q14 -6 23 -8q20 -8 61 -24q80 -31 120 -48.5t102.5 -56.5t91 -77t47 -98t8.5 -134q-29 -205 -199 -323.5t-393 -118.5z" glyph-name="glyph530" horiz-adv-x="1146"/><glyph d="M1053 2046h141l-258 -307h-115zM494 -20q-227 0 -361.5 129t-124.5 307h148q2 -125 91 -214t267 -89t302 78.5t147 224.5q8 57 -8.5 103t-46 77t-83 58.5t-98.5 45t-111 39.5q-29 10 -43 15q-88 31 -133 49t-114.5 56t-102.5 75t-54.5 96.5t-10.5 130.5q18 127 107 220.5 t206 134t244 40.5q242 0 357.5 -108.5t119.5 -286.5h-125q0 113 -95 194t-274 81q-88 0 -171 -27t-148.5 -88t-77.5 -150q-8 -57 13.5 -102t76.5 -82t98 -57.5t125 -52.5q27 -10 41 -17q25 -10 74 -29q66 -25 99.5 -40t91 -43.5t86 -56t59.5 -67.5t40 -90.5t1 -111.5 q-20 -137 -113.5 -239.5t-223.5 -152.5t-275 -50z" glyph-name="glyph531" horiz-adv-x="1183"/><glyph d="M639 2046h111l129 -272l204 272h111l-254 -350h-145zM494 -20q-227 0 -361.5 129t-124.5 307h148q2 -125 91 -214t267 -89t302 78.5t147 224.5q8 57 -8.5 103t-46 77t-83 58.5t-98.5 45t-111 39.5q-29 10 -43 15q-88 31 -133 49t-114.5 56t-102.5 75t-54.5 96.5 t-10.5 130.5q18 127 107 220.5t206 134t244 40.5q242 0 357.5 -108.5t119.5 -286.5h-125q0 113 -95 194t-274 81q-88 0 -171 -27t-148.5 -88t-77.5 -150q-8 -57 13.5 -102t76.5 -82t98 -57.5t125 -52.5q27 -10 41 -17q25 -10 74 -29q66 -25 99.5 -40t91 -43.5t86 -56 t59.5 -67.5t40 -90.5t1 -111.5q-20 -137 -113.5 -239.5t-223.5 -152.5t-275 -50z" glyph-name="glyph532" horiz-adv-x="1183"/><glyph d="M655 860q25 -10 74 -29q66 -25 99.5 -40t91 -43.5t86 -56t59.5 -67.5t40 -90.5t1 -111.5q-29 -193 -190.5 -310.5t-372.5 -129.5l-72 -123q113 20 181.5 -33t54.5 -152q-12 -86 -80 -145t-154 -59q-66 0 -128 34.5t-89 85.5l72 33q23 -35 66.5 -57.5t88.5 -22.5 q55 0 97.5 38t50.5 93q10 78 -48.5 109t-154.5 -2l-57 45l96 154q-217 8 -343 135t-116 301h148q2 -125 91 -214t267 -89t302 78.5t147 224.5q8 57 -8.5 103t-46 77t-83 58.5t-98.5 45t-111 39.5q-29 10 -43 15q-88 31 -133 49t-114.5 56t-102.5 75t-54.5 96.5t-10.5 130.5 q18 127 107 220.5t206 134t244 40.5q242 0 357.5 -108.5t119.5 -286.5h-125q0 113 -95 194t-274 81q-88 0 -171 -27t-148.5 -88t-77.5 -150q-8 -57 13.5 -102t76.5 -82t98 -57.5t125 -52.5q27 -11 41 -17z" glyph-name="glyph533" horiz-adv-x="1183"/><glyph d="M494 -20q-227 0 -361.5 129t-124.5 307h148q2 -125 91 -214t267 -89t302 78.5t147 224.5q8 57 -8.5 103t-46 77t-83 58.5t-98.5 45t-111 39.5q-29 10 -43 15q-88 31 -133 49t-114.5 56t-102.5 75t-54.5 96.5t-10.5 130.5q18 127 107 220.5t206 134t244 40.5 q242 0 357.5 -108.5t119.5 -286.5h-125q0 113 -95 194t-274 81q-88 0 -171 -27t-148.5 -88t-77.5 -150q-8 -57 13.5 -102t76.5 -82t98 -57.5t125 -52.5q27 -10 41 -17q25 -10 74 -29q66 -25 99.5 -40t91 -43.5t86 -56t59.5 -67.5t40 -90.5t1 -111.5q-20 -137 -113.5 -239.5 t-223.5 -152.5t-275 -50zM487 -350q-29 10 -44 36.5t-11 59.5q6 41 39 70.5t76 29.5q41 0 64.5 -29.5t17.5 -70.5t-45 -103.5t-76 -105.5l-35 -41h-43z" glyph-name="glyph534" horiz-adv-x="1183"/><glyph d="M494 -20q-227 0 -361.5 129t-124.5 307h148q2 -125 91 -214t267 -89t302 78.5t147 224.5q8 57 -8.5 103t-46 77t-83 58.5t-98.5 45t-111 39.5q-29 10 -43 15q-88 31 -133 49t-114.5 56t-102.5 75t-54.5 96.5t-10.5 130.5q18 127 107 220.5t206 134t244 40.5 q242 0 357.5 -108.5t119.5 -286.5h-125q0 113 -95 194t-274 81q-88 0 -171 -27t-148.5 -88t-77.5 -150q-8 -57 13.5 -102t76.5 -82t98 -57.5t125 -52.5q27 -10 41 -17q25 -10 74 -29q66 -25 99.5 -40t91 -43.5t86 -56t59.5 -67.5t40 -90.5t1 -111.5q-20 -137 -113.5 -239.5 t-223.5 -152.5t-275 -50zM551 -352q-41 0 -65.5 29.5t-20.5 70.5q6 41 40 70.5t75 29.5t66.5 -30.5t19.5 -69.5q-4 -41 -39 -70.5t-76 -29.5z" glyph-name="glyph535" horiz-adv-x="1183"/><glyph d="M1194 1413h-471l-199 -1411h-137l199 1411h-471l16 125h1079z" glyph-name="glyph536" horiz-adv-x="1155"/><glyph d="M1194 1413h-471l-84 -594h301l-14 -100h-301l-101 -717h-137l100 717h-139l14 100h140l84 594h-471l16 125h1079z" glyph-name="glyph537" horiz-adv-x="1155"/><glyph d="M696 1698l-155 350h110l129 -272l205 272h111l-254 -350h-146zM1194 1413h-471l-199 -1411h-137l199 1411h-471l16 125h1079z" glyph-name="glyph538" horiz-adv-x="1155"/><glyph d="M131 1538h1079l-16 -125h-471l-199 -1411h-41l-75 -125q113 23 182 -31.5t55 -152.5q-12 -86 -80.5 -145.5t-154.5 -59.5q-66 0 -128.5 35t-86.5 86l69 33q20 -33 66.5 -56.5t91.5 -23.5q55 0 96 38t51 93q10 78 -49 108.5t-155 -2.5l-58 45l99 158h-19l199 1411h-471z " glyph-name="glyph539" horiz-adv-x="1155"/><glyph d="M1194 1413h-471l-199 -1411h-137l199 1411h-471l16 125h1079zM373 -340q-63 25 -54 96q6 41 39 71t76 30q41 0 64.5 -30t17.5 -71t-45 -103.5t-74 -103.5l-37 -43h-43z" glyph-name="glyph540" horiz-adv-x="1155"/><glyph d="M1194 1413h-471l-199 -1411h-137l199 1411h-471l16 125h1079zM436 -154q41 0 66.5 -30.5t19.5 -69.5q-6 -41 -39.5 -70.5t-74.5 -29.5t-67 29.5t-19.5 70.5t40 70.5t74.5 29.5z" glyph-name="glyph541" horiz-adv-x="1155"/><glyph d="M555 -20q-238 0 -381 153.5t-113 372.5l146 1030h139l-141 -1010q-25 -176 82.5 -299t285.5 -123q180 0 322.5 123t167.5 299l141 1010h137l-145 -1030q-31 -219 -217 -372.5t-424 -153.5z" glyph-name="glyph542" horiz-adv-x="1368"/><glyph d="M1069 2048h141l-258 -307h-114zM559.5 -20q-237.5 0 -383 153.5t-115.5 372.5l146 1030h139l-141 -1010q-25 -174 84.5 -298t288.5 -124q182 0 333.5 124t175.5 298l142 1010h137l-145 -1030q-31 -217 -227.5 -371.5t-434 -154.5z" glyph-name="glyph543" horiz-adv-x="1392"/><glyph d="M569 2048h111l129 -272l205 272h110l-254 -350h-145zM555 -20q-238 0 -381 153.5t-113 372.5l146 1030h139l-141 -1010q-25 -176 82.5 -299t285.5 -123q180 0 322.5 123t167.5 299l141 1010h137l-145 -1030q-31 -219 -217 -372.5t-424 -153.5z" glyph-name="glyph544" horiz-adv-x="1368"/><glyph d="M860 2048h146l155 -350h-114l-123 280l-203 -280h-115zM559.5 -20q-237.5 0 -383 153.5t-115.5 372.5l146 1030h139l-141 -1010q-25 -174 84.5 -298t288.5 -124q182 0 333.5 124t175.5 298l142 1010h137l-145 -1030q-31 -217 -227.5 -371.5t-434 -154.5z" glyph-name="glyph545" horiz-adv-x="1392"/><glyph d="M709 1731q-41 0 -67 29.5t-19.5 70.5t40 70.5t74.5 29.5t66.5 -29.5t19.5 -70.5t-39.5 -70.5t-74.5 -29.5zM1067 1731q-41 0 -66.5 29.5t-19.5 70.5t40 70.5t75 29.5t65.5 -29.5t18.5 -70.5t-39 -70.5t-74 -29.5zM559.5 -20q-237.5 0 -383 153.5t-115.5 372.5l146 1030 h139l-141 -1010q-25 -174 84.5 -298t288.5 -124q182 0 333.5 124t175.5 298l142 1010h137l-145 -1030q-31 -217 -227.5 -371.5t-434 -154.5z" glyph-name="glyph546" horiz-adv-x="1392"/><glyph d="M555 -20q-238 0 -381 153.5t-113 372.5l146 1030h139l-141 -1010q-25 -176 82.5 -299t285.5 -123q180 0 322.5 123t167.5 299l141 1010h137l-145 -1030q-31 -219 -217 -372.5t-424 -153.5zM510 -354q-41 0 -66.5 29.5t-19.5 70.5t40 70.5t75 29.5t66.5 -30.5t19.5 -69.5 q-6 -41 -40 -70.5t-75 -29.5z" glyph-name="glyph547" horiz-adv-x="1368"/><glyph d="M653 2048h142l145 -307h-115zM559.5 -20q-237.5 0 -383 153.5t-115.5 372.5l146 1030h139l-141 -1010q-25 -174 84.5 -298t288.5 -124q182 0 333.5 124t175.5 298l142 1010h137l-145 -1030q-31 -217 -227.5 -371.5t-434 -154.5z" glyph-name="glyph548" horiz-adv-x="1392"/><glyph d="M1026 2048h135l-383 -354h-106zM1348 2048h133l-381 -354h-109zM559.5 -20q-237.5 0 -383 153.5t-115.5 372.5l146 1030h139l-141 -1010q-25 -174 84.5 -298t288.5 -124q182 0 333.5 124t175.5 298l142 1010h137l-145 -1030q-31 -217 -227.5 -371.5t-434 -154.5z" glyph-name="glyph549" horiz-adv-x="1435"/><glyph d="M590 1849h635l-15 -94h-635zM559.5 -20q-237.5 0 -383 153.5t-115.5 372.5l146 1030h139l-141 -1010q-25 -174 84.5 -298t288.5 -124q182 0 333.5 124t175.5 298l142 1010h137l-145 -1030q-31 -217 -227.5 -371.5t-434 -154.5z" glyph-name="glyph550" horiz-adv-x="1392"/><glyph d="M559.5 -20q-237.5 0 -383 153.5t-115.5 372.5l146 1030h139l-141 -1010q-25 -174 84.5 -298t288.5 -124q182 0 333.5 124t175.5 298l142 1010h137l-145 -1030q-31 -217 -227.5 -371.5t-434 -154.5zM799 2q-96 -47 -175 -128t-92 -171q-8 -63 24 -102t99 -39q117 0 209 88 l37 -68q-121 -104 -278 -100q-100 2 -150.5 58.5t-38.5 150.5q23 156 228 291z" glyph-name="glyph551" horiz-adv-x="1392"/><glyph d="M881 1661q-82 0 -132.5 58.5t-39.5 138.5q12 82 78.5 140t148.5 58q80 0 129 -58.5t37 -139.5q-10 -80 -75.5 -138.5t-145.5 -58.5zM889 1731q53 0 95 36.5t50 90t-24.5 92.5t-83.5 39q-53 0 -96.5 -39t-51.5 -92.5t25 -90t86 -36.5zM559.5 -20q-237.5 0 -383 153.5 t-115.5 372.5l146 1030h139l-141 -1010q-25 -174 84.5 -298t288.5 -124q182 0 333.5 124t175.5 298l142 1010h137l-145 -1030q-31 -217 -227.5 -371.5t-434 -154.5z" glyph-name="glyph552" horiz-adv-x="1392"/><glyph d="M1034 1729q-119 0 -168 108q-33 68 -98 68q-53 0 -87 -44t-36 -114h-90q4 106 67.5 176t153.5 70q117 0 170 -109q33 -68 98 -67q51 0 86 44t37 111h88q-2 -106 -65.5 -174.5t-155.5 -68.5zM559.5 -20q-237.5 0 -383 153.5t-115.5 372.5l146 1030h139l-141 -1010 q-25 -174 84.5 -298t288.5 -124q182 0 333.5 124t175.5 298l142 1010h137l-145 -1030q-31 -217 -227.5 -371.5t-434 -154.5z" glyph-name="glyph553" horiz-adv-x="1392"/><glyph d="M1505 1536l-831 -1536h-154l-403 1536h157l344 -1374l732 1374h155z" glyph-name="glyph554" horiz-adv-x="1378"/><glyph d="M2122 1536l-701 -1536h-170l-153 1264l-512 -1264h-170l-273 1536h150l223 -1370l555 1370h143l152 -1372l606 1372h150z" glyph-name="glyph555" horiz-adv-x="2039"/><glyph d="M1286 1741h-115l232 307h141zM2122 1536l-701 -1536h-170l-153 1264l-512 -1264h-170l-273 1536h150l223 -1370l555 1370h143l152 -1372l606 1372h150z" glyph-name="glyph556" horiz-adv-x="2039"/><glyph d="M1055 1698h-115l254 350h145l156 -350h-115l-123 280zM2122 1536l-701 -1536h-170l-153 1264l-512 -1264h-170l-273 1536h150l223 -1370l555 1370h143l152 -1372l606 1372h150z" glyph-name="glyph557" horiz-adv-x="2039"/><glyph d="M1042 1731q-41 0 -66.5 29.5t-19 70.5t40 70.5t74.5 29.5t66.5 -29.5t19.5 -70.5t-40 -70.5t-75 -29.5zM1401 1731q-41 0 -66.5 29.5t-19.5 70.5t40 70.5t74.5 29.5t65.5 -29.5t18.5 -70.5t-39 -70.5t-73.5 -29.5zM2122 1536l-701 -1536h-170l-153 1264l-512 -1264h-170 l-273 1536h150l223 -1370l555 1370h143l152 -1372l606 1372h150z" glyph-name="glyph558" horiz-adv-x="2039"/><glyph d="M1159 1741l-172 307h141l146 -307h-115zM2122 1536l-701 -1536h-170l-153 1264l-512 -1264h-170l-273 1536h150l223 -1370l555 1370h143l152 -1372l606 1372h150z" glyph-name="glyph559" horiz-adv-x="2039"/><glyph d="M989 0l-346 662l-528 -662h-160l629 776l-404 760h158l338 -645l520 645h158l-619 -760l416 -776h-162z" glyph-name="glyph560" horiz-adv-x="1290"/><glyph d="M731 729l-102 -729h-137l100 725l-422 811h156l352 -688l547 688h153z" glyph-name="glyph561" horiz-adv-x="1302"/><glyph d="M866 1741h-114l231 307h141zM731 729l-102 -729h-137l100 725l-422 811h156l352 -688l547 688h153z" glyph-name="glyph562" horiz-adv-x="1302"/><glyph d="M635 1698h-115l254 350h146l155 -350h-114l-123 280zM731 729l-102 -729h-137l100 725l-422 811h156l352 -688l547 688h153z" glyph-name="glyph563" horiz-adv-x="1302"/><glyph d="M625 1731q-41 0 -67 29.5t-19.5 70.5t40 70.5t74.5 29.5t66.5 -29.5t19.5 -70.5t-39.5 -70.5t-74.5 -29.5zM983 1731q-41 0 -66.5 29.5t-19.5 70.5t40 70.5t75 29.5t65.5 -29.5t18.5 -70.5t-39 -70.5t-74 -29.5zM731 729l-102 -729h-137l100 725l-422 811h156l352 -688 l547 688h153z" glyph-name="glyph564" horiz-adv-x="1302"/><glyph d="M592 725l-422 811h156l352 -688l547 688h153l-647 -807l-102 -729h-137zM539 -154q41 0 66.5 -30.5t19.5 -69.5q-6 -41 -40 -70.5t-75 -29.5t-66.5 29.5t-19.5 70.5t40 70.5t75 29.5z" glyph-name="glyph565" horiz-adv-x="1302"/><glyph d="M741 1741l-172 307h142l145 -307h-115zM731 729l-102 -729h-137l100 725l-422 811h156l352 -688l547 688h153z" glyph-name="glyph566" horiz-adv-x="1302"/><glyph d="M471 1747q4 106 67.5 176t153.5 70q117 0 170 -109q33 -68 99 -67q51 0 85.5 44t36.5 111h88q-2 -106 -65.5 -174.5t-155.5 -68.5q-119 0 -168 108q-33 68 -98 68q-53 0 -87 -44t-36 -114h-90zM731 729l-102 -729h-137l100 725l-422 811h156l352 -688l547 688h153z" glyph-name="glyph567" horiz-adv-x="1302"/><glyph d="M1180 125l-17 -125h-1159l8 70l1123 1343h-910l17 123h1101l-10 -70l-1120 -1341h967z" glyph-name="glyph568" horiz-adv-x="1353"/><glyph d="M893 1741h-115l232 307h141zM1180 125l-17 -125h-1159l8 70l1123 1343h-910l17 123h1101l-10 -70l-1120 -1341h967z" glyph-name="glyph569" horiz-adv-x="1353"/><glyph d="M752 1698l-156 350h111l129 -272l204 272h111l-254 -350h-145zM1180 125l-17 -125h-1159l8 70l1123 1343h-910l17 123h1101l-10 -70l-1120 -1341h967z" glyph-name="glyph570" horiz-adv-x="1353"/><glyph d="M829 1731q-41 0 -66.5 29.5t-19 70.5t40 70.5t74.5 29.5t66.5 -29.5t19.5 -70.5t-40 -70.5t-75 -29.5zM1180 125l-17 -125h-1159l8 70l1123 1343h-910l17 123h1101l-10 -70l-1120 -1341h967z" glyph-name="glyph571" horiz-adv-x="1353"/><glyph d="M1180 125l-17 -125h-1159l8 70l1123 1343h-910l17 123h1101l-10 -70l-1120 -1341h967zM555 -154q41 0 66.5 -30.5t19.5 -69.5q-6 -41 -40 -70.5t-75 -29.5t-66.5 29.5t-19.5 70.5t40 70.5t75 29.5z" glyph-name="glyph572" horiz-adv-x="1353"/><glyph d="M295 -20q-141 0 -225 82.5t-64 216.5q18 133 143 220t357 87h250l12 90q35 252 -225 252t-314 -193h-118q35 137 147.5 221t306.5 84q178 0 268.5 -93t65.5 -277l-94 -670h-121l10 158q-70 -78 -174 -128t-225 -50zM309 88q115 0 237 58.5t171 164.5l24 183l-249 -2 q-174 -2 -258 -62.5t-97 -150.5q-12 -86 38 -138.5t134 -52.5z" glyph-name="glyph573" horiz-adv-x="954"/><glyph d="M946 1536l-258 -307h-115l232 307h141zM961 737l-62 -461q-14 -90 -1 -125.5t60 -33.5l-16 -117q-29 0 -57 6q-137 29 -127 170q-57 -78 -173 -131t-243 -53q-162 0 -257 92t-75 233q49 334 516 365l297 18l6 43q18 135 -53 206t-211 71q-123 0 -211 -69.5t-114 -176.5 h-140q37 152 164 260.5t324 108.5q201 0 300.5 -110t72.5 -296zM782 408l23 170l-295 -21q-338 -23 -369 -242q-12 -90 57.5 -144t168.5 -54q145 0 272 88t143 203z" glyph-name="glyph574" horiz-adv-x="1091"/><glyph d="M555 1165q-143 0 -225 84t-62 221h88q-14 -90 46.5 -153.5t165 -63.5t183 63.5t93.5 153.5h86q-20 -137 -125 -221t-250 -84zM342 -8q-162 0 -257 92t-75 233q49 334 516 365l297 18l6 43q18 135 -53 206t-211 71q-123 0 -211 -69.5t-114 -176.5h-140q37 152 164 260.5 t324 108.5q201 0 300 -109.5t73 -296.5l-62 -461q-14 -90 -1 -125.5t60 -33.5l-16 -117q-29 0 -57 6q-137 29 -127 170q-57 -78 -173 -131t-243 -53zM367 117q145 0 272 88t143 203l23 170l-295 -21q-338 -23 -369 -242q-12 -90 58 -144t168 -54z" glyph-name="glyph575" horiz-adv-x="1091"/><glyph d="M506 1186l-156 350h111l129 -272l205 272h110l-254 -350h-145zM342 -8q-162 0 -257 92t-75 233q49 334 516 365l297 18l6 43q18 135 -53 206t-211 71q-123 0 -211 -69.5t-114 -176.5h-140q37 152 164 260.5t324 108.5q201 0 300 -109.5t73 -296.5l-62 -461 q-14 -90 -1 -125.5t60 -33.5l-16 -117q-29 0 -57 6q-137 29 -127 170q-57 -78 -173 -131t-243 -53zM367 117q145 0 272 88t143 203l23 170l-295 -21q-338 -23 -369 -242q-12 -90 58 -144t168 -54z" glyph-name="glyph576" horiz-adv-x="1091"/><glyph d="M614 1466l-202 -280h-115l254 350h145l156 -350h-115zM961 737l-62 -461q-14 -90 -1 -125.5t60 -33.5l-16 -117q-29 0 -57 6q-137 29 -127 170q-57 -78 -173 -131t-243 -53q-162 0 -257 92t-75 233q49 334 516 365l297 18l6 43q18 135 -53 206t-211 71q-123 0 -211 -69.5 t-114 -176.5h-140q37 152 164 260.5t324 108.5q201 0 300.5 -110t72.5 -296zM782 408l23 170l-295 -21q-338 -23 -369 -242q-12 -90 57.5 -144t168.5 -54q145 0 272 88t143 203z" glyph-name="glyph577" horiz-adv-x="1091"/><glyph d="M385 1219q-41 0 -66.5 29.5t-19.5 70.5t40 70.5t75 29.5t66.5 -29.5t19.5 -70.5t-40 -70.5t-75 -29.5zM743 1219q-41 0 -66.5 29.5t-19 70.5t40 70.5t74.5 29.5t65.5 -29.5t18.5 -70.5t-39 -70.5t-74 -29.5zM342 -8q-162 0 -257 92t-75 233q49 334 516 365l297 18l6 43 q18 135 -53 206t-211 71q-123 0 -211 -69.5t-114 -176.5h-140q37 152 164 260.5t324 108.5q201 0 300 -109.5t73 -296.5l-62 -461q-14 -90 -1 -125.5t60 -33.5l-16 -117q-29 0 -57 6q-137 29 -127 170q-57 -78 -173 -131t-243 -53zM367 117q145 0 272 88t143 203l23 170 l-295 -21q-338 -23 -369 -242q-12 -90 58 -144t168 -54z" glyph-name="glyph578" horiz-adv-x="1091"/><glyph d="M342 -8q-162 0 -257 92t-75 233q49 334 516 365l297 18l6 43q18 135 -53 206t-211 71q-123 0 -211 -69.5t-114 -176.5h-140q37 152 164 260.5t324 108.5q201 0 300 -109.5t73 -296.5l-62 -461q-14 -90 -1 -125.5t60 -33.5l-16 -117q-29 0 -57 6q-137 29 -127 170 q-57 -78 -173 -131t-243 -53zM367 117q145 0 272 88t143 203l23 170l-295 -21q-338 -23 -369 -242q-12 -90 58 -144t168 -54zM401 -154q41 0 67 -30.5t19 -69.5q-6 -41 -39.5 -70.5t-74.5 -29.5t-66.5 29.5t-19.5 70.5t39.5 70.5t74.5 29.5z" glyph-name="glyph579" horiz-adv-x="1091"/><glyph d="M678 1229h-115l-172 307h141zM961 737l-62 -461q-14 -90 -1 -125.5t60 -33.5l-16 -117q-29 0 -57 6q-137 29 -127 170q-57 -78 -173 -131t-243 -53q-162 0 -257 92t-75 233q49 334 516 365l297 18l6 43q18 135 -53 206t-211 71q-123 0 -211 -69.5t-114 -176.5h-140 q37 152 164 260.5t324 108.5q201 0 300.5 -110t72.5 -296zM782 408l23 170l-295 -21q-338 -23 -369 -242q-12 -90 57.5 -144t168.5 -54q145 0 272 88t143 203z" glyph-name="glyph580" horiz-adv-x="1091"/><glyph d="M885 1243h-635l12 94h635zM342 -8q-162 0 -257 92t-75 233q49 334 516 365l297 18l6 43q18 135 -53 206t-211 71q-123 0 -211 -69.5t-114 -176.5h-140q37 152 164 260.5t324 108.5q201 0 300 -109.5t73 -296.5l-62 -461q-14 -90 -1 -125.5t60 -33.5l-16 -117q-29 0 -57 6 q-137 29 -127 170q-57 -78 -173 -131t-243 -53zM367 117q145 0 272 88t143 203l23 170l-295 -21q-338 -23 -369 -242q-12 -90 58 -144t168 -54z" glyph-name="glyph581" horiz-adv-x="1091"/><glyph d="M342 -8q-162 0 -257 92t-75 233q49 334 516 365l297 18l6 43q18 135 -53 206t-211 71q-123 0 -211 -69.5t-114 -176.5h-140q37 152 164 260.5t324 108.5q201 0 300 -109.5t73 -296.5l-62 -461q-14 -90 -1 -125.5t60 -33.5l-16 -117q-29 0 -57 6q-137 29 -127 170 q-57 -78 -173 -131t-243 -53zM367 117q145 0 272 88t143 203l23 170l-295 -21q-338 -23 -369 -242q-12 -90 58 -144t168 -54zM590 -532q-100 4 -150.5 59t-38.5 149q27 176 279 324h121q-104 -43 -195.5 -128t-105.5 -183q-8 -63 23.5 -102.5t99.5 -39.5q117 0 208 88 l37 -67q-124 -106 -278 -100z" glyph-name="glyph582" horiz-adv-x="1091"/><glyph d="M573 1149q-82 0 -131 58.5t-39 138.5q10 82 78 140t150 58q80 0 128 -58.5t38 -139.5q-10 -80 -77 -138.5t-147 -58.5zM621 1477q-53 0 -96.5 -39t-51.5 -92.5t24.5 -90t86 -36.5t95.5 36.5t50 90t-24.5 92.5t-83.5 39zM342 -8q-162 0 -257 92t-75 233q49 334 516 365 l297 18l6 43q18 135 -53 206t-211 71q-123 0 -211 -69.5t-114 -176.5h-140q37 152 164 260.5t324 108.5q201 0 300 -109.5t73 -296.5l-62 -461q-14 -90 -1 -125.5t60 -33.5l-16 -117q-29 0 -57 6q-137 29 -127 170q-57 -78 -173 -131t-243 -53zM367 117q145 0 272 88 t143 203l23 170l-295 -21q-338 -23 -369 -242q-12 -90 58 -144t168 -54z" glyph-name="glyph583" horiz-adv-x="1091"/><glyph d="M231 1235q4 106 67.5 176t154.5 70q117 0 170 -109q33 -68 98 -67q51 0 86 43t37 112h88q-2 -106 -65.5 -174.5t-155.5 -68.5q-119 0 -168 108q-33 68 -99 68q-53 0 -86.5 -44t-35.5 -114h-91zM342 -8q-162 0 -257 92t-75 233q49 334 516 365l297 18l6 43q18 135 -53 206 t-211 71q-123 0 -211 -69.5t-114 -176.5h-140q37 152 164 260.5t324 108.5q201 0 300 -109.5t73 -296.5l-62 -461q-14 -90 -1 -125.5t60 -33.5l-16 -117q-29 0 -57 6q-137 29 -127 170q-57 -78 -173 -131t-243 -53zM367 117q145 0 272 88t143 203l23 170l-295 -21 q-338 -23 -369 -242q-12 -90 58 -144t168 -54z" glyph-name="glyph584" horiz-adv-x="1091"/><glyph d="M1870 565q-4 -39 -10 -57h-897q-16 -201 84 -308.5t270 -107.5q117 0 230.5 62.5t152.5 162.5h121q-47 -152 -196.5 -246t-348.5 -94q-272 0 -389 211l-29 -188h-119l19 180q-57 -78 -173 -133t-243 -55q-162 0 -257 92t-75 233q45 307 516 365l299 37l4 24 q18 141 -52 213t-212 72q-127 0 -212 -71.5t-113 -180.5h-134q39 156 161 261.5t321 105.5q158 0 254 -65.5t119 -188.5q84 117 207.5 184.5t271.5 65.5q233 -2 349 -161t81 -413zM983 625h760q10 174 -74 279.5t-246 105.5q-164 0 -279.5 -105.5t-160.5 -279.5zM782 408 l27 200l-297 -39q-195 -25 -276.5 -93t-96.5 -169q-14 -96 54.5 -146t171.5 -50q145 0 273 89t144 208z" glyph-name="glyph585" horiz-adv-x="1826"/><glyph d="M719 1044q211 0 320.5 -152.5t78.5 -379.5q-33 -227 -185.5 -379.5t-363.5 -152.5q-240 0 -346 204l-28 -184h-123l215 1536h133l-96 -690q157 198 395 198zM567 100q162 0 279 119t141 293q25 176 -58 294t-245 118q-133 0 -240.5 -88t-154.5 -228l-27 -192 q8 -139 90 -227.5t215 -88.5z" glyph-name="glyph586" horiz-adv-x="1224"/><glyph d="M731 1137q229 0 350 -166t86 -414q-35 -246 -200.5 -409.5t-395.5 -163.5q-266 0 -378 217l-50 -201h-114l215 1536h143l-86 -614q174 215 430 215zM569 109q176 0 303 129t154 319q27 193 -62.5 321t-267.5 128q-145 0 -263 -96.5t-169 -247.5l-28 -209q8 -152 98 -248 t235 -96zM528 -154q41 0 67 -30.5t19 -69.5q-6 -41 -39.5 -70.5t-74.5 -29.5t-66.5 29.5t-19.5 70.5t39.5 70.5t74.5 29.5z" glyph-name="glyph587" horiz-adv-x="1224"/><glyph d="M442 -20q-217 0 -325.5 150.5t-75.5 381.5q31 231 182.5 381.5t368.5 150.5q176 0 286.5 -96t108.5 -241h-125q-4 96 -79.5 158.5t-194.5 62.5q-166 0 -279.5 -111.5t-140.5 -304.5q-27 -195 55 -305.5t248 -110.5q117 0 207 61.5t131 161.5h119q-53 -145 -184.5 -242 t-301.5 -97z" glyph-name="glyph588" horiz-adv-x="1069"/><glyph d="M817 1536h141l-258 -307h-114zM487 -12q-231 0 -352 164.5t-86 414.5q35 248 202 409t398 161q190 0 311 -102.5t119 -260.5h-135q-4 104 -90 172t-215 68q-178 0 -302 -121t-151 -326q-31 -207 60.5 -330.5t269.5 -123.5q123 0 221.5 68.5t147.5 176.5h129 q-57 -160 -200 -265t-327 -105z" glyph-name="glyph589" horiz-adv-x="1150"/><glyph d="M403 1536h111l129 -272l205 272h110l-253 -350h-146zM487 -12q-231 0 -352 164.5t-86 414.5q35 248 202 409t398 161q190 0 311 -102.5t119 -260.5h-135q-4 104 -90 172t-215 68q-178 0 -302 -121t-151 -326q-31 -207 60.5 -330.5t269.5 -123.5q123 0 221.5 68.5 t147.5 176.5h129q-57 -160 -200 -265t-327 -105z" glyph-name="glyph590" horiz-adv-x="1150"/><glyph d="M639 1014q-178 0 -302 -121t-151 -326q-31 -207 60.5 -330.5t269.5 -123.5q123 0 221.5 68.5t147.5 176.5h129q-57 -160 -199.5 -265t-327.5 -105h-30l-56 -90q113 20 181.5 -33t54.5 -152q-12 -86 -80 -145.5t-154 -59.5q-66 0 -128 35t-89 86l70 33q20 -33 66.5 -56.5 t91.5 -23.5q55 0 97 38t50 93q10 78 -49 109t-156 -2l-57 45l84 133q-182 39 -273.5 195.5t-60.5 373.5q35 248 202 409t398 161q190 0 311 -102.5t119 -260.5h-135q-4 104 -90 172t-215 68z" glyph-name="glyph591" horiz-adv-x="1150"/><glyph d="M637 1219q-41 0 -66.5 29.5t-19.5 70.5t40 70.5t75 29.5t66.5 -29.5t19 -70.5t-40 -70.5t-74.5 -29.5zM487 -12q-231 0 -352 164.5t-86 414.5q35 248 202 409t398 161q190 0 311 -102.5t119 -260.5h-135q-4 104 -90 172t-215 68q-178 0 -302 -121t-151 -326 q-31 -207 60.5 -330.5t269.5 -123.5q123 0 221.5 68.5t147.5 176.5h129q-57 -160 -200 -265t-327 -105z" glyph-name="glyph592" horiz-adv-x="1150"/><glyph d="M1184 1536l-215 -1536h-121l16 184q-162 -205 -401 -204q-211 0 -320.5 153.5t-76.5 378.5q31 227 183 379.5t363 152.5q236 0 344 -198l97 690h131zM498 100q133 0 241.5 88t155.5 228l27 192q-8 139 -91 227.5t-217 88.5q-162 0 -278.5 -118t-138.5 -294 q-25 -174 57 -293t244 -119z" glyph-name="glyph593" horiz-adv-x="1224"/><glyph d="M911 1395q152 -141 217.5 -374t28.5 -509q-33 -221 -214 -376.5t-408 -155.5q-225 0 -363.5 155.5t-105.5 376.5q31 221 212 376.5t406 155.5q201 0 336 -124q-45 242 -193 383l-135 -146l-45 43l133 141q-145 104 -327 109l39 111q213 0 372 -125l113 120l47 -40z M551 100q170 0 308 121t163 291q23 172 -80.5 292t-273.5 120q-172 0 -309.5 -120t-159.5 -292q-25 -170 78.5 -291t273.5 -121z" glyph-name="glyph594" horiz-adv-x="1265"/><glyph d="M1239 1536l-215 -1536h-123l10 201q-166 -211 -436 -211q-229 0 -349 160.5t-85 406.5q35 248 203 414t397 166q254 0 371 -215l86 614h141zM1468 1339q-66 25 -55 97q6 41 39 70.5t76 29.5q41 0 64.5 -29.5t17.5 -70.5t-45 -103.5t-74 -103.5l-37 -43h-43zM512 109 q145 0 263 96t171 248l29 209q-10 152 -100.5 248t-235.5 96q-174 0 -302 -129t-154.5 -319.5t64.5 -319.5t265 -129z" glyph-name="glyph595" horiz-adv-x="1533"/><glyph d="M1278 1223h-139l-170 -1223h-121l16 184q-162 -205 -401 -204q-211 0 -320.5 153.5t-76.5 378.5q31 227 183 379.5t363 152.5q236 0 344 -198l52 377h-308l15 100h307l31 213h131l-31 -213h139zM498 100q133 0 241.5 88t155.5 228l27 192q-8 139 -91 227.5t-217 88.5 q-162 0 -278.5 -118t-138.5 -294q-25 -174 57 -293t244 -119z" glyph-name="glyph596" horiz-adv-x="1224"/><glyph d="M987 520q-4 -37 -8 -53h-821q-16 -184 74 -282.5t247 -98.5q106 0 212 56.5t143 150.5h110q-45 -139 -183 -226t-319 -87q-219 0 -330.5 151.5t-78.5 380.5q31 229 185.5 380.5t373.5 151.5q213 0 320.5 -146.5t74.5 -377.5zM578 928q-150 0 -257.5 -97.5t-146.5 -257.5 h698q8 160 -69.5 257.5t-224.5 97.5z" glyph-name="glyph597" horiz-adv-x="1069"/><glyph d="M975 1548l-258 -307h-115l232 307h141zM641 1133q229 0 343 -157t79 -407q-2 -16 -10 -57h-873q-25 -186 72.5 -292.5t234.5 -108.5q141 -2 235.5 58t133.5 157h129q-14 -49 -48 -102.5t-92.5 -109t-152.5 -90t-207 -34.5q-233 2 -350 165.5t-84 405.5q35 248 196 410 t394 162zM940 629q8 172 -73 275.5t-240 103.5q-162 0 -273.5 -103.5t-154.5 -275.5h741z" glyph-name="glyph598" horiz-adv-x="1142"/><glyph d="M575 1198l-155 350h110l129 -272l205 272h111l-254 -350h-146zM1063 569q-2 -16 -10 -57h-873q-25 -186 72.5 -292.5t234.5 -108.5q141 -2 235.5 58t133.5 157h129q-14 -49 -48 -102.5t-92.5 -109t-152.5 -90t-207 -34.5q-233 2 -350 165.5t-84 405.5q35 248 196 410 t394 162q229 0 343 -157t79 -407zM627 1008q-162 0 -273.5 -103.5t-154.5 -275.5h741q8 172 -72.5 275.5t-240.5 103.5z" glyph-name="glyph599" horiz-adv-x="1142"/><glyph d="M641 1133q229 0 343 -157t79 -407q-2 -16 -10 -57h-873q-25 -186 72.5 -292.5t234.5 -108.5q141 -2 235.5 58t133.5 157h129q-31 -113 -149.5 -219.5t-315.5 -116.5l-14 -10l-74 -123q113 20 181.5 -33t54.5 -152q-12 -86 -80 -145t-154 -59q-66 0 -128 34.5t-89 85.5 l72 33q23 -35 66.5 -57.5t88.5 -22.5q55 0 97.5 38t50.5 93q10 78 -49.5 109t-155.5 -2l-55 45l98 158q-23 8 -29 14q-193 31 -287 188.5t-63 376.5q35 248 196 410t394 162zM940 629q8 172 -73 275.5t-240 103.5q-162 0 -273.5 -103.5t-154.5 -275.5h741z" glyph-name="glyph600" horiz-adv-x="1142"/><glyph d="M485 1198h-114l254 350h145l156 -350h-115l-123 281zM1063 569q-2 -16 -10 -57h-873q-25 -186 72.5 -292.5t234.5 -108.5q141 -2 235.5 58t133.5 157h129q-14 -49 -48 -102.5t-92.5 -109t-152.5 -90t-207 -34.5q-233 2 -350 165.5t-84 405.5q35 248 196 410t394 162 q229 0 343 -157t79 -407zM627 1008q-162 0 -273.5 -103.5t-154.5 -275.5h741q8 172 -72.5 275.5t-240.5 103.5z" glyph-name="glyph601" horiz-adv-x="1142"/><glyph d="M473 1231q-41 0 -66.5 29.5t-19.5 70.5t40 71t75 30t66.5 -30t19.5 -71t-40 -70.5t-75 -29.5zM831.5 1231q-40.5 0 -66.5 29.5t-19.5 70.5t40 71t74.5 30t65.5 -30t18.5 -71t-39 -70.5t-73.5 -29.5zM1063 569q-2 -16 -10 -57h-873q-25 -186 72.5 -292.5t234.5 -108.5 q141 -2 235.5 58t133.5 157h129q-14 -49 -48 -102.5t-92.5 -109t-152.5 -90t-207 -34.5q-233 2 -350 165.5t-84 405.5q35 248 196 410t394 162q229 0 343 -157t79 -407zM627 1008q-162 0 -273.5 -103.5t-154.5 -275.5h741q8 172 -72.5 275.5t-240.5 103.5z" glyph-name="glyph602" horiz-adv-x="1142"/><glyph d="M653 1231q-41 0 -66.5 29.5t-19.5 70.5t40 71t75 30t66.5 -30t19.5 -71t-40 -70.5t-75 -29.5zM1063 569q-2 -16 -10 -57h-873q-25 -186 72.5 -292.5t234.5 -108.5q141 -2 235.5 58t133.5 157h129q-14 -49 -48 -102.5t-92.5 -109t-152.5 -90t-207 -34.5q-233 2 -350 165.5 t-84 405.5q35 248 196 410t394 162q229 0 343 -157t79 -407zM627 1008q-162 0 -273.5 -103.5t-154.5 -275.5h741q8 172 -72.5 275.5t-240.5 103.5z" glyph-name="glyph603" horiz-adv-x="1142"/><glyph d="M1063 569q-2 -16 -10 -57h-873q-25 -186 72.5 -292.5t234.5 -108.5q141 -2 235.5 58t133.5 157h129q-14 -49 -48 -102.5t-92.5 -109t-152.5 -90t-207 -34.5q-233 2 -350 165.5t-84 405.5q35 248 196 410t394 162q229 0 343 -157t79 -407zM627 1008q-162 0 -273.5 -103.5 t-154.5 -275.5h741q8 172 -72.5 275.5t-240.5 103.5zM459 -154q41 0 66.5 -30.5t19.5 -69.5q-6 -41 -40 -70.5t-75 -29.5t-66.5 29.5t-19.5 70.5t40 70.5t75 29.5z" glyph-name="glyph604" horiz-adv-x="1142"/><glyph d="M590 1241l-172 307h141l146 -307h-115zM1063 569q-2 -16 -10 -57h-873q-25 -186 72.5 -292.5t234.5 -108.5q141 -2 235.5 58t133.5 157h129q-14 -49 -48 -102.5t-92.5 -109t-152.5 -90t-207 -34.5q-233 2 -350 165.5t-84 405.5q35 248 196 410t394 162q229 0 343 -157 t79 -407zM627 1008q-162 0 -273.5 -103.5t-154.5 -275.5h741q8 172 -72.5 275.5t-240.5 103.5z" glyph-name="glyph605" horiz-adv-x="1142"/><glyph d="M975 1255h-635l12 95h635zM1063 569q-2 -16 -10 -57h-873q-25 -186 72.5 -292.5t234.5 -108.5q141 -2 235.5 58t133.5 157h129q-14 -49 -48 -102.5t-92.5 -109t-152.5 -90t-207 -34.5q-233 2 -350 165.5t-84 405.5q35 248 196 410t394 162q229 0 343 -157t79 -407z M627 1008q-162 0 -273.5 -103.5t-154.5 -275.5h741q8 172 -72.5 275.5t-240.5 103.5z" glyph-name="glyph606" horiz-adv-x="1142"/><glyph d="M641 1133q229 0 343 -157t79 -407q-2 -16 -10 -57h-873q-25 -186 72.5 -292.5t234.5 -108.5q141 -2 235.5 58t133.5 157h129q-25 -88 -106.5 -179.5t-214.5 -132.5q10 2 0 -2q-6 -2 -23 -8q-74 -82 -86 -164q-10 -63 21.5 -102t99.5 -39q117 0 209 88l37 -68 q-119 -104 -279 -100q-98 4 -149.5 59.5t-36.5 149.5q12 80 69 154l33 10q14 2 21 4q-43 -6 -95 -6q-233 2 -350 165.5t-84 405.5q35 248 196 410t394 162zM940 629q8 172 -73 275.5t-240 103.5q-162 0 -273.5 -103.5t-154.5 -275.5h741z" glyph-name="glyph607" horiz-adv-x="1142"/><glyph d="M319 1245q4 106 68 176t154 70q115 0 168 -109q33 -68 100 -67q51 0 86 43t37 112h88q-2 -106 -65.5 -174.5t-155.5 -68.5q-117 0 -170 108q-33 68 -97 68q-53 0 -87.5 -44t-34.5 -114h-91zM1063 569q-2 -16 -10 -57h-873q-25 -186 72.5 -292.5t234.5 -108.5 q141 -2 235.5 58t133.5 157h129q-14 -49 -48 -102.5t-92.5 -109t-152.5 -90t-207 -34.5q-233 2 -350 165.5t-84 405.5q35 248 196 410t394 162q229 0 343 -157t79 -407zM627 1008q-162 0 -273.5 -103.5t-154.5 -275.5h741q8 172 -72.5 275.5t-240.5 103.5z" glyph-name="glyph608" horiz-adv-x="1142"/><glyph d="M170 0l129 918h-172l14 106h172l33 231q18 133 112.5 217t211.5 84q88 0 147 -38l-14 -99q-66 29 -146 25q-76 -6 -119.5 -46t-58.5 -145l-33 -229h281l-14 -106h-281l-129 -918h-133z" glyph-name="glyph609" horiz-adv-x="731"/><glyph d="M1112 1024l-139 -989q-37 -264 -183.5 -405.5t-388.5 -141.5q-207 0 -306 102.5t-91 216.5h123q0 -74 80 -142t219 -68q168 0 279.5 114.5t140.5 343.5l16 129q-164 -205 -399 -204q-211 0 -320.5 153.5t-76.5 378.5q31 227 183 379.5t363 152.5q117 0 206 -56t138 -152 l35 188h121zM498 100q129 0 239.5 90.5t157.5 229.5l27 186q-8 137 -94.5 227.5t-213.5 90.5q-162 0 -278.5 -118t-138.5 -294q-25 -174 57 -293t244 -119z" glyph-name="glyph610" horiz-adv-x="1224"/><glyph d="M664 1165q-143 0 -225.5 84t-61.5 221h88q-14 -90 46 -153.5t164.5 -63.5t183.5 63.5t93 153.5h86q-20 -137 -124.5 -221t-249.5 -84zM371 -492q-213 0 -342 94.5t-107 252.5q23 164 191 243q-2 2 -32 28t-41 39t-23.5 44t-8.5 63q8 61 49 103.5t115 89.5 q-90 100 -68 276q25 166 156 277.5t311 111.5q131 0 234 -63q31 57 99.5 93t139.5 36l-18 -131q-43 0 -81 -22.5t-54 -59.5q68 -111 47 -242q-23 -174 -153 -281.5t-322 -107.5q-152 0 -225 54q-41 -16 -64.5 -50t-19.5 -71q16 -104 178 -107l225 -2q344 -4 352 -250 q4 -168 -140 -293t-398 -125zM801 741q16 111 -54.5 187t-193.5 76q-119 0 -209 -76t-106.5 -186.5t53 -187.5t188.5 -77q123 0 214.5 75.5t107.5 188.5zM772 -76q-4 74 -69.5 104.5t-204.5 30.5h-248q-78 -18 -125 -74.5t-57 -127.5q-14 -100 79 -162t228 -62q195 0 300 82 t97 209z" glyph-name="glyph611" horiz-adv-x="1056"/><glyph d="M594 1186l-156 350h111l129 -272l205 272h110l-254 -350h-145zM371 -492q-213 0 -342 94.5t-107 252.5q23 164 191 243q-2 2 -32 28t-41 39t-23.5 44t-8.5 63q8 61 49 103.5t115 89.5q-90 100 -68 276q25 166 156 277.5t311 111.5q131 0 234 -63q31 57 99.5 93t139.5 36 l-18 -131q-43 0 -81 -22.5t-54 -59.5q68 -111 47 -242q-23 -174 -153 -281.5t-322 -107.5q-152 0 -225 54q-41 -16 -64.5 -50t-19.5 -71q16 -104 178 -107l225 -2q344 -4 352 -250q4 -168 -140 -293t-398 -125zM801 741q16 111 -54.5 187t-193.5 76q-119 0 -209 -76 t-106.5 -186.5t53 -187.5t188.5 -77q123 0 214.5 75.5t107.5 188.5zM772 -76q-4 74 -69.5 104.5t-204.5 30.5h-248q-78 -18 -125 -74.5t-57 -127.5q-14 -100 79 -162t228 -62q195 0 300 82t97 209z" glyph-name="glyph612" horiz-adv-x="1056"/><glyph d="M727 1378q29 -10 44 -36.5t11 -59.5q-6 -41 -38.5 -70.5t-75.5 -29.5q-41 0 -64.5 29.5t-17.5 70.5t45 103.5t74 105.5l36 41h43zM371 -492q-213 0 -342 94.5t-107 252.5q23 164 191 243q-2 2 -32 28t-41 39t-23.5 44t-8.5 63q8 61 49 103.5t115 89.5q-90 100 -68 276 q25 166 156 277.5t311 111.5q131 0 234 -63q31 57 99.5 93t139.5 36l-18 -131q-43 0 -81 -22.5t-54 -59.5q68 -111 47 -242q-23 -174 -153 -281.5t-322 -107.5q-152 0 -225 54q-41 -16 -64.5 -50t-19.5 -71q16 -104 178 -107l225 -2q344 -4 352 -250q4 -168 -140 -293 t-398 -125zM801 741q16 111 -54.5 187t-193.5 76q-119 0 -209 -76t-106.5 -186.5t53 -187.5t188.5 -77q123 0 214.5 75.5t107.5 188.5zM772 -76q-4 74 -69.5 104.5t-204.5 30.5h-248q-78 -18 -125 -74.5t-57 -127.5q-14 -100 79 -162t228 -62q195 0 300 82t97 209z" glyph-name="glyph613" horiz-adv-x="1056"/><glyph d="M672 1219q-41 0 -66.5 29.5t-19.5 70.5t39.5 70.5t74.5 29.5t67 -29.5t19.5 -70.5t-40 -70.5t-74.5 -29.5zM371 -492q-213 0 -342 94.5t-107 252.5q23 164 191 243q-2 2 -32 28t-41 39t-23.5 44t-8.5 63q8 61 49 103.5t115 89.5q-90 100 -68 276q25 166 156 277.5 t311 111.5q131 0 234 -63q31 57 99.5 93t139.5 36l-18 -131q-43 0 -81 -22.5t-54 -59.5q68 -111 47 -242q-23 -174 -153 -281.5t-322 -107.5q-152 0 -225 54q-41 -16 -64.5 -50t-19.5 -71q16 -104 178 -107l225 -2q344 -4 352 -250q4 -168 -140 -293t-398 -125zM801 741 q16 111 -54.5 187t-193.5 76q-119 0 -209 -76t-106.5 -186.5t53 -187.5t188.5 -77q123 0 214.5 75.5t107.5 188.5zM772 -76q-4 74 -69.5 104.5t-204.5 30.5h-248q-78 -18 -125 -74.5t-57 -127.5q-14 -100 79 -162t228 -62q195 0 300 82t97 209z" glyph-name="glyph614" horiz-adv-x="1056"/><glyph d="M709 1044q170 0 259 -103t64 -273l-92 -668h-135l92 655q16 121 -48.5 195t-189.5 74q-131 0 -238.5 -78t-123.5 -197l-90 -649h-135l215 1536h135l-92 -662q66 78 169.5 124t209.5 46z" glyph-name="glyph615" horiz-adv-x="1191"/><glyph d="M735 1139q184 0 281.5 -113t70.5 -297l-102 -729h-147l100 715q18 133 -52.5 213t-205.5 80q-141 0 -259 -85t-136 -214l-99 -709h-147l172 1229h-76l15 100h75l29 205h147l-28 -205h354l-14 -100h-355l-39 -275q72 84 185.5 134.5t230.5 50.5z" glyph-name="glyph616" horiz-adv-x="1191"/><glyph d="M735 1139q184 0 281.5 -113t70.5 -297l-102 -729h-147l100 715q18 133 -52.5 213t-205.5 80q-141 0 -259 -85t-136 -214l-99 -709h-147l215 1534h147l-82 -580q72 84 185.5 134.5t230.5 50.5zM471 -154q41 0 66.5 -30.5t19.5 -69.5q-6 -41 -40 -70.5t-75 -29.5 t-66.5 29.5t-19.5 70.5t40 70.5t75 29.5z" glyph-name="glyph617" horiz-adv-x="1191"/><glyph d="M321.5 1219q-40.5 0 -66.5 29.5t-19.5 70.5t40 70.5t74.5 29.5t66.5 -29.5t19.5 -70.5t-40 -70.5t-74.5 -29.5zM227 1024h135l-143 -1024h-135z" glyph-name="glyph618" horiz-adv-x="471"/><glyph d="M215 1024h135l-143 -1024h-135z" glyph-name="glyph619" horiz-adv-x="462"/><glyph d="M492 1536h141l-258 -307h-115zM215 1024h135l-143 -1024h-135z" glyph-name="glyph620" horiz-adv-x="462"/><glyph d="M74 1536h112l129 -272l205 272h111l-254 -350h-146zM215 1024h135l-143 -1024h-135z" glyph-name="glyph621" horiz-adv-x="462"/><glyph d="M281 1536h145l156 -350h-115l-123 280l-203 -280h-116zM215 1024h135l-143 -1024h-135z" glyph-name="glyph622" horiz-adv-x="462"/><glyph d="M131 1219q-41 0 -67.5 29.5t-20.5 70.5t41 70.5t76 29.5t66.5 -29.5t19.5 -70.5t-40 -70.5t-75 -29.5zM489.5 1219q-40.5 0 -66.5 29.5t-19.5 70.5t40 70.5t74.5 29.5t65.5 -29.5t18.5 -70.5t-39 -70.5t-73.5 -29.5zM215 1024h135l-143 -1024h-135z" glyph-name="glyph623" horiz-adv-x="462"/><glyph d="M321.5 1219q-40.5 0 -66.5 29.5t-19.5 70.5t40 70.5t74.5 29.5t66.5 -29.5t19.5 -70.5t-40 -70.5t-74.5 -29.5zM227 1024h135l-143 -1024h-135z" glyph-name="glyph624" horiz-adv-x="552"/><glyph d="M346 1219q-41 0 -66.5 29.5t-19.5 70.5t40 70.5t75 29.5t66.5 -29.5t19.5 -70.5t-40 -70.5t-75 -29.5zM252 1024h135l-143 -1024h-135zM133 -379q-41 0 -66.5 30t-21.5 70q6 41 40 71t75 30t66.5 -31t19.5 -70q-4 -41 -38 -70.5t-75 -29.5z" glyph-name="glyph625" horiz-adv-x="536"/><glyph d="M74 1536h143l145 -307h-114zM215 1024h135l-143 -1024h-135z" glyph-name="glyph626" horiz-adv-x="462"/><glyph d="M385 1339q-43 0 -70.5 33t-21.5 78t43 78t80 33q45 0 70.5 -32t19.5 -79q-6 -45 -41 -78t-80 -33zM958 1339q-41 0 -65.5 30t-20.5 71q6 41 40 69.5t73 28.5t64.5 -29.5t19.5 -68.5q-4 -41 -38 -71t-73 -30zM283 1126h143l-158 -1126h-143zM426 -506l18 129h45 q92 0 129 45t50 127l186 1331h137l-188 -1351q-37 -281 -332 -281h-45z" glyph-name="glyph627" horiz-adv-x="1171"/><glyph d="M6 1337h637l-12 -94h-637zM215 1024h135l-143 -1024h-135z" glyph-name="glyph628" horiz-adv-x="462"/><glyph d="M309 1219q-41 0 -66.5 29.5t-19.5 70.5t40 70.5t75 29.5t66.5 -29.5t19.5 -70.5t-40 -70.5t-75 -29.5zM264 -432q-121 -104 -278 -100q-100 4 -151.5 59t-39.5 149q27 172 285 324h-8l143 1024h135l-143 -1024h-10q-104 -43 -195.5 -128t-105.5 -183q-8 -63 23.5 -102.5 t98.5 -39.5q117 0 209 88z" glyph-name="glyph629" horiz-adv-x="462"/><glyph d="M457 1217q-119 0 -168 108q-33 68 -99 68q-51 0 -85.5 -44t-38.5 -114h-91q4 106 69 176t155 70q115 0 170 -109q33 -68 98 -67q51 0 86 43t37 112h88q-2 -106 -65.5 -174.5t-155.5 -68.5zM215 1024h135l-143 -1024h-135z" glyph-name="glyph630" horiz-adv-x="462"/><glyph d="M317 1219q-41 0 -66.5 29.5t-19 70.5t40 70.5t74.5 29.5t66.5 -29.5t19.5 -70.5t-40 -70.5t-75 -29.5zM-211 -532l16 114q104 -6 167 45t83 205l168 1192h135l-168 -1192q-31 -215 -139 -297.5t-262 -66.5z" glyph-name="glyph631" horiz-adv-x="473"/><glyph d="M-78 -532q-80 0 -123 32l19 121q43 -39 108 -39q68 0 122 49.5t63 118.5l180 1274h135l-180 -1280q-16 -115 -110.5 -195.5t-213.5 -80.5z" glyph-name="glyph632" horiz-adv-x="571"/><glyph d="M72 2l215 1536h135l-137 -973l469 459h170l-510 -481l440 -543h-170l-408 506l-69 -504h-135z" glyph-name="glyph633" horiz-adv-x="946"/><glyph d="M33 0l215 1536h147l-129 -922l514 512h187l-561 -536l479 -590h-185l-444 549l-76 -549h-147zM340 -348q-29 10 -44 36.5t-11 59.5q6 41 38.5 70.5t75.5 29.5q41 0 64.5 -29.5t17.5 -70.5t-45 -103.5t-76 -103.5l-34 -43h-43z" glyph-name="glyph634" horiz-adv-x="980"/><glyph d="M115 0l217 1536h133l-215 -1536h-135z" glyph-name="glyph635" horiz-adv-x="540"/><glyph d="M559 2048h141l-258 -307h-114zM102 0l217 1536h138l-215 -1536h-140z" glyph-name="glyph636" horiz-adv-x="626"/><glyph d="M692 1346q-66 27 -53 96q4 41 37 70.5t76 29.5q41 0 64.5 -28.5t19.5 -71.5q-6 -41 -46 -103.5t-77 -105.5l-35 -41h-43zM102 0l217 1536h138l-215 -1536h-140z" glyph-name="glyph637" horiz-adv-x="808"/><glyph d="M102 0l217 1536h138l-215 -1536h-140zM106 -352q-63 25 -53 96q6 41 39 70.5t76 29.5q41 0 64.5 -29.5t17.5 -70.5t-45 -103.5t-74 -103.5l-37 -43h-43z" glyph-name="glyph638" horiz-adv-x="626"/><glyph d="M102 0l217 1536h138l-215 -1536h-140zM581.5 653q-34.5 0 -55 24.5t-16.5 59.5q4 33 32.5 58.5t63.5 25.5q33 0 54.5 -24.5t17.5 -59.5t-33 -59.5t-63.5 -24.5z" glyph-name="glyph639" horiz-adv-x="770"/><glyph d="M102 0l217 1536h138l-215 -1536h-140zM135 -354q-41 0 -66.5 29.5t-19.5 70.5t40 70.5t75 29.5t66.5 -30.5t19.5 -69.5q-6 -41 -40 -70.5t-75 -29.5z" glyph-name="glyph640" horiz-adv-x="626"/><glyph d="M612 995l-254 -233l-12 -10l-104 -752h-140l86 602l-129 -117h-108l254 236l114 815h138l-95 -666l13 11l123 114h114z" glyph-name="glyph641" horiz-adv-x="626"/><glyph d="M1378 1040q164 0 247 -97t61 -261l-95 -682h-135l94 670q16 115 -43 184.5t-176 69.5q-123 0 -223 -74t-117 -188l-92 -662h-135l94 670q16 115 -43 184.5t-176 69.5q-123 0 -223.5 -74t-116.5 -188l-92 -662h-135l143 1024h125l-16 -152q63 74 163.5 121t198.5 47 q213 0 287 -215q68 94 180 154.5t225 60.5z" glyph-name="glyph642" horiz-adv-x="1843"/><glyph d="M666 1044q170 0 259 -103t64 -273l-92 -668h-135l92 655q16 121 -48.5 195t-189.5 74q-131 0 -238.5 -78t-123.5 -197l-90 -649h-135l143 1024h125l-16 -154q68 80 172 127t213 47z" glyph-name="glyph643" horiz-adv-x="1103"/><glyph d="M741 1229h-114l231 307h141zM723 1139q180 0 274.5 -113t67.5 -299l-100 -727h-144l101 715q18 133 -51.5 213t-200.5 80q-139 0 -255 -85t-134 -214l-99 -709h-143l158 1126h120l-6 -178q70 86 182.5 138.5t229.5 52.5z" glyph-name="glyph644" horiz-adv-x="1181"/><glyph d="M600 1186l-156 350h111l129 -272l205 272h110l-254 -350h-145zM723 1139q180 0 274.5 -113t67.5 -299l-100 -727h-144l101 715q18 133 -51.5 213t-200.5 80q-139 0 -255 -85t-134 -214l-99 -709h-143l158 1126h120l-6 -178q70 86 182.5 138.5t229.5 52.5z" glyph-name="glyph645" horiz-adv-x="1181"/><glyph d="M723 1139q180 0 274.5 -113t67.5 -299l-100 -727h-144l101 715q18 133 -51.5 213t-200.5 80q-139 0 -255 -85t-134 -214l-99 -709h-143l158 1126h120l-6 -178q70 86 182.5 138.5t229.5 52.5zM420 -352q-63 25 -53 96q6 41 38.5 70.5t75.5 29.5q41 0 64.5 -29.5 t17.5 -70.5t-45 -103.5t-76 -103.5l-34 -43h-43z" glyph-name="glyph646" horiz-adv-x="1181"/><glyph d="M678 1219q-41 0 -66.5 29.5t-19.5 70.5t40 70.5t75 29.5t66.5 -29.5t19 -70.5t-40 -70.5t-74.5 -29.5zM723 1139q180 0 274.5 -113t67.5 -299l-100 -727h-144l101 715q18 133 -51.5 213t-200.5 80q-139 0 -255 -85t-134 -214l-99 -709h-143l158 1126h120l-6 -178 q70 86 182.5 138.5t229.5 52.5z" glyph-name="glyph647" horiz-adv-x="1181"/><glyph d="M723 1139q180 0 274.5 -113t67.5 -299l-100 -727h-144l101 715q18 133 -51.5 213t-200.5 80q-139 0 -255 -85t-134 -214l-99 -709h-143l158 1126h120l-6 -178q70 86 182.5 138.5t229.5 52.5zM485 -154q41 0 67 -30.5t19 -69.5q-6 -41 -39.5 -70.5t-74.5 -29.5t-66.5 29.5 t-19.5 70.5t39.5 70.5t74.5 29.5z" glyph-name="glyph648" horiz-adv-x="1181"/><glyph d="M723 1139q180 0 274.5 -113t67.5 -299l-98 -713v-6l-2 -8l-27 -178q-14 -111 -99 -167t-202 -52l14 96q135 -8 152 123l24 178h-6l101 715q18 133 -51.5 213t-200.5 80q-139 0 -255 -85t-134 -214l-99 -709h-143l158 1126h120l-6 -178q70 86 182.5 138.5t229.5 52.5z" glyph-name="glyph649" horiz-adv-x="1181"/><glyph d="M344 1235q4 106 67.5 176t153.5 70q115 0 170 -109q33 -68 99 -67q51 0 85.5 43t36.5 112h88q-2 -106 -65.5 -174.5t-155.5 -68.5q-119 0 -168 108q-33 68 -98 68q-53 0 -87 -44t-36 -114h-90zM723 1139q180 0 274.5 -113t67.5 -299l-100 -727h-144l101 715 q18 133 -51.5 213t-200.5 80q-139 0 -255 -85t-134 -214l-99 -709h-143l158 1126h120l-6 -178q70 86 182.5 138.5t229.5 52.5z" glyph-name="glyph650" horiz-adv-x="1181"/><glyph d="M436 -20q-217 0 -332.5 153.5t-83.5 378.5q31 225 191 378.5t375 153.5q217 0 333.5 -153.5t86.5 -378.5q-33 -225 -193 -378.5t-377 -153.5zM452.5 100q161.5 0 278.5 119t141 293q25 176 -58 294t-244.5 118t-278.5 -118t-139 -294q-25 -174 57 -293t243.5 -119z" glyph-name="glyph651" horiz-adv-x="1067"/><glyph d="M838 1536h141l-258 -307h-115zM483 -14q-236 0 -363.5 166.5t-93 412.5t209 413t409.5 167q238 0 365 -167t92 -413t-208 -412.5t-411 -166.5zM502 117q176 0 302 129t152 319q29 193 -61 321t-268 128q-176 0 -302 -128t-155 -321q-27 -190 64.5 -319t267.5 -129z" glyph-name="glyph652" horiz-adv-x="1157"/><glyph d="M379 1536h110l129 -272l205 272h111l-254 -350h-145zM436 -20q-217 0 -332.5 153.5t-83.5 378.5q31 225 191 378.5t375 153.5q217 0 333.5 -153.5t86.5 -378.5q-33 -225 -193 -378.5t-377 -153.5zM452.5 100q161.5 0 278.5 119t141 293q25 176 -58 294t-244.5 118 t-278.5 -118t-139 -294q-25 -174 57 -293t243.5 -119z" glyph-name="glyph653" horiz-adv-x="1067"/><glyph d="M629 1536h145l156 -350h-115l-123 280l-203 -280h-114zM483 -14q-236 0 -363.5 166.5t-93 412.5t209 413t409.5 167q238 0 365 -167t92 -413t-208 -412.5t-411 -166.5zM502 117q176 0 302 129t152 319q29 193 -61 321t-268 128q-176 0 -302 -128t-155 -321 q-27 -190 64.5 -319t267.5 -129z" glyph-name="glyph654" horiz-adv-x="1157"/><glyph d="M477 1219q-41 0 -66.5 29.5t-19.5 70.5t40 70.5t75 29.5t66.5 -29.5t19.5 -70.5t-40 -70.5t-75 -29.5zM836 1219q-41 0 -67 29.5t-19.5 70.5t40 70.5t74.5 29.5t65.5 -29.5t18.5 -70.5t-38.5 -70.5t-73.5 -29.5zM483 -14q-236 0 -363.5 166.5t-93 412.5t209 413 t409.5 167q238 0 365 -167t92 -413t-208 -412.5t-411 -166.5zM502 117q176 0 302 129t152 319q29 193 -61 321t-268 128q-176 0 -302 -128t-155 -321q-27 -190 64.5 -319t267.5 -129z" glyph-name="glyph655" horiz-adv-x="1157"/><glyph d="M436 -20q-217 0 -332.5 153.5t-83.5 378.5q31 225 191 378.5t375 153.5q217 0 333.5 -153.5t86.5 -378.5q-33 -225 -193 -378.5t-377 -153.5zM452.5 100q161.5 0 278.5 119t141 293q25 176 -58 294t-244.5 118t-278.5 -118t-139 -294q-25 -174 57 -293t243.5 -119z M391 -354q-41 0 -66.5 29.5t-19.5 70.5t40 70.5t75 29.5t66.5 -30.5t19.5 -69.5q-6 -41 -40 -70.5t-75 -29.5z" glyph-name="glyph656" horiz-adv-x="1067"/><glyph d="M422 1536h141l146 -307h-115zM483 -14q-236 0 -363.5 166.5t-93 412.5t209 413t409.5 167q238 0 365 -167t92 -413t-208 -412.5t-411 -166.5zM502 117q176 0 302 129t152 319q29 193 -61 321t-268 128q-176 0 -302 -128t-155 -321q-27 -190 64.5 -319t267.5 -129z" glyph-name="glyph657" horiz-adv-x="1157"/><glyph d="M750 1536h135l-383 -354h-107zM1071 1536h133l-381 -354h-108zM436 -20q-217 0 -332.5 153.5t-83.5 378.5q31 225 191 378.5t375 153.5q217 0 333.5 -153.5t86.5 -378.5q-33 -225 -193 -378.5t-377 -153.5zM452.5 100q161.5 0 278.5 119t141 293q25 176 -58 294 t-244.5 118t-278.5 -118t-139 -294q-25 -174 57 -293t243.5 -119z" glyph-name="glyph658" horiz-adv-x="1122"/><glyph d="M311 1337h635l-12 -94h-635zM436 -20q-217 0 -332.5 153.5t-83.5 378.5q31 225 191 378.5t375 153.5q217 0 333.5 -153.5t86.5 -378.5q-33 -225 -193 -378.5t-377 -153.5zM452.5 100q161.5 0 278.5 119t141 293q25 176 -58 294t-244.5 118t-278.5 -118t-139 -294 q-25 -174 57 -293t243.5 -119z" glyph-name="glyph659" horiz-adv-x="1067"/><glyph d="M963 1024q158 -172 120 -455q-37 -248 -209 -416.5t-403 -168.5q-160 0 -274 86l-105 -131h-84l142 174q-162 168 -121 456q35 248 206 417t402 169q166 0 276 -88l107 131h82zM168 569q-31 -205 74 -340l581 723q-82 70 -205 70q-174 0 -298.5 -130t-151.5 -323z M492 117q174 0 297.5 130t150.5 322q29 207 -72 338l-579 -725q82 -65 203 -65z" glyph-name="glyph660" horiz-adv-x="1136"/><glyph d="M676 1229h-115l232 307h141zM891 926q150 -156 115 -414q-33 -225 -193 -378.5t-377 -153.5q-150 0 -256 77l-98 -118h-78l131 157q-154 156 -115 416q31 225 191 378.5t375 153.5q152 0 260 -79l98 118h76zM152 512q-29 -190 71 -309l539 657q-80 63 -193 64 q-162 0 -278 -118t-139 -294zM453 100q162 0 278.5 119t140.5 293q25 190 -69 307l-537 -659q76 -60 187 -60z" glyph-name="glyph661" horiz-adv-x="1067"/><glyph d="M803 1217q-119 0 -168 108q-33 68 -98 68q-53 0 -87 -44t-36 -114h-90q4 106 67.5 176t153.5 70q115 0 170 -109q33 -68 98 -67q51 0 86 43t37 112h88q-2 -106 -65.5 -174.5t-155.5 -68.5zM483 -14q-236 0 -363.5 166.5t-93 412.5t209 413t409.5 167q238 0 365 -167 t92 -413t-208 -412.5t-411 -166.5zM502 117q176 0 302 129t152 319q29 193 -61 321t-268 128q-176 0 -302 -128t-155 -321q-27 -190 64.5 -319t267.5 -129z" glyph-name="glyph662" horiz-adv-x="1157"/><glyph d="M1563 1133q229 0 342.5 -157t79.5 -407q-2 -16 -11 -57h-872q-25 -186 72.5 -292.5t234.5 -108.5q141 -2 235.5 58t133.5 157h129q-14 -49 -48 -102.5t-92.5 -109t-152.5 -90t-207 -34.5q-170 2 -280.5 93t-145.5 243l-10 -72q-86 -129 -217 -203t-287 -74 q-233 0 -360 167t-92.5 413t207.5 413t409 167q154 0 264.5 -75t161.5 -202l-8 -53q78 150 211 238t303 88zM1862 629q8 172 -73 275.5t-241 103.5q-162 0 -273.5 -103.5t-154.5 -275.5h742zM942 557q27 193 -62 321t-268 128q-174 0 -301 -129t-153.5 -319.5t63.5 -319.5 t264 -129q176 0 303 129t154 319z" glyph-name="glyph663" horiz-adv-x="2082"/><glyph d="M719 1044q211 0 320.5 -152.5t78.5 -379.5q-33 -227 -185.5 -379.5t-363.5 -152.5q-236 0 -340 198l-98 -690h-133l217 1536h133l-24 -178q157 198 395 198zM567 100q162 0 279 119t141 293q25 176 -58 294t-245 118q-133 0 -240.5 -88t-154.5 -228l-27 -192 q8 -139 90 -227.5t215 -88.5z" glyph-name="glyph664" horiz-adv-x="1224"/><glyph d="M780 1044q217 0 348.5 -155.5t100.5 -376.5q-33 -221 -207 -376.5t-391 -155.5q-135 0 -238.5 65.5t-154.5 177.5l-103 -733h-135l287 2046h135l-103 -735q84 113 205 178t256 65zM631 100q170 0 308 121t163 291q23 172 -80.5 292t-273.5 120q-172 0 -309.5 -120 t-159.5 -292q-25 -170 78.5 -291t273.5 -121z" glyph-name="glyph665" horiz-adv-x="1333"/><glyph d="M1112 1024l-217 -1536h-131l98 690q-162 -199 -399 -198q-211 0 -320.5 153.5t-76.5 378.5q31 227 183 379.5t363 152.5q236 0 344 -198l25 178h131zM498 100q133 0 241.5 88t155.5 228l27 192q-8 139 -91 227.5t-217 88.5q-162 0 -278.5 -118t-138.5 -294 q-25 -174 57 -293t244 -119z" glyph-name="glyph666" horiz-adv-x="1224"/><glyph d="M698 1040l-18 -112q-154 14 -273.5 -75t-144.5 -257l-82 -596h-135l143 1024h136l-29 -197q37 63 76 106.5t125.5 78t201.5 28.5z" glyph-name="glyph667" horiz-adv-x="696"/><glyph d="M520 1229h-114l231 307h141zM758 1137l-21 -123q-168 16 -298 -82t-156 -281l-90 -651h-148l158 1126h127l-11 -223q39 70 82 117t137.5 85t219.5 32z" glyph-name="glyph668" horiz-adv-x="741"/><glyph d="M416 1186l-156 350h111l129 -272l205 272h110l-254 -350h-145zM774 1137l-20 -123q-168 16 -298 -82t-157 -281l-90 -651h-148l158 1126h127l-10 -223q39 70 82 117t137 85t219 32z" glyph-name="glyph669" horiz-adv-x="757"/><glyph d="M766 1137l-21 -123q-168 16 -298 -82t-156 -281l-90 -651h-148l158 1126h127l-10 -223q39 70 82 117t137 85t219 32zM63 -346q-29 10 -44 36.5t-11 59.5q6 41 39 70.5t76 29.5q41 0 64.5 -29.5t17.5 -70.5t-45 -103.5t-74 -105.5l-37 -41h-43z" glyph-name="glyph670" horiz-adv-x="749"/><glyph d="M352 -20q-186 0 -271 97t-77 214h119q-2 -74 67.5 -139.5t176 -65.5t185.5 57.5t91 145.5q12 90 -53.5 134t-196.5 66q-143 25 -224 83.5t-63 185.5q18 131 133 208.5t257 77.5q164 0 247.5 -71.5t79.5 -208.5h-112q-2 63 -44 104t-83 52.5t-80 13.5q-96 4 -172 -38 t-88 -122q-12 -84 49 -122t182 -56q66 -10 118 -28.5t102 -51.5t73 -89t12 -130q-18 -133 -142 -225t-286 -92z" glyph-name="glyph671" horiz-adv-x="901"/><glyph d="M750 1536h141l-258 -307h-115zM387 -18q-203 0 -296 105.5t-83 231.5h129q0 -82 76 -152.5t190.5 -70.5t201.5 62.5t100 158.5q14 98 -58 146.5t-215 73.5q-100 16 -166.5 42.5t-113 90t-31.5 159.5q18 143 144 227.5t280 84.5q362 0 356 -305h-123q-4 98 -76.5 141 t-148.5 45q-104 4 -187 -41t-96 -133q-14 -92 53.5 -133t198.5 -62q72 -12 129.5 -31.5t111.5 -55.5t78.5 -96t12.5 -142q-20 -145 -154.5 -245.5t-312.5 -100.5z" glyph-name="glyph672" horiz-adv-x="970"/><glyph d="M336 1536h110l129 -272l205 272h111l-254 -350h-145zM387 -18q-203 0 -296 105.5t-83 231.5h129q0 -82 76 -152.5t190.5 -70.5t201.5 62.5t100 158.5q14 98 -58 146.5t-215 73.5q-100 16 -166.5 42.5t-113 90t-31.5 159.5q18 143 144 227.5t280 84.5q362 0 356 -305h-123 q-4 98 -76.5 141t-148.5 45q-104 4 -187 -41t-96 -133q-14 -92 53.5 -133t198.5 -62q72 -12 129.5 -31.5t111.5 -55.5t78.5 -96t12.5 -142q-20 -145 -154.5 -245.5t-312.5 -100.5z" glyph-name="glyph673" horiz-adv-x="970"/><glyph d="M387 -18q-203 0 -296 105.5t-83 231.5h129q0 -82 76 -152.5t190.5 -70.5t201.5 62.5t100 158.5q14 98 -58 146.5t-215 73.5q-100 16 -166.5 42.5t-113 90t-31.5 159.5q18 143 144 227.5t280 84.5q362 0 356 -305h-123q-4 98 -76.5 141t-148.5 45q-104 4 -187 -41 t-96 -133q-14 -92 53.5 -133t198.5 -62q72 -12 129.5 -31.5t111.5 -55.5t78.5 -96t12.5 -142q-20 -145 -154.5 -245.5t-312.5 -100.5zM428 -18l-74 -125q113 20 181.5 -33t54.5 -152q-12 -86 -80 -145t-154 -59q-66 0 -128 34.5t-89 85.5l72 33q23 -35 67 -57.5t89 -22.5 q55 0 97 38t50 93q10 78 -49 109t-156 -2l-55 45l96 158h78z" glyph-name="glyph674" horiz-adv-x="970"/><glyph d="M387 -18q-203 0 -296 105.5t-83 231.5h129q0 -82 76 -152.5t190.5 -70.5t201.5 62.5t100 158.5q14 98 -58 146.5t-215 73.5q-100 16 -166.5 42.5t-113 90t-31.5 159.5q18 143 144 227.5t280 84.5q362 0 356 -305h-123q-4 98 -76.5 141t-148.5 45q-104 4 -187 -41 t-96 -133q-14 -92 53.5 -133t198.5 -62q72 -12 129.5 -31.5t111.5 -55.5t78.5 -96t12.5 -142q-20 -145 -154.5 -245.5t-312.5 -100.5zM315 -342q-63 25 -53 96q4 41 38 71t77 30q41 0 64.5 -30t17.5 -71t-45 -103.5t-74 -105.5l-37 -41h-43z" glyph-name="glyph675" horiz-adv-x="970"/><glyph d="M387 -18q-203 0 -296 105.5t-83 231.5h129q0 -82 76 -152.5t190.5 -70.5t201.5 62.5t100 158.5q14 98 -58 146.5t-215 73.5q-100 16 -166.5 42.5t-113 90t-31.5 159.5q18 143 144 227.5t280 84.5q362 0 356 -305h-123q-4 98 -76.5 141t-148.5 45q-104 4 -187 -41 t-96 -133q-14 -92 53.5 -133t198.5 -62q72 -12 129.5 -31.5t111.5 -55.5t78.5 -96t12.5 -142q-20 -145 -154.5 -245.5t-312.5 -100.5zM352 -354q-41 0 -66.5 29.5t-19.5 70.5t40 70.5t75 29.5t66.5 -30.5t19.5 -69.5q-6 -41 -40 -70.5t-75 -29.5z" glyph-name="glyph676" horiz-adv-x="970"/><glyph d="M954 780q113 -49 171.5 -153.5t39.5 -233.5q-25 -172 -160 -292.5t-296 -120.5q-88 0 -175.5 37.5t-138.5 97.5l76 98q37 -45 100.5 -76t133.5 -31q115 2 212 86t113 207q18 125 -59.5 213t-206.5 88h-127l16 115h54q127 0 226 89t116 216q18 129 -60 212t-219 83 q-145 0 -253.5 -87t-127.5 -220l-156 -1108h-133l156 1108q27 186 177.5 307t350.5 121q197 0 308.5 -116.5t87.5 -295.5q-31 -217 -226 -344z" glyph-name="glyph677" horiz-adv-x="1351"/></font>
</defs>
</svg>
