<?xml version="1.0" standalone="no"?>
<!DOCTYPE svg PUBLIC "-//W3C//DTD SVG 1.1//EN" "http://www.w3.org/Graphics/SVG/1.1/DTD/svg11.dtd">
<svg xmlns="http://www.w3.org/2000/svg"><metadata>This SVG WebFont was generated by YouWorkForThem.
\(c\)2017 Oakes is a trademark of Samuel Oakes. All rights reserved.</metadata><defs><font horiz-adv-x="0" id="ywftsvg"><font-face ascent="1536" bbox="-1548 -743 2445 2122" cap-height="1536" descent="-512" font-family="" font-stretch="normal" font-weight="700" panose-1="0 0 4 0 0 0 0 0 0 0" underline-position="0" underline-thickness="0" unicode-range="U+000D-FB02" units-per-em="2048" x-height="1126"/><missing-glyph d="M152 1536h931v-1536h-931v1536zM860 225v1088h-485v-1088h485z" horiz-adv-x="1234"/><glyph d="M262 0v872h-172v224h172v63q0 158 94.5 267.5t251.5 121.5q78 6 158 -12t108 -41v-227q-47 29 -108 40t-121 -12q-86 -45 -86 -157v-43h246v-224h-246v-872h-297zM1182 1210q-66 0 -114 47.5t-48 115t48 115.5t114 48q68 0 116 -48t48 -115.5t-48 -115t-116 -47.5z M1026 1126h320v-1126h-320v1126z" glyph-name="uniFB01" horiz-adv-x="1480" unicode="fi"/><glyph d="M262 0v872h-172v224h172v63q0 158 94.5 267.5t251.5 121.5q78 6 158 -12t108 -41v-227q-47 29 -108 40t-121 -12q-86 -45 -86 -157v-43h246v-224h-246v-872h-297zM1094 0v1536h299v-1536h-299z" glyph-name="uniFB02" horiz-adv-x="1560" unicode="fl"/><glyph d="M152 1536h931v-1536h-931v1536zM860 225v1088h-485v-1088h485z" glyph-name=".notdef" horiz-adv-x="1234"/><glyph glyph-name="glyph1"/><glyph glyph-name="glyph2" horiz-adv-x="681"/><glyph glyph-name="space" horiz-adv-x="501" unicode=" "/><glyph d="M176 1536h273l-13 -1053h-248zM313.5 0q-67.5 0 -117 48t-49.5 118t48.5 118t118 48t117.5 -49.5t48 -117t-49 -116.5t-116.5 -49z" glyph-name="exclam" horiz-adv-x="630" unicode="!"/><glyph d="M141 1538q49 0 87 -30.5t38 -96.5q0 -45 -21.5 -95t-43.5 -79l-21 -27h-82q-82 100 -82 201q0 66 37 96.5t88 30.5zM469 1538q49 0 87 -30.5t38 -96.5q0 -45 -22.5 -95t-43.5 -79l-22 -27h-80q-82 100 -82 201q0 66 37 96.5t88 30.5z" glyph-name="quotedbl" horiz-adv-x="606" unicode="&quot;"/><glyph d="M403 338h-288l28 211h289l60 393h-293l34 209h285l49 342h209l-47 -342h344l47 342h211l-49 -342h293l-35 -209h-287l-55 -393h287l-29 -211h-287l-51 -338h-207l47 338h-348l-45 -338h-209zM987 549l57 393h-346l-55 -393h344z" glyph-name="numbersign" horiz-adv-x="1687" unicode="#"/><glyph d="M809 907q78 -31 129 -55.5t115.5 -67.5t102.5 -88t65.5 -112.5t27.5 -147.5q0 -193 -120.5 -306.5t-319.5 -141.5v-160h-201v156q-217 20 -350 157.5t-156 354.5l269 -2q45 -188 237 -222v428q-4 0 -11 4.5t-11 4.5q-80 31 -127 52t-112.5 60t-101.5 79t-62.5 100.5 t-26.5 132.5q0 170 128 282.5t324 136.5v150h201v-154q377 -53 455 -491h-287q-8 74 -50 135t-118 88v-373zM473 1145q0 -84 135 -154v295q-135 -39 -135 -141zM809 281q125 37 127 151q0 102 -127 178v-329z" glyph-name="dollar" horiz-adv-x="1349" unicode="$"/><glyph d="M399 821q-137 0 -231 107.5t-94 259.5q0 154 94 261t231 107q135 0 229.5 -107.5t94.5 -260.5q0 -152 -94.5 -259.5t-229.5 -107.5zM1188 1536h307l-1034 -1536h-307zM399 1044q39 0 70 42t31 101.5t-31 102.5t-70 43q-41 0 -70.5 -42t-29.5 -103q0 -59 29.5 -101.5 t70.5 -42.5zM1253.5 -20q-135.5 0 -230.5 107.5t-95 261t95 261t230.5 107.5t229.5 -108.5t94 -260t-94 -260t-229.5 -108.5zM1251 205q41 0 71 41t30 102.5t-30 102.5t-71 41t-70.5 -41t-29.5 -102.5t29.5 -102.5t70.5 -41z" glyph-name="percent" horiz-adv-x="1650" unicode="%"/><glyph d="M631 -12q-201 0 -345.5 133t-144.5 319q0 248 207 404q-113 141 -112 280q0 186 106.5 295t288.5 107q154 -2 260 -111.5t106 -267.5q0 -217 -215 -359l215 -213l152 287h307l-260 -481l350 -379h-377l-145 152q-170 -166 -393 -166zM600 977q135 68 135 172 q0 57 -31.5 93t-78.5 36q-125 0 -125 -154q0 -61 100 -147zM635 258q115 0 207 92l-316 307q-121 -80 -120 -206q0 -88 61.5 -140.5t167.5 -52.5z" glyph-name="ampersand" horiz-adv-x="1433" unicode="&amp;"/><glyph d="M225 1538q49 0 87 -30.5t38 -96.5q0 -45 -21.5 -95t-43.5 -79l-23 -27h-80q-82 100 -82 201q0 66 37 96.5t88 30.5z" glyph-name="quotesingle" horiz-adv-x="376" unicode="'"/><glyph d="M528 -428q-168 147 -272 416.5t-104 580.5q0 358 117.5 625.5t301.5 423.5h177q-170 -178 -266.5 -469t-96.5 -580q0 -266 104.5 -554.5t237.5 -444.5z" glyph-name="parenleft" horiz-adv-x="829" unicode="("/><glyph d="M342 1616q168 -147 272.5 -416.5t104.5 -581.5q0 -358 -118 -625t-302 -423h-176q170 178 267 469t97 579q0 266 -105.5 554t-238.5 446z" glyph-name="parenright" horiz-adv-x="829" unicode=")"/><glyph d="M147 1061l119 158l-196 -25v147l196 -24l-119 158l127 75l78 -184l80 184l127 -75l-121 -158l199 24v-147l-199 25l121 -158l-127 -76l-80 184l-78 -184z" glyph-name="asterisk" horiz-adv-x="704" unicode="*"/><glyph d="M674 522h-522v226h522v522h225v-522h522v-226h-522v-522h-225v522z" glyph-name="plus" horiz-adv-x="1570" unicode="+"/><glyph d="M156 2q-51 18 -81 61t-30 97q0 70 48 118t118 48q68 0 115 -48.5t47 -117.5q0 -117 -148 -301h-170z" glyph-name="comma" horiz-adv-x="479" unicode=","/><glyph d="M152 633h716v-199h-716v199z" glyph-name="hyphen" horiz-adv-x="1017" unicode="-"/><glyph d="M229 -20q-68 0 -118 50t-50 117q0 70 50.5 120t117.5 50q70 0 120 -50t50 -120q0 -68 -50 -117.5t-120 -49.5z" glyph-name="period" horiz-adv-x="460" unicode="."/><glyph d="M1020 1536h278l-1089 -2048h-281z" glyph-name="slash" horiz-adv-x="1255" unicode="/"/><glyph d="M682 -20q-307 0 -449.5 208.5t-142.5 579.5q0 360 152.5 574t439.5 214q307 0 448.5 -208.5t141.5 -579.5t-141.5 -579.5t-448.5 -208.5zM682 242q291 0 291 526q0 528 -291 528q-86 0 -144.5 -37.5t-90 -111.5t-45 -164t-13.5 -215q0 -526 293 -526z" glyph-name="zero" horiz-adv-x="1361" unicode="0"/><glyph d="M371 1198l-320 -246v328l338 256h281v-1536h-299v1198z" glyph-name="one" horiz-adv-x="882" unicode="1"/><glyph d="M92 219q332 354 467 511t176 227.5t41 138.5q0 102 -57 150t-139 50q-90 0 -145.5 -59t-47.5 -158l-287 2q-16 207 131.5 342.5t362.5 135.5q201 0 334 -122t135 -313q2 -121 -51.5 -228.5t-157.5 -229t-375 -404.5h617v-262h-1004v219z" glyph-name="two" horiz-adv-x="1167" unicode="2"/><glyph d="M596 -20q-213 0 -369.5 131t-156.5 315l292 4q12 -80 77 -126t157 -46t152.5 64.5t60.5 161t-60.5 159t-152.5 62.5h-121l-2 235h105q76 0 125 52t49 130q0 68 -58.5 114t-136.5 46q-68 0 -123 -40t-55 -95l-287 6q0 168 138.5 285.5t326.5 117.5t325.5 -117.5 t137.5 -285.5q0 -178 -160 -281q113 -61 177.5 -162.5t64.5 -228.5q0 -211 -146.5 -356t-359.5 -145z" glyph-name="three" horiz-adv-x="1212" unicode="3"/><glyph d="M1192 324h-135v-324h-297v324h-729v188l651 1024h375v-950h135v-262zM760 586v657l-389 -657h389z" glyph-name="four" horiz-adv-x="1280" unicode="4"/><glyph d="M636.5 -20q-233.5 0 -379.5 119.5t-157 303.5h258q18 -74 96 -114.5t162 -36.5q115 6 185.5 76.5t70.5 181.5q0 115 -72.5 190.5t-183.5 75.5q-68 0 -136 -29.5t-113 -80.5l-240 108l74 758h870v-260h-639l-35 -330q111 94 299 94q207 0 341 -145.5t134 -368.5 q0 -238 -150.5 -390t-384 -152z" glyph-name="five" horiz-adv-x="1261" unicode="5"/><glyph d="M662 -14q-197 0 -365 142t-193 359q-14 152 -14 242q0 367 137.5 577t399.5 236q45 4 63 4q211 0 358.5 -131t165.5 -321h-284q-4 90 -64.5 140t-163.5 50q-303 0 -362 -342q49 63 147.5 93t171.5 30q246 0 394.5 -140.5t163.5 -375.5q10 -231 -152.5 -397t-402.5 -166z M659.5 229q120.5 0 203.5 85t83 204q0 127 -89 208t-218 81q-111 0 -187.5 -84t-76.5 -201q0 -125 82 -209t202.5 -84z" glyph-name="six" horiz-adv-x="1312" unicode="6"/><glyph d="M801 1276h-729v260h1052v-217l-708 -1319h-324z" glyph-name="seven" horiz-adv-x="1155" unicode="7"/><glyph d="M905 856q109 -63 170.5 -165.5t61.5 -227.5q0 -207 -153 -345t-384 -138q-229 0 -381.5 138t-152.5 345q0 125 61 227.5t168 163.5q-158 131 -158 297q0 172 135.5 288.5t328 116.5t327.5 -116.5t135 -288.5q0 -168 -158 -295zM602 1323q-84 0 -149.5 -56.5t-65.5 -138 t65.5 -138t149.5 -56.5t148.5 56.5t64.5 138t-64.5 138t-148.5 56.5zM600 242q100 0 168 70.5t68 172.5q0 100 -67 167t-169 67q-100 0 -167.5 -66.5t-67.5 -167.5q0 -102 67.5 -172.5t167.5 -70.5z" glyph-name="eight" horiz-adv-x="1200" unicode="8"/><glyph d="M645 -8q-217 0 -357.5 115.5t-160.5 322.5l289 -4q0 -80 63.5 -126t171.5 -46q31 0 45 2q104 16 176 95t99 212q-135 -92 -289 -92q-236 0 -391.5 144.5t-163.5 371.5q-10 233 153.5 404.5t401.5 171.5q215 0 372.5 -146.5t184.5 -369.5q14 -121 14 -246 q0 -379 -151.5 -594t-456.5 -215zM686 713q121 0 203 84t82 207q0 121 -83 203.5t-204 82.5t-204 -85t-83 -206q0 -123 83 -204.5t206 -81.5z" glyph-name="nine" horiz-adv-x="1312" unicode="9"/><glyph d="M319.5 709q-69.5 0 -118.5 49t-49 118.5t49 118.5t118.5 49t118.5 -49t49 -118.5t-49 -118.5t-118.5 -49zM319.5 -20q-69.5 0 -118.5 50t-49 117q0 70 49 120t118.5 50t118.5 -50t49 -120q0 -68 -49 -117.5t-118.5 -49.5z" glyph-name="colon" horiz-adv-x="638" unicode=":"/><glyph d="M295 692q-68 0 -117 49.5t-49 117t49 116.5t117 49q70 0 118 -48t48 -118q0 -68 -48 -117t-118 -49zM242 0q-49 18 -80 62t-31 96q0 70 49 118t117 48t115 -48.5t47 -117.5q0 -117 -148 -301h-168z" glyph-name="semicolon" horiz-adv-x="645" unicode=";"/><glyph d="M1282 1212l-903 -454l903 -457v-248l-1130 572v266l1130 567v-246z" glyph-name="less" horiz-adv-x="1431" unicode="&lt;"/><glyph d="M90 840h1229v-187h-1229v187zM90 434h1229v-188h-1229v188z" glyph-name="equal" horiz-adv-x="1406" unicode="="/><glyph d="M1282 891v-266l-1130 -572v248l901 457l-901 454v246z" glyph-name="greater" horiz-adv-x="1431" unicode=">"/><glyph d="M457 489q0 90 37.5 165t93 126t110 96.5t92 98.5t37.5 110q0 88 -68.5 148.5t-168.5 60.5q-115 0 -183.5 -76.5t-52.5 -187.5h-264q-18 221 126 372.5t374 151.5q211 0 355.5 -136t144.5 -333q0 -92 -57.5 -181t-125 -147.5t-125 -127t-57.5 -121.5v-111h-268v92z M598 -20q-70 0 -119 49t-49 118.5t49 119.5t119 50t119 -50t49 -119.5t-49 -118.5t-119 -49z" glyph-name="question" horiz-adv-x="1179" unicode="?"/><glyph d="M688 -51q-279 0 -459 178t-180 453q0 272 191.5 463.5t464.5 191.5q266 0 437 -161t171 -410q0 -180 -85 -296t-220 -116q-119 0 -177 76q-88 -84 -198 -84q-127 0 -205 84t-78 219q0 158 97.5 270.5t234.5 112.5q78 0 139 -37l2 25h195l-45 -404q-8 -49 1 -67.5 t34 -18.5q55 0 87.5 62.5t32.5 171.5q0 182 -114.5 288.5t-308.5 106.5q-201 0 -333 -135.5t-132 -340t123.5 -329.5t324.5 -125v-178zM647 420q59 0 102.5 59.5t43.5 138.5q0 133 -105 134q-59 0 -100 -59.5t-41 -145.5q0 -127 100 -127z" glyph-name="at" horiz-adv-x="1214" unicode="@"/><glyph d="M1120 311h-667l-117 -311h-334l616 1536h347l616 -1536h-334zM1032 578l-239 645l-250 -645h489z" glyph-name="A" horiz-adv-x="1585" unicode="A"/><glyph d="M1020 793q133 -41 210 -135.5t77 -239.5q0 -193 -128 -305.5t-323 -112.5h-733v1536h635q197 0 325.5 -114.5t128.5 -309.5q1 -208 -192 -319zM905 1081q0 76 -54 131.5t-130 55.5h-291v-355h291q78 0 131 47t53 121zM811 270q78 0 132 55.5t54 131.5q0 78 -55 142.5 t-131 64.5h-381v-394h381z" glyph-name="B" horiz-adv-x="1339" unicode="B"/><glyph d="M827 -20q-328 0 -538.5 228t-210.5 560q0 334 210 561t539 227q295 0 490.5 -173t212.5 -451h-291q-16 129 -119.5 229.5t-292.5 100.5q-211 0 -333.5 -140.5t-122.5 -353.5q0 -215 122.5 -355.5t333.5 -140.5q180 0 288 100.5t124 221.5h291q-20 -246 -225.5 -430 t-477.5 -184z" glyph-name="C" horiz-adv-x="1669" unicode="C"/><glyph d="M123 1536h532q332 0 550 -203t218 -565q0 -365 -217 -566.5t-551 -201.5h-532v1536zM653 270q209 0 336 122t127 376q0 260 -126 380t-337 120h-223v-998h223z" glyph-name="D" horiz-adv-x="1499" unicode="D"/><glyph d="M432 1268v-365h617v-270h-617v-363h703v-270h-1012v1536h1012v-268h-703z" glyph-name="E" horiz-adv-x="1249" unicode="E"/><glyph d="M432 1268v-365h598v-270h-598v-633h-309v1536h993v-268h-684z" glyph-name="F" horiz-adv-x="1159" unicode="F"/><glyph d="M1499 821v-311v-510h-207l-37 186q-154 -197 -467 -196q-330 0 -529.5 210t-199.5 560t198 565t517 215q182 0 327.5 -56.5t245 -181t119.5 -305.5h-297q-20 119 -120.5 192t-243.5 73q-223 0 -341 -131.5t-118 -370.5q0 -223 129 -357.5t311 -134.5q166 0 282 79 t116 216h-367v258h682z" glyph-name="G" horiz-adv-x="1599" unicode="G"/><glyph d="M1401 1536v-1536h-309v633h-660v-633h-309v1536h309v-631h660v631h309z" glyph-name="H" horiz-adv-x="1523" unicode="H"/><glyph d="M123 1536h309v-1536h-309v1536z" glyph-name="I" horiz-adv-x="555" unicode="I"/><glyph d="M238 -20q-106 0 -164 20v313q68 -25 143 -24q45 0 78 32.5t33 77.5v1137h307v-1167q0 -174 -111.5 -281.5t-285.5 -107.5z" glyph-name="J" horiz-adv-x="763" unicode="J"/><glyph d="M1034 0l-602 686v-686h-309v1536h309v-682l518 682h355l-555 -752l688 -784h-404z" glyph-name="K" horiz-adv-x="1435" unicode="K"/><glyph d="M123 1536h309v-1266h518v-270h-827v1536z" glyph-name="L" horiz-adv-x="1015" unicode="L"/><glyph d="M1794 1536v-1536h-307v1102l-365 -1102h-319l-371 1102v-1102h-309v1536h434l401 -1139l406 1139h430z" glyph-name="M" horiz-adv-x="1916" unicode="M"/><glyph d="M1532 1536v-1536h-315l-785 1069v-1069h-309v1536h315l787 -1067v1067h307z" glyph-name="N" horiz-adv-x="1654" unicode="N"/><glyph d="M827 -20q-330 0 -539.5 227t-209.5 561t210 561t539 227q328 0 539 -228t211 -560t-211 -560t-539 -228zM827 279q209 0 330 138t121 351q0 215 -121 353.5t-330 138.5q-211 0 -332.5 -138.5t-121.5 -353.5q0 -213 122.5 -351t331.5 -138z" glyph-name="O" horiz-adv-x="1652" unicode="O"/><glyph d="M819 1536q188 0 321.5 -151.5t133.5 -346t-133 -341t-322 -146.5h-387v-551h-309v1536h696zM791 803q82 0 142 71.5t60 161.5q0 88 -60.5 160t-141.5 72h-359v-465h359z" glyph-name="P" horiz-adv-x="1310" unicode="P"/><glyph d="M1618 233v-233h-66q-162 0 -270 115l-10 8q-193 -143 -445 -143q-330 0 -539.5 227t-209.5 561t210 561t539 227q328 0 539 -228t211 -560q0 -260 -135 -463l24 -24q47 -47 133 -48h19zM827 279q139 0 240 61l-213 225l170 174l205 -213q49 109 49 242q0 215 -121 353.5 t-330 138.5q-211 0 -332.5 -138.5t-121.5 -353.5q0 -213 122.5 -351t331.5 -138z" glyph-name="Q" horiz-adv-x="1644" unicode="Q"/><glyph d="M1348 0h-347l-356 569h-213v-569h-309v1536h696q186 0 320.5 -151.5t134.5 -348.5q0 -154 -91 -282.5t-229 -163.5zM807 809q80 0 133 63.5t53 165.5q0 98 -53 164t-133 66h-375v-459h375z" glyph-name="R" horiz-adv-x="1415" unicode="R"/><glyph d="M680 -20q-250 0 -402.5 140t-175.5 376l269 -2q55 -227 319 -228q111 0 177.5 41t68.5 125q0 41 -21.5 78t-47 60.5t-83 53t-91.5 43t-107 42.5q-80 31 -127 52t-112.5 60t-101.5 79t-62.5 100.5t-26.5 132.5q0 188 155.5 305.5t382.5 117.5q479 0 570 -499h-287 q-10 98 -80 169.5t-195 71.5q-96 0 -162.5 -42t-66.5 -111q0 -37 20.5 -67.5t68.5 -59.5t86 -45.5t114 -47t114.5 -47t107.5 -51t106.5 -68.5t79.5 -82t60.5 -108.5t18.5 -132.5q0 -223 -159.5 -339.5t-409.5 -116.5z" glyph-name="S" horiz-adv-x="1325" unicode="S"/><glyph d="M1223 1268h-435v-1268h-305v1268h-436v268h1176v-268z" glyph-name="T" horiz-adv-x="1269" unicode="T"/><glyph d="M756 -20q-264 0 -446.5 149.5t-182.5 366.5v1040h309v-985q0 -125 93.5 -213t226.5 -88t226 88t93 213v985h309v-1040q0 -217 -182 -366.5t-446 -149.5z" glyph-name="U" horiz-adv-x="1511" unicode="U"/><glyph d="M1581 1536l-616 -1536h-347l-616 1536h346l445 -1178l442 1178h346z" glyph-name="V" horiz-adv-x="1585" unicode="V"/><glyph d="M2337 1536l-424 -1536h-336l-379 1024l-338 -1024h-334l-467 1536h334l312 -1198l342 1198h305l381 -1200l272 1200h332z" glyph-name="W" horiz-adv-x="2396" unicode="W"/><glyph d="M1042 0l-344 537l-344 -537h-352l530 788l-501 748h350l317 -494l320 494h350l-504 -745l531 -791h-353z" glyph-name="X" horiz-adv-x="1398" unicode="X"/><glyph d="M850 727v-727h-307v721l-541 815h344l348 -551l353 551h339z" glyph-name="Y" horiz-adv-x="1388" unicode="Y"/><glyph d="M1239 270v-270h-1173v166l755 1102h-735v268h1149v-166l-758 -1100h762z" glyph-name="Z" horiz-adv-x="1308" unicode="Z"/><glyph d="M133 1767h524v-180h-264v-2150h264v-180h-524v2510z" glyph-name="bracketleft" horiz-adv-x="626" unicode="["/><glyph d="M-72 1536h281l1089 -2048h-278z" glyph-name="backslash" horiz-adv-x="1255" unicode="\"/><glyph d="M133 -563h264v2150h-264v180h524v-2510h-524v180z" glyph-name="bracketright" horiz-adv-x="626" unicode="]"/><glyph d="M1184 406l-455 901l-453 -901h-247l569 1130h264l570 -1130h-248z" glyph-name="asciicircum" horiz-adv-x="1460" unicode="^"/><glyph d="M152 0h1024v-197h-1024v197z" glyph-name="underscore" horiz-adv-x="1325" unicode="_"/><glyph d="M29 1536h299l170 -342h-224z" glyph-name="grave" horiz-adv-x="47" unicode="`"/><glyph d="M430 -16q-166 0 -266.5 88t-100.5 247q0 150 132.5 243t328.5 112l221 20v19q0 94 -43 135t-129 41q-201 0 -217 -172h-262q12 182 130 300t358 118q215 0 336.5 -104.5t121.5 -319.5v-338q0 -135 90 -135v-238q-10 0 -37.5 -1t-43.5 -1h-28h-32t-28.5 1t-30.5 3t-28.5 6 t-30 9.5t-26 14.5t-26.5 20t-21.5 25.5t-19.5 33.5q-47 -57 -142 -92t-206 -35zM516 217q113 0 229 100v175l-153 -21q-211 -29 -211 -133q0 -55 38 -88t97 -33z" glyph-name="a" horiz-adv-x="1181" unicode="a"/><glyph d="M723 1137q225 0 371.5 -163t146.5 -409t-146.5 -409.5t-371.5 -163.5q-203 0 -326 133l-16 -125l-285 2v1536h322v-512q112 111 305 111zM659 270q115 0 188 85t73 210q0 127 -73 212t-188 85q-82 0 -147.5 -50t-93.5 -130v-231q29 -82 94 -131.5t147 -49.5z" glyph-name="b" horiz-adv-x="1275" unicode="b"/><glyph d="M584 -10q-246 0 -395.5 159.5t-149.5 415.5t148.5 414t396.5 158q125 0 223 -32t157.5 -79t100.5 -112.5t57.5 -122t22.5 -115.5h-285q-10 80 -79.5 138t-168.5 58q-123 0 -187.5 -83.5t-64.5 -223.5q0 -137 64.5 -222t187.5 -85q96 0 166 62.5t82 140.5h285 q-6 -63 -22.5 -121.5t-57.5 -124t-100.5 -114t-157.5 -80t-223 -31.5z" glyph-name="c" horiz-adv-x="1179" unicode="c"/><glyph d="M1200 1534v-1532l-280 -2l-25 111q-119 -121 -320 -121q-227 0 -372.5 159.5t-145.5 405.5q0 248 146.5 415t371.5 167q178 0 304 -121v518h321zM639 260q80 0 144.5 48t95.5 128v238q-31 80 -95.5 129t-144.5 49q-117 0 -188.5 -85t-71.5 -212q0 -125 71.5 -210 t188.5 -85z" glyph-name="d" horiz-adv-x="1275" unicode="d"/><glyph d="M1120 565q0 -45 -6 -96h-758q14 -111 81 -173.5t167 -62.5q176 0 244 132h258q-29 -164 -161 -269.5t-349 -105.5q-246 0 -399.5 160.5t-153.5 412.5q0 254 146.5 414t408.5 160q242 0 382 -154t140 -418zM594 891q-188 0 -232 -203h449q-33 203 -217 203z" glyph-name="e" horiz-adv-x="1167" unicode="e"/><glyph d="M262 0v872h-172v224h172v63q0 158 94.5 267.5t251.5 121.5q78 6 158 -12t108 -41v-227q-47 29 -108 40t-121 -12q-86 -45 -86 -157v-43h246v-224h-246v-872h-297z" glyph-name="f" horiz-adv-x="909" unicode="f"/><glyph d="M594 -512q-227 -8 -359.5 69.5t-160.5 200.5q-18 76 12.5 172.5t112.5 143.5q-47 12 -80 63t-33 109q0 131 154 207q-51 47 -90 129t-39 174q0 158 135 273.5t344 115.5q74 0 167 -23.5t136 -60.5q23 82 118 126t160 21v-186q-45 20 -97 5t-75 -66q94 -121 95 -226 q0 -184 -141.5 -302t-348.5 -126q-125 -6 -211 37q-31 -10 -46 -29.5t-7 -38.5q18 -51 149 -51l222 -4q186 -4 300.5 -82t127.5 -211q18 -213 -132.5 -322.5t-412.5 -117.5zM793 739q0 74 -56.5 115t-146.5 41q-88 0 -142.5 -42t-54.5 -118t55.5 -119t141.5 -43 q90 0 146.5 44t56.5 122zM850 -133q0 117 -279 117h-151q-35 -10 -57.5 -45t-22.5 -72q0 -133 231 -133q121 0 200 36t79 97z" glyph-name="g" horiz-adv-x="1218" unicode="g"/><glyph d="M791 1135q197 0 306 -106.5t109 -303.5v-725h-325v684q0 168 -187 168q-100 0 -175 -51t-75 -135v-666h-325v1536h325v-537q63 63 157 99.5t190 36.5z" glyph-name="h" horiz-adv-x="1267" unicode="h"/><glyph d="M272 1210q-66 0 -113.5 47.5t-47.5 115t48 115.5t113 48q68 0 116 -48t48 -115.5t-48 -115t-116 -47.5zM117 1126h319v-1126h-319v1126z" glyph-name="i" horiz-adv-x="571" unicode="i"/><glyph d="M346 1200q-70 0 -120 49t-50 119t50 119t120 49q68 0 118 -49t50 -119t-50 -119t-118 -49zM-20 -512v260h49q86 0 127 32t41 118v1228h299v-1249q0 -98 -32 -172t-80 -114t-114.5 -64.5t-122 -31.5t-118.5 -7h-49z" glyph-name="j" horiz-adv-x="606" unicode="j"/><glyph d="M104 0v1536h326v-807l311 397h326l-418 -512l461 -614h-334l-346 471v-471h-326z" glyph-name="k" horiz-adv-x="1142" unicode="k"/><glyph d="M133 0v1536h299v-1536h-299z" glyph-name="l" horiz-adv-x="600" unicode="l"/><glyph d="M1477 1139q188 0 290.5 -105.5t102.5 -300.5v-733h-326v692q0 164 -162 164q-92 0 -159.5 -51t-67.5 -135v-670h-328v692q0 164 -159 164q-92 0 -161 -51t-69 -135v-670h-325v1126h290l17 -129q57 66 149.5 104t190.5 38q211 0 325 -174q66 80 171.5 127t220.5 47z" glyph-name="m" horiz-adv-x="1953" unicode="m"/><glyph d="M770 1141q197 0 306.5 -107.5t109.5 -304.5v-729h-326v690q0 168 -186 168q-100 0 -175 -51t-75 -135v-672h-326v1126h293l19 -137q61 70 159.5 111t200.5 41z" glyph-name="n" horiz-adv-x="1267" unicode="n"/><glyph d="M641 -14q-252 0 -417 166.5t-165 412.5t165 413t417 167t417 -167t165 -413t-165 -412.5t-417 -166.5zM641 270q115 0 188.5 85t73.5 210t-73.5 211t-188.5 86q-117 0 -189.5 -85t-72.5 -212t72.5 -211t189.5 -84z" glyph-name="o" horiz-adv-x="1275" unicode="o"/><glyph d="M725 1137q225 0 371.5 -162t146.5 -407.5t-146.5 -411.5t-371.5 -166q-184 0 -305 116v-657l-322 2v1673h301l21 -98q112 111 305 111zM662 272q115 0 187.5 84t72.5 211t-73 212t-187 85q-82 0 -147.5 -50t-94.5 -130v-233q29 -80 94.5 -129.5t147.5 -49.5z" glyph-name="p" horiz-adv-x="1275" unicode="p"/><glyph d="M1198 1130v-1673l-321 -2v658q-127 -123 -304 -123q-225 0 -371.5 168t-146.5 415q0 246 145.5 405t372.5 159q197 0 304 -105l20 98h301zM637 279q80 0 144.5 48t95.5 128v237q-31 80 -95.5 129t-144.5 49q-117 0 -188.5 -85t-71.5 -212t71.5 -210.5t188.5 -83.5z" glyph-name="q" horiz-adv-x="1273" unicode="q"/><glyph d="M836 1139v-285q-215 0 -317.5 -81t-102.5 -286v-487h-326v1126h305l19 -153q31 66 139.5 116t282.5 50z" glyph-name="r" horiz-adv-x="862" unicode="r"/><glyph d="M573 -14q-225 0 -358 114.5t-149 266.5h274q18 -74 82.5 -114t140.5 -36q135 8 135 109q0 27 -16 47t-55 37.5t-68 26.5t-92 28q-84 23 -135 42t-114.5 56t-95.5 92.5t-32 130.5q0 162 128 260.5t339 98.5q164 0 299 -92t152 -267h-277q-31 111 -166 119 q-66 4 -104.5 -17.5t-38.5 -64.5q0 -16 6 -29.5t20.5 -24.5t27.5 -18.5t40 -17.5t44.5 -15t52 -15.5t53.5 -16.5q78 -25 129 -47.5t108.5 -61t87 -98t29.5 -137.5q0 -166 -121 -261t-326 -95z" glyph-name="s" horiz-adv-x="1081" unicode="s"/><glyph d="M709 -2q-90 0 -146.5 4t-124 25.5t-105.5 61.5t-64.5 113.5t-26.5 180.5v491h-191v256h191v406h299v-406h305v-256h-305v-471q0 -86 43 -117.5t125 -31.5h141v-256h-141z" glyph-name="t" horiz-adv-x="913" unicode="t"/><glyph d="M1208 1126v-1126h-290l-19 141q-61 -72 -158.5 -111.5t-199.5 -39.5q-186 0 -303 121.5t-117 312.5v702h325v-663q0 -86 50.5 -137.5t138.5 -51.5q98 0 174 53.5t76 135.5v663h323z" glyph-name="u" horiz-adv-x="1306" unicode="u"/><glyph d="M1245 1126l-448 -1126h-308l-446 1126h348l252 -761l254 761h348z" glyph-name="v" horiz-adv-x="1263" unicode="v"/><glyph d="M1749 1126l-360 -1126h-367l-133 481l-133 -481h-367l-362 1126h368l187 -751l184 751h272l181 -751l165 751h365z" glyph-name="w" horiz-adv-x="1755" unicode="w"/><glyph d="M846 559l381 -559h-369l-207 330l-205 -330h-370l379 561l-379 565h366l209 -335l209 335h367z" glyph-name="x" horiz-adv-x="1280" unicode="x"/><glyph d="M1278 1126l-676 -1693h-293l262 651h-67l-430 1042h319l301 -716l277 716h307z" glyph-name="y" horiz-adv-x="1329" unicode="y"/><glyph d="M109 238l561 624h-559v264h968v-233l-561 -629h567v-264h-976v238z" glyph-name="z" horiz-adv-x="1146" unicode="z"/><glyph d="M479 -702q-111 0 -183.5 92t-72.5 227v496q0 158 -27.5 212t-125.5 97v176q98 43 125.5 97.5t27.5 211.5v492q0 135 73 227t183 92h137v-180q-53 0 -69.5 -1t-44 -6t-34.5 -19.5t-13 -38t-6 -64.5v-532q0 -254 -115 -367q115 -113 115 -367v-544q0 -70 30.5 -91.5 t136.5 -21.5v-188h-137z" glyph-name="braceleft" horiz-adv-x="688" unicode="{"/><glyph d="M197 1536h184v-1843h-184v1843z" glyph-name="bar" horiz-adv-x="577" unicode="|"/><glyph d="M72 -514q106 0 137 21.5t31 91.5v544q0 252 114 367q-115 115 -114 367v532q0 94 -29 111.5t-139 17.5v186h139q109 0 182.5 -93t73.5 -228v-496q0 -158 27.5 -212t126.5 -97v-176q-98 -43 -126 -96.5t-28 -212.5v-496q0 -135 -74 -227t-182 -92h-139v188z" glyph-name="braceright" horiz-adv-x="688" unicode="}"/><glyph d="M772 342q-51 0 -94 13.5t-84 46t-54.5 45t-47.5 51.5q-70 80 -136 80q-74 0 -114.5 -63.5t-28.5 -152.5h-152q-20 160 65 263.5t230 103.5q147 0 262 -149q70 -88 142 -88q70 0 111.5 58t27.5 152h150q25 -152 -57.5 -256t-219.5 -104z" glyph-name="asciitilde" horiz-adv-x="1112" unicode="~"/><glyph d="M319.5 688q-69.5 0 -118.5 49t-49 119t49 119t118.5 49t118.5 -49t49 -119t-49 -119t-118.5 -49zM207 510h223l37 -1022h-297z" glyph-name="exclamdown" horiz-adv-x="638" unicode="¡"/><glyph d="M647 989q-115 0 -193.5 -79t-78.5 -193q0 -113 78.5 -192t193.5 -79q145 0 225 70v-287q-92 -39 -202 -45v-186h-172v205q-186 45 -303 186t-117 327.5t116.5 328t303.5 186.5v205h172v-187q109 -6 202 -43v-286q-80 69 -225 69z" glyph-name="cent" horiz-adv-x="980" unicode="¢"/><glyph d="M55 842h107q-18 96 -19 186q0 205 140.5 339t355.5 134q233 0 367.5 -143.5t119.5 -382.5h-278q-10 143 -54 198.5t-155 55.5q-94 0 -148.5 -54.5t-54.5 -146.5q0 -88 23 -186h446v-264h-385q14 -86 15 -162q0 -47 -9 -86q43 -14 102.5 -42t101.5 -43.5t75 -15.5 q66 0 86 42t10 153h277q20 -207 -83.5 -338t-281.5 -131q-115 0 -262.5 67.5t-179.5 67.5q-76 0 -43 -121h-281q-20 125 35 227.5t162 143.5q12 37 12 78q0 76 -23 160h-178v264z" glyph-name="sterling" horiz-adv-x="1263" unicode="£"/><glyph d="M115 377l108 108q-76 117 -74.5 258.5t74.5 260.5l-106 104l157 166l111 -113q117 76 258 76t260 -76l109 111l159 -160l-108 -106q76 -119 76 -261.5t-76 -261.5l106 -106l-155 -164l-111 111q-119 -74 -261 -74t-259 74l-111 -111zM449 553q82 -80 194.5 -81t192.5 81 q78 78 77.5 191.5t-77.5 191.5q-80 78 -193 78t-192 -80q-78 -80 -78 -191.5t76 -189.5z" glyph-name="currency" horiz-adv-x="1286" unicode="¤"/><glyph d="M846 776h346v-188h-363v-154h363v-174h-363v-260h-260v260h-360v174h360v154h-360v188h342l-14 23l-488 737h277l372 -586l375 586h275l-484 -731z" glyph-name="yen" horiz-adv-x="1396" unicode="¥"/><glyph d="M197 1536h184v-737h-184v737zM197 430h184v-737h-184v737z" glyph-name="brokenbar" horiz-adv-x="577" unicode="¦"/><glyph d="M1104 539q80 -76 80 -189q0 -147 -158 -246.5t-375 -99.5q-178 0 -327.5 69.5t-217.5 178.5l183 113q41 -70 140 -113t235 -43q127 0 214 39t87 106q0 59 -82 95t-198 59.5t-232.5 56.5t-198.5 105.5t-82 185.5q0 111 78 188q-78 74 -78 181q0 154 139.5 242.5 t329.5 88.5q129 0 252 -43t194 -114l-147 -123q-104 92 -287 92q-109 0 -185.5 -36t-76.5 -95q0 -51 58.5 -86t146.5 -52.5t191.5 -45t191.5 -60t146.5 -101.5t58.5 -167q0 -102 -80 -186zM391 864q0 -39 31 -67.5t90 -48t120.5 -34t145.5 -33.5t142 -40q45 39 45 86 q0 37 -32 64.5t-90.5 47t-119.5 33t-145 33t-142 39.5q-45 -33 -45 -80z" glyph-name="section" horiz-adv-x="1277" unicode="§"/><glyph d="M262.5 1180q-69.5 0 -119 49t-49.5 118.5t49.5 119t119 49.5t118.5 -49.5t49 -119t-49 -118.5t-118.5 -49zM709 1180q-68 0 -118 49t-50 118.5t50 119t118 49.5q70 0 119 -49.5t49 -119t-49 -118.5t-119 -49z" glyph-name="dieresis" horiz-adv-x="47" unicode="¨"/><glyph d="M866.5 -20q-325.5 0 -557 231t-231.5 557t231.5 557t557 231t557 -231t231.5 -557t-231.5 -557t-557 -231zM866 139q264 0 447.5 182.5t183.5 446.5t-183.5 447.5t-447.5 183.5t-447 -183.5t-183 -447.5t183 -446.5t447 -182.5zM858 365q-168 0 -276.5 117.5 t-108.5 287.5t107.5 287t277.5 117q152 0 252 -88.5t109 -231.5h-150q-8 66 -61.5 118t-149.5 52q-109 0 -171 -72.5t-62 -181t62.5 -181.5t170.5 -73q92 0 147.5 51t63.5 113h150q-10 -125 -116 -220t-245 -95z" glyph-name="copyright" horiz-adv-x="1730" unicode="©"/><glyph d="M723 1536v-614h-143v100q-82 -113 -224 -113q-127 0 -217 93.5t-90 226.5t90 226t217 93q137 0 224 -112v100h143zM385 1034q82 0 138.5 57.5t56.5 137.5t-56.5 137t-138.5 57q-80 0 -136 -57t-56 -137t56 -137.5t136 -57.5z" glyph-name="ordfeminine" horiz-adv-x="819" unicode="ª"/><glyph d="M193 571l311 377h237l-311 -377l311 -376h-237zM664 571l311 377h237l-311 -377l311 -376h-237z" glyph-name="guillemotleft" horiz-adv-x="1404" unicode="«"/><glyph d="M1264 729h-1112v189h1298v-713h-186v524z" glyph-name="logicalnot" horiz-adv-x="1601" unicode="¬"/><glyph d="M152 633h716v-199h-716v199z" glyph-name="uni00AD" horiz-adv-x="1208" unicode="­"/><glyph d="M866.5 1556q325.5 0 557 -231t231.5 -557t-231.5 -557t-557 -231t-557 231t-231.5 557t231.5 557t557 231zM866 139q264 0 447.5 182.5t183.5 446.5t-183.5 447.5t-447.5 183.5t-447 -183.5t-183 -447.5t183 -446.5t447 -182.5zM1165 414h-161l-166 266h-70v-266h-145 v716h299q86 0 148.5 -70.5t62.5 -162.5q0 -72 -43 -132t-109 -75zM913 793q37 0 62.5 28.5t25.5 75.5t-25.5 78t-62.5 31h-145v-213h145z" glyph-name="registered" horiz-adv-x="1730" unicode="®"/><glyph d="M29 1384h635v-188h-635v188z" glyph-name="macron" horiz-adv-x="55" unicode="¯"/><glyph d="M467 1008q-115 0 -194.5 79.5t-79.5 194.5t79.5 194.5t194.5 79.5t194.5 -79.5t79.5 -194.5t-79.5 -194.5t-194.5 -79.5zM467 1151q55 0 93 38t38 93q0 57 -38 95t-93 38q-57 0 -95 -38t-38 -95q0 -55 38 -93t95 -38z" glyph-name="degree" horiz-adv-x="931" unicode="°"/><glyph d="M1499 930v-189h-620v-368h-189v368h-620v189h620v368h189v-368h620zM70 170h1429v-170h-1429v170z" glyph-name="plusminus" horiz-adv-x="1566" unicode="±"/><glyph d="M84 883q242 256 296 325.5t54 118.5q0 53 -30.5 79t-73.5 26q-47 0 -77 -31t-26 -82h-137q-8 104 65.5 170.5t180.5 66.5q100 0 165.5 -59t67.5 -154q2 -88 -50 -161.5t-249 -278.5h318v-125h-504v105z" glyph-name="uni00B2" horiz-adv-x="659" unicode="²"/><glyph d="M438.5 819q-96.5 0 -163 59.5t-66.5 143.5l127 2q0 -35 29.5 -59.5t72.5 -24.5t72 30.5t29 76t-29 76t-72 30.5h-57v102h47q37 0 59.5 24t22.5 62q0 33 -22.5 54.5t-59.5 21.5q-31 0 -52.5 -19.5t-21.5 -45.5l-125 2q0 76 57.5 129t141.5 53t139.5 -52t59.5 -130 q4 -82 -74 -131q113 -55 113 -176q0 -96 -65.5 -162t-162 -66z" glyph-name="uni00B3" horiz-adv-x="702" unicode="³"/><glyph d="M199 1536h299l-244 -342h-225z" glyph-name="acute" horiz-adv-x="47" unicode="´"/><glyph d="M1128 1024v-1024h-299v115q-123 -135 -297 -135q-98 0 -184 45v-537h-217v1536h297v-592q0 -80 56.5 -135t136.5 -55q88 0 148 55t60 135v592h299z" glyph-name="uni00B5" horiz-adv-x="1208" unicode="µ"/><glyph d="M573 727h-36q-170 0 -298 120t-128 285.5t128 284.5t298 119h186v-1843h-150v1034zM915 1536h152v-1843h-152v1843z" glyph-name="paragraph" horiz-adv-x="1277" unicode="¶"/><glyph d="M274.5 614q-49.5 0 -86 36t-36.5 87t36.5 88t86 37t87 -37t37.5 -88t-37.5 -87t-87 -36z" glyph-name="periodcentered" horiz-adv-x="550" unicode="·"/><glyph d="M268 -532q-76 0 -146.5 44t-92.5 107l129 45q16 -27 48 -45t62 -18q37 0 61.5 26.5t24.5 63.5q0 57 -48 74.5t-120 -15.5l-106 62l102 188h137l-69 -123q100 18 171 -36t71 -150q0 -94 -65 -158.5t-159 -64.5z" glyph-name="cedilla" horiz-adv-x="47" unicode="¸"/><glyph d="M160 1411h-109v125h252v-768h-143v643z" glyph-name="uni00B9" horiz-adv-x="516" unicode="¹"/><glyph d="M385 909q-139 0 -237.5 93.5t-98.5 226.5t98.5 226t237.5 93q141 0 239.5 -93t98.5 -226t-98.5 -226.5t-239.5 -93.5zM385 1034q82 0 138.5 57.5t56.5 137.5t-56.5 137t-138.5 57q-80 0 -136 -57t-56 -137t56 -137.5t136 -57.5z" glyph-name="ordmasculine" horiz-adv-x="772" unicode="º"/><glyph d="M504 571l-311 377h235l311 -377l-311 -376h-235zM973 571l-311 377h239l311 -377l-311 -376h-239z" glyph-name="guillemotright" horiz-adv-x="1404" unicode="»"/><glyph d="M598 1055q70 0 119 -49.5t49 -119t-49 -119.5t-119 -50t-119 50t-49 119.5t49 119t119 49.5zM739 545q0 -90 -37.5 -165t-93 -126t-110 -96t-92 -98.5t-37.5 -110.5q0 -88 68.5 -148.5t168.5 -60.5q115 0 183.5 77t52.5 187h264q18 -221 -126 -372.5t-374 -151.5 q-211 0 -355.5 136t-144.5 333q0 92 57.5 181t125 147.5t125 127t57.5 121.5v111h268v-92z" glyph-name="questiondown" horiz-adv-x="1175" unicode="¿"/><glyph d="M670 1706l-246 342h299l170 -342h-223zM1120 311h-667l-117 -311h-334l616 1536h347l616 -1536h-334zM1032 578l-239 645l-250 -645h489z" glyph-name="Agrave" horiz-adv-x="1585" unicode="À"/><glyph d="M909 1706h-225l170 342h299zM1120 311h-667l-117 -311h-334l616 1536h347l616 -1536h-334zM1032 578l-239 645l-250 -645h489z" glyph-name="Aacute" horiz-adv-x="1585" unicode="Á"/><glyph d="M647 1698h-225l215 350h309l219 -350h-227l-145 221zM1120 311h-667l-117 -311h-334l616 1536h347l616 -1536h-334zM1032 578l-239 645l-250 -645h489z" glyph-name="Acircumflex" horiz-adv-x="1585" unicode="Â"/><glyph d="M455 1690q-31 133 30.5 222t171.5 89q129 0 209 -119q20 -39 56 -39q37 0 47 39t-11 100h175q31 -131 -29 -220t-176 -89q-123 0 -207 119q-25 39 -55 39q-37 0 -47.5 -40t10.5 -101h-174zM1120 311h-667l-117 -311h-334l616 1536h347l616 -1536h-334zM1032 578l-239 645 l-250 -645h489z" glyph-name="Atilde" horiz-adv-x="1585" unicode="Ã"/><glyph d="M569.5 1692q-69.5 0 -119 49t-49.5 118.5t49.5 119t119 49.5t118.5 -49.5t49 -119t-49 -118.5t-118.5 -49zM1016 1692q-68 0 -118 49t-50 118.5t50 119t118 49.5q70 0 119 -49.5t49 -119t-49 -118.5t-119 -49zM1120 311h-667l-117 -311h-334l616 1536h347l616 -1536h-334 zM1032 578l-239 645l-250 -645h489z" glyph-name="Adieresis" horiz-adv-x="1585" unicode="Ä"/><glyph d="M977 1505l604 -1505h-334l-127 311h-667l-117 -311h-334l604 1507q-53 66 -53 152q0 96 70.5 166.5t171.5 70.5q98 0 167.5 -70.5t69.5 -166.5q0 -88 -55 -154zM794.5 1778q-49.5 0 -83 -35t-33.5 -84q0 -53 33.5 -86t83 -33t83 33t33.5 86q0 49 -33.5 84t-83 35z M543 578h489l-239 645z" glyph-name="Aring" horiz-adv-x="1585" unicode="Å"/><glyph d="M618 1536h1227v-260h-608v-391h522v-232h-522v-391h608v-262h-907v319h-479l-111 -319h-346zM940 553v723h-109l-274 -723h383z" glyph-name="AE" horiz-adv-x="1886" unicode="Æ"/><glyph d="M827 272q180 0 288 100.5t124 221.5h291q-18 -231 -203.5 -411.5t-439.5 -200.5l-60 -105q100 18 171 -36t71 -150q0 -94 -64.5 -158.5t-158.5 -64.5q-76 0 -146.5 44t-93.5 107l129 45q16 -27 48 -45t63 -18q37 0 61.5 26.5t24.5 63.5q0 57 -48 74.5t-120 -15.5l-107 62 l93 172q-297 29 -484.5 251t-187.5 533q0 334 210 561t539 227q295 0 490.5 -173t212.5 -451h-291q-16 129 -119.5 229.5t-292.5 100.5q-211 0 -333.5 -140.5t-122.5 -353.5q0 -215 122.5 -355.5t333.5 -140.5z" glyph-name="Ccedilla" horiz-adv-x="1669" unicode="Ç"/><glyph d="M455 1706l-246 342h299l170 -342h-223zM432 1268v-365h617v-270h-617v-363h703v-270h-1012v1536h1012v-268h-703z" glyph-name="Egrave" horiz-adv-x="1249" unicode="È"/><glyph d="M694 1706h-225l170 342h299zM432 1268v-365h617v-270h-617v-363h703v-270h-1012v1536h1012v-268h-703z" glyph-name="Eacute" horiz-adv-x="1249" unicode="É"/><glyph d="M432 1698h-225l215 350h309l219 -350h-227l-145 221zM432 1268v-365h617v-270h-617v-363h703v-270h-1012v1536h1012v-268h-703z" glyph-name="Ecircumflex" horiz-adv-x="1249" unicode="Ê"/><glyph d="M354.5 1692q-69.5 0 -119 49t-49.5 118.5t49.5 119t119 49.5t118.5 -49.5t49 -119t-49 -118.5t-118.5 -49zM801 1692q-68 0 -118 49t-50 118.5t50 119t118 49.5q70 0 119 -49.5t49 -119t-49 -118.5t-119 -49zM432 1268v-365h617v-270h-617v-363h703v-270h-1012v1536h1012 v-268h-703z" glyph-name="Edieresis" horiz-adv-x="1249" unicode="Ë"/><glyph d="M123 2048h301l170 -342h-223zM342 1536h309v-1536h-309v1536z" glyph-name="Igrave" horiz-adv-x="774" unicode="Ì"/><glyph d="M336 2048h299l-244 -342h-225zM123 1536h309v-1536h-309v1536z" glyph-name="Iacute" horiz-adv-x="757" unicode="Í"/><glyph d="M340 2048h309l219 -350h-227l-145 221l-146 -221h-227zM344 1536h309v-1536h-309v1536z" glyph-name="Icircumflex" horiz-adv-x="991" unicode="Î"/><glyph d="M292.5 1692q-69.5 0 -119.5 49t-50 118.5t50 119t119.5 49.5t119 -49.5t49.5 -119t-49.5 -118.5t-119 -49zM739 1692q-68 0 -118 49t-50 118.5t50.5 119t117.5 49.5q70 0 119 -49.5t49 -119t-49 -118.5t-119 -49zM365 1536h309v-1536h-309v1536z" glyph-name="Idieresis" horiz-adv-x="1030" unicode="Ï"/><glyph d="M764 1536q317 0 542.5 -225.5t225.5 -542.5t-225.5 -542.5t-542.5 -225.5h-492v684h-149v168h149v684h492zM762 270q195 0 329 144.5t134 353.5q0 211 -134.5 355.5t-328.5 144.5h-182v-416h239v-168h-239v-414h182z" glyph-name="Eth" horiz-adv-x="1607" unicode="Ð"/><glyph d="M494 1690q-31 133 30.5 222t171.5 89q129 0 209 -119q20 -39 56 -39q37 0 47 39t-11 100h174q31 -131 -28.5 -220t-175.5 -89q-123 0 -207 119q-25 39 -55 39q-37 0 -47.5 -40t10.5 -101h-174zM1532 1536v-1536h-315l-785 1069v-1069h-309v1536h315l787 -1067v1067h307z " glyph-name="Ntilde" horiz-adv-x="1654" unicode="Ñ"/><glyph d="M457 2048h299l170 -342h-224zM827 -20q-330 0 -539.5 227t-209.5 561t210 561t539 227q328 0 539 -228t211 -560t-211 -560t-539 -228zM827 279q209 0 330 138t121 351q0 215 -121 353.5t-330 138.5q-211 0 -332.5 -138.5t-121.5 -353.5q0 -213 122.5 -351t331.5 -138z " glyph-name="Ograve" horiz-adv-x="1652" unicode="Ò"/><glyph d="M887 2048h299l-244 -342h-225zM827 -20q-330 0 -539.5 227t-209.5 561t210 561t539 227q328 0 539 -228t211 -560t-211 -560t-539 -228zM827 279q209 0 330 138t121 351q0 215 -121 353.5t-330 138.5q-211 0 -332.5 -138.5t-121.5 -353.5q0 -213 122.5 -351t331.5 -138z " glyph-name="Oacute" horiz-adv-x="1652" unicode="Ó"/><glyph d="M672 2048h309l219 -350h-227l-146 221l-145 -221h-225zM827 -20q-330 0 -539.5 227t-209.5 561t210 561t539 227q328 0 539 -228t211 -560t-211 -560t-539 -228zM827 279q209 0 330 138t121 351q0 215 -121 353.5t-330 138.5q-211 0 -332.5 -138.5t-121.5 -353.5 q0 -213 122.5 -351t331.5 -138z" glyph-name="Ocircumflex" horiz-adv-x="1652" unicode="Ô"/><glyph d="M961 1673q-123 0 -207 119q-25 39 -56 39q-37 0 -47 -40t11 -101h-175q-31 133 31 222t172 89q129 0 209 -119q20 -39 55 -39q37 0 47.5 39t-10.5 100h174q31 -131 -28 -220t-176 -89zM827 -20q-330 0 -539.5 227t-209.5 561t210 561t539 227q328 0 539 -228t211 -560 t-211 -560t-539 -228zM827 279q209 0 330 138t121 351q0 215 -121 353.5t-330 138.5q-211 0 -332.5 -138.5t-121.5 -353.5q0 -213 122.5 -351t331.5 -138z" glyph-name="Otilde" horiz-adv-x="1652" unicode="Õ"/><glyph d="M604.5 1692q-69.5 0 -119 49t-49.5 118.5t49.5 119t119 49.5t118.5 -49.5t49 -119t-49 -118.5t-118.5 -49zM1051 1692q-68 0 -118 49t-50 118.5t50 119t118 49.5q70 0 119 -49.5t49 -119t-49 -118.5t-119 -49zM827 -20q-330 0 -539.5 227t-209.5 561t210 561t539 227 q328 0 539 -228t211 -560t-211 -560t-539 -228zM827 279q209 0 330 138t121 351q0 215 -121 353.5t-330 138.5q-211 0 -332.5 -138.5t-121.5 -353.5q0 -213 122.5 -351t331.5 -138z" glyph-name="Odieresis" horiz-adv-x="1652" unicode="Ö"/><glyph d="M936 635l371 -369l-158 -160l-371 371l-370 -371l-158 160l368 369l-368 371l158 157l370 -370l371 370l158 -157z" glyph-name="multiply" horiz-adv-x="1499" unicode="×"/><glyph d="M1319 1374q123 -111 190.5 -268.5t67.5 -337.5q0 -332 -211 -560t-539 -228q-207 0 -370 94l-92 -142h-183l152 230q-121 109 -188.5 266.5t-67.5 339.5q0 334 210 561t539 227q201 0 369 -94l92 140h182zM373 768q0 -219 127 -356l532 802q-94 45 -205 46 q-211 0 -332.5 -138.5t-121.5 -353.5zM827 279q209 0 330 138t121 351q0 221 -123 356l-532 -802q85 -43 204 -43z" glyph-name="Oslash" horiz-adv-x="1652" unicode="Ø"/><glyph d="M385 2048h299l170 -342h-223zM756 -20q-264 0 -446.5 149.5t-182.5 366.5v1040h309v-985q0 -125 93.5 -213t226.5 -88t226 88t93 213v985h309v-1040q0 -217 -182 -366.5t-446 -149.5z" glyph-name="Ugrave" horiz-adv-x="1511" unicode="Ù"/><glyph d="M815 2048h299l-244 -342h-225zM756 -20q-264 0 -446.5 149.5t-182.5 366.5v1040h309v-985q0 -125 93.5 -213t226.5 -88t226 88t93 213v985h309v-1040q0 -217 -182 -366.5t-446 -149.5z" glyph-name="Uacute" horiz-adv-x="1511" unicode="Ú"/><glyph d="M600 2048h309l219 -350h-227l-145 221l-146 -221h-225zM756 -20q-264 0 -446.5 149.5t-182.5 366.5v1040h309v-985q0 -125 93.5 -213t226.5 -88t226 88t93 213v985h309v-1040q0 -217 -182 -366.5t-446 -149.5z" glyph-name="Ucircumflex" horiz-adv-x="1511" unicode="Û"/><glyph d="M532.5 1692q-69.5 0 -118.5 49t-49 118.5t49 119t118.5 49.5t118.5 -49.5t49 -119t-49 -118.5t-118.5 -49zM979 1692q-68 0 -118 49t-50 118.5t50 119t118 49.5q70 0 119 -49.5t49 -119t-49 -118.5t-119 -49zM756 -20q-264 0 -446.5 149.5t-182.5 366.5v1040h309v-985 q0 -125 93.5 -213t226.5 -88t226 88t93 213v985h309v-1040q0 -217 -182 -366.5t-446 -149.5z" glyph-name="Udieresis" horiz-adv-x="1511" unicode="Ü"/><glyph d="M813 1706h-225l170 342h299zM850 727v-727h-307v721l-541 815h344l348 -551l353 551h339z" glyph-name="Yacute" horiz-adv-x="1388" unicode="Ý"/><glyph d="M754 1315q188 0 319 -134t131 -327q0 -186 -131 -314t-319 -128h-332v-412h-299v1536h299v-221h332zM743 674q80 0 135.5 56t55.5 134t-55.5 132.5t-135.5 54.5h-321v-377h321z" glyph-name="Thorn" horiz-adv-x="1234" unicode="Þ"/><glyph d="M1081 803q96 -63 152.5 -163.5t56.5 -217.5q0 -184 -121.5 -313t-298.5 -129q-84 0 -187 27.5t-161 72.5l115 231q82 -59 176 -55q72 4 125 55t53 129q0 88 -66.5 150.5t-160.5 62.5h-82v244h33q84 0 145.5 58.5t61.5 140.5q0 78 -63.5 129t-160.5 51q-109 0 -179 -61.5 t-70 -155.5v-1059h-297v1059q0 207 155.5 342t386.5 135q221 0 364.5 -124t143.5 -312q0 -172 -121 -297z" glyph-name="germandbls" horiz-adv-x="1398" unicode="ß"/><glyph d="M700 1194h-223l-246 342h299zM1040 373q0 -135 90 -135v-238q-10 0 -37.5 -1t-43.5 -1h-28h-32t-28.5 1t-30.5 3t-28.5 6t-30 9.5t-26 14.5t-26.5 20t-21.5 25.5t-19.5 33.5q-47 -57 -142 -92t-206 -35q-166 0 -266.5 88t-100.5 247q0 150 132.5 243t328.5 112l221 20v19 q0 94 -43 135t-129 41q-201 0 -217 -172h-262q12 182 130 300t358 118q215 0 336.5 -104.5t121.5 -319.5v-338zM745 317v175l-153 -21q-211 -29 -211 -133q0 -55 38 -88t97 -33q112 0 229 100z" glyph-name="agrave" horiz-adv-x="1181" unicode="à"/><glyph d="M961 1536l-244 -342h-225l170 342h299zM1040 373q0 -135 90 -135v-238q-10 0 -37.5 -1t-43.5 -1h-28h-32t-28.5 1t-30.5 3t-28.5 6t-30 9.5t-26 14.5t-26.5 20t-21.5 25.5t-19.5 33.5q-47 -57 -142 -92t-206 -35q-166 0 -266.5 88t-100.5 247q0 150 132.5 243t328.5 112 l221 20v19q0 94 -43 135t-129 41q-201 0 -217 -172h-262q12 182 130 300t358 118q215 0 336.5 -104.5t121.5 -319.5v-338zM745 317v175l-153 -21q-211 -29 -211 -133q0 -55 38 -88t97 -33q112 0 229 100z" glyph-name="aacute" horiz-adv-x="1181" unicode="á"/><glyph d="M520 1407l-145 -221h-225l215 350h309l219 -350h-227zM1040 373q0 -135 90 -135v-238q-10 0 -37.5 -1t-43.5 -1h-28h-32t-28.5 1t-30.5 3t-28.5 6t-30 9.5t-26 14.5t-26.5 20t-21.5 25.5t-19.5 33.5q-47 -57 -142 -92t-206 -35q-166 0 -266.5 88t-100.5 247 q0 150 132.5 243t328.5 112l221 20v19q0 94 -43 135t-129 41q-201 0 -217 -172h-262q12 182 130 300t358 118q215 0 336.5 -104.5t121.5 -319.5v-338zM745 317v175l-153 -21q-211 -29 -211 -133q0 -55 38 -88t97 -33q112 0 229 100z" glyph-name="acircumflex" horiz-adv-x="1181" unicode="â"/><glyph d="M199 1178q-31 133 30.5 222t171.5 89q129 0 209 -119q20 -39 56 -39q37 0 47 39t-11 100h175q31 -131 -29 -220t-176 -89q-123 0 -207 119q-25 39 -55 39q-37 0 -47.5 -40t10.5 -101h-174zM430 -16q-166 0 -266.5 88t-100.5 247q0 150 132.5 243t328.5 112l221 20v19 q0 94 -43 135t-129 41q-201 0 -217 -172h-262q12 182 130 300t358 118q215 0 336.5 -104.5t121.5 -319.5v-338q0 -135 90 -135v-238q-10 0 -37.5 -1t-43.5 -1h-28h-32t-28.5 1t-30.5 3t-28.5 6t-30 9.5t-26 14.5t-26.5 20t-21.5 25.5t-19.5 33.5q-47 -57 -142 -92t-206 -35z M516 217q113 0 229 100v175l-153 -21q-211 -29 -211 -133q0 -55 38 -88t97 -33z" glyph-name="atilde" horiz-adv-x="1181" unicode="ã"/><glyph d="M297 1180q-70 0 -119 49t-49 118.5t49 119t119 49.5t119 -49.5t49 -119t-49 -118.5t-119 -49zM743 1180q-68 0 -118 49t-50 118.5t50.5 119t117.5 49.5q70 0 119 -49.5t49 -119t-49 -118.5t-119 -49zM430 -16q-166 0 -266.5 88t-100.5 247q0 150 132.5 243t328.5 112 l221 20v19q0 94 -43 135t-129 41q-201 0 -217 -172h-262q12 182 130 300t358 118q215 0 336.5 -104.5t121.5 -319.5v-338q0 -135 90 -135v-238q-10 0 -37.5 -1t-43.5 -1h-28h-32t-28.5 1t-30.5 3t-28.5 6t-30 9.5t-26 14.5t-26.5 20t-21.5 25.5t-19.5 33.5q-47 -57 -142 -92 t-206 -35zM516 217q113 0 229 100v175l-153 -21q-211 -29 -211 -133q0 -55 38 -88t97 -33z" glyph-name="adieresis" horiz-adv-x="1181" unicode="ä"/><glyph d="M1040 373q0 -135 90 -135v-238q-10 0 -37.5 -1t-43.5 -1h-28h-32t-28.5 1t-30.5 3t-28.5 6t-30 9.5t-26 14.5t-26.5 20t-21.5 25.5t-19.5 33.5q-47 -57 -142 -92t-206 -35q-166 0 -266.5 88t-100.5 247q0 150 132.5 243t328.5 112l221 20v19q0 94 -43 135t-129 41 q-201 0 -217 -172h-262q10 166 109.5 280.5t300.5 132.5q-94 6 -159.5 77t-65.5 165q0 96 70.5 167t170.5 71q98 0 168 -71t70 -167q0 -88 -55.5 -154.5t-139.5 -82.5h19q215 0 336.5 -104.5t121.5 -319.5v-338zM406 1372q0 -53 32.5 -86t81.5 -33t83 33t34 86q0 49 -34 84 t-83 35t-81.5 -35t-32.5 -84zM745 317v175l-153 -21q-211 -29 -211 -133q0 -55 38 -88t97 -33q112 0 229 100z" glyph-name="aring" horiz-adv-x="1181" unicode="å"/><glyph d="M2042 563q0 -49 -8 -96h-756q14 -111 80.5 -173.5t167.5 -62.5q176 0 243 131h259q-29 -164 -161 -272t-349 -108q-303 0 -463 235v-215h-262l-19 111q-96 -145 -364 -127q-156 10 -248 96t-92 240q0 152 133 242.5t327 90.5h222v60q0 94 -43 135t-129 41 q-199 0 -218 -172h-260q10 182 128 300t358 118q168 0 284.5 -64.5t157.5 -195.5q152 266 490 266q242 0 382 -157t140 -423zM1284 686h449q-35 203 -220 203q-186 0 -229 -203zM752 319v134h-152q-96 0 -154.5 -29t-58.5 -84t38 -88t99 -33q111 0 228 100z" glyph-name="ae" horiz-adv-x="2084" unicode="æ"/><glyph d="M612 258q96 0 166 62.5t82 140.5h285q-6 -61 -21.5 -118.5t-54.5 -123t-96.5 -113t-151.5 -81t-213 -35.5q-2 -2 -2 -4t-2 -4l-59 -105q100 18 170.5 -36t70.5 -150q0 -94 -64.5 -158.5t-158.5 -64.5q-76 0 -146.5 44t-92.5 107l129 45q16 -27 47.5 -45t62.5 -18 q37 0 61.5 26.5t24.5 63.5q0 57 -48 74.5t-120 -15.5l-106 62l96 176l10 10q-203 33 -322.5 186.5t-119.5 380.5q0 256 148.5 414t396.5 158q125 0 223 -32t157.5 -79t100.5 -112.5t57.5 -122t22.5 -115.5h-285q-10 80 -79.5 138t-168.5 58q-123 0 -187.5 -83.5 t-64.5 -223.5q0 -137 64.5 -222t187.5 -85z" glyph-name="ccedilla" horiz-adv-x="1179" unicode="ç"/><glyph d="M459 1196l-246 342h299l170 -342h-223zM1120 565q0 -45 -6 -96h-758q14 -111 81 -173.5t167 -62.5q176 0 244 132h258q-29 -164 -161 -269.5t-349 -105.5q-246 0 -399.5 160.5t-153.5 412.5q0 254 146.5 414t408.5 160q242 0 382 -154t140 -418zM594 891 q-188 0 -232 -203h449q-33 203 -217 203z" glyph-name="egrave" horiz-adv-x="1187" unicode="è"/><glyph d="M942 1538l-244 -342h-225l170 342h299zM1120 565q0 -45 -6 -96h-758q14 -111 81 -173.5t167 -62.5q176 0 244 132h258q-29 -164 -161 -269.5t-349 -105.5q-246 0 -399.5 160.5t-153.5 412.5q0 254 146.5 414t408.5 160q242 0 382 -154t140 -418zM362 688h449 q-33 203 -217 203q-189 0 -232 -203z" glyph-name="eacute" horiz-adv-x="1187" unicode="é"/><glyph d="M436 1188h-225l215 350h309l219 -350h-227l-145 221zM1120 565q0 -45 -6 -96h-758q14 -111 81 -173.5t167 -62.5q176 0 244 132h258q-29 -164 -161 -269.5t-349 -105.5q-246 0 -399.5 160.5t-153.5 412.5q0 254 146.5 414t408.5 160q242 0 382 -154t140 -418zM594 891 q-188 0 -232 -203h449q-33 203 -217 203z" glyph-name="ecircumflex" horiz-adv-x="1187" unicode="ê"/><glyph d="M358.5 1182q-69.5 0 -119 49t-49.5 118.5t49.5 119t119 49.5t118.5 -49.5t49 -119t-49 -118.5t-118.5 -49zM805 1182q-68 0 -118 49t-50 118.5t50 119t118 49.5q70 0 119 -49.5t49 -119t-49 -118.5t-119 -49zM1120 565q0 -45 -6 -96h-758q14 -111 81 -173.5t167 -62.5 q176 0 244 132h258q-29 -164 -161 -269.5t-349 -105.5q-246 0 -399.5 160.5t-153.5 412.5q0 254 146.5 414t408.5 160q242 0 382 -154t140 -418zM594 891q-188 0 -232 -203h449q-33 203 -217 203z" glyph-name="edieresis" horiz-adv-x="1187" unicode="ë"/><glyph d="M51 1536h301l170 -342h-223zM274 1024h299v-1024h-299v1024z" glyph-name="igrave" horiz-adv-x="686" unicode="ì"/><glyph d="M303 1536h299l-244 -342h-225zM92 1024h299v-1024h-299v1024z" glyph-name="iacute" horiz-adv-x="673" unicode="í"/><glyph d="M309 1536h309l220 -350h-228l-145 221l-146 -221h-227zM315 1024h299v-1024h-299v1024z" glyph-name="icircumflex" horiz-adv-x="950" unicode="î"/><glyph d="M262.5 1180q-69.5 0 -120 49t-50.5 118.5t50.5 119t120 49.5t118.5 -49.5t49 -119t-49 -118.5t-118.5 -49zM709 1180q-68 0 -118 49t-50 118.5t50 119t118 49.5q70 0 119 -49.5t49 -119t-49 -118.5t-119 -49zM336 1024h299v-1024h-299v1024z" glyph-name="idieresis" horiz-adv-x="989" unicode="ï"/><glyph d="M799 1413q186 -139 294.5 -376.5t108.5 -524.5q0 -223 -166 -377.5t-403 -154.5q-240 0 -405 154.5t-165 377.5t165 377.5t405 154.5q88 0 178 -26q-61 131 -162 203l-92 -117l-90 70l82 102q-94 41 -244 49l62 236q178 0 338 -86l86 108l90 -67zM633 242 q113 0 191.5 78.5t78.5 191.5t-79 192.5t-191.5 79.5t-192.5 -78.5t-80 -193.5q0 -113 79 -191.5t194 -78.5z" glyph-name="eth" horiz-adv-x="1249" unicode="ð"/><glyph d="M283 1178q-31 133 30.5 222t171.5 89q129 0 209 -119q20 -39 56 -39q37 0 47 39t-11 100h175q31 -131 -29 -220t-176 -89q-123 0 -207 119q-25 39 -55 39q-37 0 -47.5 -40t10.5 -101h-174zM770 1141q197 0 306.5 -107.5t109.5 -304.5v-729h-326v690q0 168 -186 168 q-100 0 -175 -51t-75 -135v-672h-326v1126h293l19 -137q61 70 159.5 111t200.5 41z" glyph-name="ntilde" horiz-adv-x="1267" unicode="ñ"/><glyph d="M227 1536h299l170 -342h-223zM641 -14q-252 0 -417 166.5t-165 412.5t165 413t417 167t417 -167t165 -413t-165 -412.5t-417 -166.5zM641 270q115 0 188.5 85t73.5 210t-73.5 211t-188.5 86q-117 0 -189.5 -85t-72.5 -212t72.5 -211t189.5 -84z" glyph-name="ograve" horiz-adv-x="1275" unicode="ò"/><glyph d="M657 1536h299l-243 -342h-226zM641 -14q-252 0 -417 166.5t-165 412.5t165 413t417 167t417 -167t165 -413t-165 -412.5t-417 -166.5zM641 270q115 0 188.5 85t73.5 210t-73.5 211t-188.5 86q-117 0 -189.5 -85t-72.5 -212t72.5 -211t189.5 -84z" glyph-name="oacute" horiz-adv-x="1275" unicode="ó"/><glyph d="M442 1536h310l219 -350h-228l-145 221l-145 -221h-226zM641 -14q-252 0 -417 166.5t-165 412.5t165 413t417 167t417 -167t165 -413t-165 -412.5t-417 -166.5zM641 270q115 0 188.5 85t73.5 210t-73.5 211t-188.5 86q-117 0 -189.5 -85t-72.5 -212t72.5 -211t189.5 -84z " glyph-name="ocircumflex" horiz-adv-x="1275" unicode="ô"/><glyph d="M731 1161q-123 0 -207 119q-25 39 -55 39q-37 0 -47 -40t10 -101h-174q-31 133 30.5 222t172.5 89q129 0 209 -119q20 -39 55 -39q37 0 47 39t-10 100h174q31 -131 -28.5 -220t-176.5 -89zM641 -14q-252 0 -417 166.5t-165 412.5t165 413t417 167t417 -167t165 -413 t-165 -412.5t-417 -166.5zM641 270q115 0 188.5 85t73.5 210t-73.5 211t-188.5 86q-117 0 -189.5 -85t-72.5 -212t72.5 -211t189.5 -84z" glyph-name="otilde" horiz-adv-x="1275" unicode="õ"/><glyph d="M415.5 1180q-69.5 0 -118.5 49t-49 118.5t49 119t118.5 49.5t119 -49.5t49.5 -119t-49.5 -118.5t-119 -49zM862 1180q-68 0 -118 49t-50 118.5t50.5 119t117.5 49.5q70 0 119 -49.5t49 -119t-49 -118.5t-119 -49zM641 -14q-252 0 -417 166.5t-165 412.5t165 413t417 167 t417 -167t165 -413t-165 -412.5t-417 -166.5zM641 270q115 0 188.5 85t73.5 210t-73.5 211t-188.5 86q-117 0 -189.5 -85t-72.5 -212t72.5 -211t189.5 -84z" glyph-name="odieresis" horiz-adv-x="1275" unicode="ö"/><glyph d="M704.5 762q-61.5 0 -105.5 44t-44 105q0 59 45 104.5t104.5 45.5t104.5 -45t45 -105q0 -61 -44 -105t-105.5 -44zM145 674h1127v-232h-1127v232zM704.5 66q-61.5 0 -105.5 44t-44 105q0 59 45 104.5t104.5 45.5t104.5 -45.5t45 -104.5q0 -61 -44 -105t-105.5 -44z" glyph-name="divide" horiz-adv-x="1406" unicode="÷"/><glyph d="M995 1030q207 -174 207 -461q0 -246 -162.5 -415.5t-408.5 -169.5q-147 0 -271 63l-75 -117h-135l114 181q-205 172 -205 458q0 250 162 418t410 168q141 0 268 -61l76 116h135zM375 569q0 -123 59 -196l303 469q-51 29 -106 28q-115 0 -185.5 -86t-70.5 -215zM631 272 q113 0 184.5 85t71.5 212q0 113 -62 199l-305 -471q48 -25 111 -25z" glyph-name="oslash" horiz-adv-x="1255" unicode="ø"/><glyph d="M500 1194l-246 342h299l170 -342h-223zM1208 1126v-1126h-290l-19 141q-61 -72 -158.5 -111.5t-199.5 -39.5q-186 0 -303 121.5t-117 312.5v702h325v-663q0 -86 50.5 -137.5t138.5 -51.5q98 0 174 53.5t76 135.5v663h323z" glyph-name="ugrave" horiz-adv-x="1306" unicode="ù"/><glyph d="M739 1194h-225l170 342h299zM1208 1126v-1126h-290l-19 141q-61 -72 -158.5 -111.5t-199.5 -39.5q-186 0 -303 121.5t-117 312.5v702h325v-663q0 -86 50.5 -137.5t138.5 -51.5q98 0 174 53.5t76 135.5v663h323z" glyph-name="uacute" horiz-adv-x="1306" unicode="ú"/><glyph d="M479 1186h-225l215 350h309l219 -350h-227l-145 221zM1208 1126v-1126h-290l-19 141q-61 -72 -158.5 -111.5t-199.5 -39.5q-186 0 -303 121.5t-117 312.5v702h325v-663q0 -86 50.5 -137.5t138.5 -51.5q98 0 174 53.5t76 135.5v663h323z" glyph-name="ucircumflex" horiz-adv-x="1306" unicode="û"/><glyph d="M401.5 1180q-69.5 0 -119 49t-49.5 118.5t49.5 119t119 49.5t118.5 -49.5t49 -119t-49 -118.5t-118.5 -49zM848 1180q-68 0 -118 49t-50 118.5t50 119t118 49.5q70 0 119 -49.5t49 -119t-49 -118.5t-119 -49zM1208 1126v-1126h-290l-19 141q-61 -72 -158.5 -111.5 t-199.5 -39.5q-186 0 -303 121.5t-117 312.5v702h325v-663q0 -86 50.5 -137.5t138.5 -51.5q98 0 174 53.5t76 135.5v663h323z" glyph-name="udieresis" horiz-adv-x="1306" unicode="ü"/><glyph d="M739 1194h-225l170 342h299zM1278 1126l-676 -1693h-293l262 651h-67l-430 1042h319l301 -716l277 716h307z" glyph-name="yacute" horiz-adv-x="1329" unicode="ý"/><glyph d="M737 1044q213 0 359.5 -153.5t146.5 -378.5q0 -223 -146.5 -377.5t-359.5 -154.5q-190 0 -315 131v-623h-299v2048h299v-623q125 131 315 131zM692 242q115 0 193 77.5t78 192.5t-79 193.5t-191.5 78.5t-191.5 -79.5t-79 -192.5t78.5 -191.5t191.5 -78.5z" glyph-name="thorn" horiz-adv-x="1304" unicode="þ"/><glyph d="M401.5 1180q-69.5 0 -119 49t-49.5 118.5t49.5 119t119 49.5t118.5 -49.5t49 -119t-49 -118.5t-118.5 -49zM848 1180q-68 0 -118 49t-50 118.5t50 119t118 49.5q70 0 119 -49.5t49 -119t-49 -118.5t-119 -49zM1278 1126l-676 -1693h-293l262 651h-67l-430 1042h319 l301 -716l277 716h307z" glyph-name="ydieresis" horiz-adv-x="1329" unicode="ÿ"/><glyph d="M1112 1708h-635v188h635v-188zM1120 311h-667l-117 -311h-334l616 1536h347l616 -1536h-334zM1032 578l-239 645l-250 -645h489z" glyph-name="Amacron" horiz-adv-x="1585" unicode="Ā"/><glyph d="M819 1196h-635v188h635v-188zM430 -16q-166 0 -266.5 88t-100.5 247q0 150 132.5 243t328.5 112l221 20v19q0 94 -43 135t-129 41q-201 0 -217 -172h-262q12 182 130 300t358 118q215 0 336.5 -104.5t121.5 -319.5v-338q0 -135 90 -135v-238q-10 0 -37.5 -1t-43.5 -1h-28 h-32t-28.5 1t-30.5 3t-28.5 6t-30 9.5t-26 14.5t-26.5 20t-21.5 25.5t-19.5 33.5q-47 -57 -142 -92t-206 -35zM516 217q113 0 229 100v175l-153 -21q-211 -29 -211 -133q0 -55 38 -88t97 -33z" glyph-name="amacron" horiz-adv-x="1181" unicode="ā"/><glyph d="M793 1653q-166 0 -265.5 91t-99.5 261h170q0 -72 54.5 -127t140.5 -55q88 0 143 54t55 128h170q0 -170 -99 -261t-269 -91zM1120 311h-667l-117 -311h-334l616 1536h347l616 -1536h-334zM1032 578l-239 645l-250 -645h489z" glyph-name="Abreve" horiz-adv-x="1585" unicode="Ă"/><glyph d="M518 1141q-166 0 -265 91t-99 261h170q0 -72 54 -127t140 -55q88 0 143.5 54t55.5 128h170q0 -170 -99.5 -261t-269.5 -91zM430 -16q-166 0 -266.5 88t-100.5 247q0 150 132.5 243t328.5 112l221 20v19q0 94 -43 135t-129 41q-201 0 -217 -172h-262q12 182 130 300 t358 118q215 0 336.5 -104.5t121.5 -319.5v-338q0 -135 90 -135v-238q-10 0 -37.5 -1t-43.5 -1h-28h-32t-28.5 1t-30.5 3t-28.5 6t-30 9.5t-26 14.5t-26.5 20t-21.5 25.5t-19.5 33.5q-47 -57 -142 -92t-206 -35zM516 217q113 0 229 100v175l-153 -21q-211 -29 -211 -133 q0 -55 38 -88t97 -33z" glyph-name="abreve" horiz-adv-x="1181" unicode="ă"/><glyph d="M1581 -276l94 -132q-133 -137 -329 -122q-119 8 -193 66t-74 169q0 195 234 295h-66l-127 311h-667l-117 -311h-334l616 1536h347l616 -1536q-158 -6 -230.5 -90t-72.5 -180q0 -51 31.5 -83t87.5 -32q53 0 104 31t80 78zM543 578h489l-239 645z" glyph-name="Aogonek" horiz-adv-x="1679" unicode="Ą"/><glyph d="M1143 -276l94 -132q-133 -137 -330 -122q-119 8 -192.5 66t-73.5 169q0 82 66.5 167t173.5 142q-66 23 -103 97q-47 -57 -142 -92t-206 -35q-166 0 -266.5 88t-100.5 247q0 150 132.5 243t328.5 112l221 20v19q0 94 -43 135t-129 41q-201 0 -217 -172h-262 q12 182 130 300t358 118q215 0 336.5 -104.5t121.5 -319.5v-338q0 -135 90 -135v-238q-141 -25 -215.5 -101.5t-74.5 -168.5q0 -51 31.5 -83t86.5 -32q53 0 104.5 31t80.5 78zM745 317v175l-153 -21q-211 -29 -211 -133q0 -55 38 -88t97 -33q112 0 229 100z" glyph-name="aogonek" horiz-adv-x="1144" unicode="ą"/><glyph d="M887 2048h299l-244 -342h-225zM827 -20q-328 0 -538.5 228t-210.5 560q0 334 210 561t539 227q295 0 490.5 -173t212.5 -451h-291q-16 129 -119.5 229.5t-292.5 100.5q-211 0 -333.5 -140.5t-122.5 -353.5q0 -215 122.5 -355.5t333.5 -140.5q180 0 288 100.5t124 221.5 h291q-20 -246 -225.5 -430t-477.5 -184z" glyph-name="Cacute" horiz-adv-x="1669" unicode="Ć"/><glyph d="M606 1536h299l-243 -342h-226zM584 -10q-246 0 -395.5 159.5t-149.5 415.5t148.5 414t396.5 158q125 0 223 -32t157.5 -79t100.5 -112.5t57.5 -122t22.5 -115.5h-285q-10 80 -79.5 138t-168.5 58q-123 0 -187.5 -83.5t-64.5 -223.5q0 -137 64.5 -222t187.5 -85 q96 0 166 62.5t82 140.5h285q-6 -63 -22.5 -121.5t-57.5 -124t-100.5 -114t-157.5 -80t-223 -31.5z" glyph-name="cacute" horiz-adv-x="1179" unicode="ć"/><glyph d="M827.5 1692q-69.5 0 -119 49t-49.5 118.5t49.5 119t119 49.5t118.5 -49.5t49 -119t-49 -118.5t-118.5 -49zM827 -20q-328 0 -538.5 228t-210.5 560q0 334 210 561t539 227q295 0 490.5 -173t212.5 -451h-291q-16 129 -119.5 229.5t-292.5 100.5q-211 0 -333.5 -140.5 t-122.5 -353.5q0 -215 122.5 -355.5t333.5 -140.5q180 0 288 100.5t124 221.5h291q-20 -246 -225.5 -430t-477.5 -184z" glyph-name="Cdotaccent" horiz-adv-x="1669" unicode="Ċ"/><glyph d="M606.5 1180q-69.5 0 -119 49t-49.5 118.5t49.5 119t119 49.5t118.5 -49.5t49 -119t-49 -118.5t-118.5 -49zM584 -10q-246 0 -395.5 159.5t-149.5 415.5t148.5 414t396.5 158q125 0 223 -32t157.5 -79t100.5 -112.5t57.5 -122t22.5 -115.5h-285q-10 80 -79.5 138 t-168.5 58q-123 0 -187.5 -83.5t-64.5 -223.5q0 -137 64.5 -222t187.5 -85q96 0 166 62.5t82 140.5h285q-6 -63 -22.5 -121.5t-57.5 -124t-100.5 -114t-157.5 -80t-223 -31.5z" glyph-name="cdotaccent" horiz-adv-x="1179" unicode="ċ"/><glyph d="M457 2048h217l153 -221l156 221h217l-219 -350h-309zM827 -20q-328 0 -538.5 228t-210.5 560q0 334 210 561t539 227q295 0 490.5 -173t212.5 -451h-291q-16 129 -119.5 229.5t-292.5 100.5q-211 0 -333.5 -140.5t-122.5 -353.5q0 -215 122.5 -355.5t333.5 -140.5 q180 0 288 100.5t124 221.5h291q-20 -246 -225.5 -430t-477.5 -184z" glyph-name="Ccaron" horiz-adv-x="1669" unicode="Č"/><glyph d="M215 1536h217l154 -221l155 221h217l-219 -350h-309zM584 -10q-246 0 -395.5 159.5t-149.5 415.5t148.5 414t396.5 158q125 0 223 -32t157.5 -79t100.5 -112.5t57.5 -122t22.5 -115.5h-285q-10 80 -79.5 138t-168.5 58q-123 0 -187.5 -83.5t-64.5 -223.5 q0 -137 64.5 -222t187.5 -85q96 0 166 62.5t82 140.5h285q-6 -63 -22.5 -121.5t-57.5 -124t-100.5 -114t-157.5 -80t-223 -31.5z" glyph-name="ccaron" horiz-adv-x="1179" unicode="č"/><glyph d="M242 2048h217l153 -221l156 221h217l-219 -350h-309zM123 1536h532q332 0 550 -203t218 -565q0 -365 -217 -566.5t-551 -201.5h-532v1536zM653 270q209 0 336 122t127 376q0 260 -126 380t-337 120h-223v-998h223z" glyph-name="Dcaron" horiz-adv-x="1499" unicode="Ď"/><glyph d="M1397 1219q-51 18 -81 61t-30 96q0 70 48 118t118 48q68 0 115 -48t47 -118q0 -117 -148 -301h-170zM1200 1534v-1532l-280 -2l-25 111q-119 -121 -320 -121q-227 0 -372.5 159.5t-145.5 405.5q0 248 146.5 415t371.5 167q178 0 304 -121v518h321zM639 260q80 0 144.5 48 t95.5 128v238q-31 80 -95.5 129t-144.5 49q-117 0 -188.5 -85t-71.5 -212q0 -125 71.5 -210t188.5 -85z" glyph-name="dcaron" horiz-adv-x="1689" unicode="ď"/><glyph d="M805 1536q332 0 550 -203t218 -565q0 -365 -217 -566.5t-551 -201.5h-533v684h-149v168h149v684h533zM803 270q209 0 336 122t127 376q0 260 -126 380t-337 120h-223v-416h198v-168h-198v-414h223z" glyph-name="Dcroat" horiz-adv-x="1648" unicode="Đ"/><glyph d="M1251 1176h-145v-1176l-264 -2l-17 106q-119 -125 -293 -124q-209 0 -342 152.5t-133 379.5t133.5 379.5t341.5 152.5q164 0 279 -110v242h-254v167h254v193h295v-193h145v-167zM592 242q74 0 132 44t87 117v218q-29 74 -88 118.5t-131 44.5q-106 0 -173 -77.5 t-67 -194.5t67 -193.5t173 -76.5z" glyph-name="dcroat" horiz-adv-x="1327" unicode="đ"/><glyph d="M897 1708h-635v188h635v-188zM432 1268v-365h617v-270h-617v-363h703v-270h-1012v1536h1012v-268h-703z" glyph-name="Emacron" horiz-adv-x="1249" unicode="Ē"/><glyph d="M901 1198h-635v188h635v-188zM1120 565q0 -45 -6 -96h-758q14 -111 81 -173.5t167 -62.5q176 0 244 132h258q-29 -164 -161 -269.5t-349 -105.5q-246 0 -399.5 160.5t-153.5 412.5q0 254 146.5 414t408.5 160q242 0 382 -154t140 -418zM594 891q-188 0 -232 -203h449 q-33 203 -217 203z" glyph-name="emacron" horiz-adv-x="1187" unicode="ē"/><glyph d="M579.5 1692q-69.5 0 -118.5 49t-49 118.5t49 119t118.5 49.5t119 -49.5t49.5 -119t-49.5 -118.5t-119 -49zM432 1268v-365h617v-270h-617v-363h703v-270h-1012v1536h1012v-268h-703z" glyph-name="Edotaccent" horiz-adv-x="1249" unicode="Ė"/><glyph d="M583.5 1182q-69.5 0 -118.5 49t-49 118.5t49 119t118.5 49.5t119 -49.5t49.5 -119t-49.5 -118.5t-119 -49zM1120 565q0 -45 -6 -96h-758q14 -111 81 -173.5t167 -62.5q176 0 244 132h258q-29 -164 -161 -269.5t-349 -105.5q-246 0 -399.5 160.5t-153.5 412.5 q0 254 146.5 414t408.5 160q242 0 382 -154t140 -418zM594 891q-188 0 -232 -203h449q-33 203 -217 203z" glyph-name="edotaccent" horiz-adv-x="1187" unicode="ė"/><glyph d="M1135 1268h-703v-365h617v-270h-617v-363h703v-270h-101q-137 0 -220 -87t-83 -183q0 -51 32 -83t87 -32q53 0 104.5 30.5t79.5 78.5l94 -132q-133 -137 -329 -122q-119 8 -193 66t-74 169q0 195 234 295h-643v1536h1012v-268z" glyph-name="Eogonek" horiz-adv-x="1249" unicode="Ę"/><glyph d="M1120 565q0 -45 -6 -96h-758q14 -111 81 -173.5t167 -62.5q176 0 244 132h258q-29 -150 -140.5 -252.5t-297.5 -118.5l-6 -10q-51 -70 -52 -146q0 -51 32 -82.5t87 -31.5q53 0 104.5 30.5t79.5 77.5l95 -131q-133 -137 -330 -123q-119 8 -192.5 66.5t-73.5 169.5 q0 96 61 174q0 10 2 14q-199 39 -315.5 191.5t-116.5 369.5q0 254 146.5 414t408.5 160q242 0 382 -154t140 -418zM362 688h449q-33 203 -217 203q-189 0 -232 -203z" glyph-name="eogonek" horiz-adv-x="1140" unicode="ę"/><glyph d="M422 1698l-215 350h217l154 -221l155 221h217l-219 -350h-309zM432 1268v-365h617v-270h-617v-363h703v-270h-1012v1536h1012v-268h-703z" glyph-name="Ecaron" horiz-adv-x="1249" unicode="Ě"/><glyph d="M426 1188l-215 350h217l154 -221l155 221h217l-219 -350h-309zM1120 565q0 -45 -6 -96h-758q14 -111 81 -173.5t167 -62.5q176 0 244 132h258q-29 -164 -161 -269.5t-349 -105.5q-246 0 -399.5 160.5t-153.5 412.5q0 254 146.5 414t408.5 160q242 0 382 -154t140 -418z M594 891q-188 0 -232 -203h449q-33 203 -217 203z" glyph-name="ecaron" horiz-adv-x="1187" unicode="ě"/><glyph d="M848 1653q-166 0 -265.5 91t-99.5 261h170q0 -72 54.5 -127t140.5 -55q88 0 143.5 54t55.5 128h170q0 -170 -99.5 -261t-269.5 -91zM1499 821v-311v-510h-207l-37 186q-154 -197 -467 -196q-330 0 -529.5 210t-199.5 560t198 565t517 215q182 0 327.5 -56.5t245 -181 t119.5 -305.5h-297q-20 119 -120.5 192t-243.5 73q-223 0 -341 -131.5t-118 -370.5q0 -223 129 -357.5t311 -134.5q166 0 282 79t116 216h-367v258h682z" glyph-name="Gbreve" horiz-adv-x="1599" unicode="Ğ"/><glyph d="M1171 1022q-45 20 -97 5t-75 -66q94 -121 95 -226q0 -184 -141.5 -302t-348.5 -126q-125 -6 -211 37q-31 -10 -46 -29.5t-7 -38.5q18 -51 149 -51l222 -4q186 -4 300.5 -82t127.5 -211q18 -213 -132.5 -322.5t-412.5 -117.5q-227 -8 -359.5 69.5t-160.5 200.5 q-18 76 12.5 172.5t112.5 143.5q-47 12 -80 63t-33 109q0 131 154 207q-51 47 -90 129t-39 174q0 154 127 267.5t325 121.5q-139 16 -220 105t-81 243h170q0 -72 54.5 -127t140.5 -55q88 0 143 54t55 128h170q0 -166 -93 -256t-253 -96q172 -20 244 -80q23 82 118 126 t160 21v-186zM590 573q90 0 146.5 44.5t56.5 121.5q0 74 -56.5 115t-146.5 41q-88 0 -142.5 -42t-54.5 -118t55.5 -119t141.5 -43zM420 -16q-35 -10 -57.5 -45t-22.5 -72q0 -133 231 -133q121 0 200 35.5t79 97.5q0 117 -279 117h-151z" glyph-name="gbreve" horiz-adv-x="1218" unicode="ğ"/><glyph d="M891 1692q-70 0 -119 49t-49 118.5t49 119t119 49.5t119 -49.5t49 -119t-49 -118.5t-119 -49zM1499 821v-311v-510h-207l-37 186q-154 -197 -467 -196q-330 0 -529.5 210t-199.5 560t198 565t517 215q182 0 327.5 -56.5t245 -181t119.5 -305.5h-297q-20 119 -120.5 192 t-243.5 73q-223 0 -341 -131.5t-118 -370.5q0 -223 129 -357.5t311 -134.5q166 0 282 79t116 216h-367v258h682z" glyph-name="Gdotaccent" horiz-adv-x="1599" unicode="Ġ"/><glyph d="M587.5 1180q-69.5 0 -118.5 49t-49 118.5t49 119t118.5 49.5t119 -49.5t49.5 -119t-49.5 -118.5t-119 -49zM594 -512q-227 -8 -359.5 69.5t-160.5 200.5q-18 76 12.5 172.5t112.5 143.5q-47 12 -80 63t-33 109q0 131 154 207q-51 47 -90 129t-39 174q0 158 135 273.5 t344 115.5q74 0 167 -23.5t136 -60.5q23 82 118 126t160 21v-186q-45 20 -97 5t-75 -66q94 -121 95 -226q0 -184 -141.5 -302t-348.5 -126q-125 -6 -211 37q-31 -10 -46 -29.5t-7 -38.5q18 -51 149 -51l222 -4q186 -4 300.5 -82t127.5 -211q18 -213 -132.5 -322.5 t-412.5 -117.5zM793 739q0 74 -56.5 115t-146.5 41q-88 0 -142.5 -42t-54.5 -118t55.5 -119t141.5 -43q90 0 146.5 44t56.5 122zM850 -133q0 117 -279 117h-151q-35 -10 -57.5 -45t-22.5 -72q0 -133 231 -133q121 0 200 36t79 97z" glyph-name="gdotaccent" horiz-adv-x="1218" unicode="ġ"/><glyph d="M1499 821v-311v-510h-207l-37 186q-154 -197 -467 -196q-330 0 -529.5 210t-199.5 560t198 565t517 215q182 0 327.5 -56.5t245 -181t119.5 -305.5h-297q-20 119 -120.5 192t-243.5 73q-223 0 -341 -131.5t-118 -370.5q0 -223 129 -357.5t311 -134.5q166 0 282 79 t116 216h-367v258h682zM809 -426q-51 18 -81 61t-30 97q0 70 48.5 118t117.5 48q68 0 115 -48.5t47 -117.5q0 -117 -147 -301h-170z" glyph-name="Gcommaaccent" horiz-adv-x="1599" unicode="Ģ"/><glyph d="M657 1477q51 -18 81 -61.5t30 -96.5q0 -70 -48 -118t-118 -48q-68 0 -115 48t-47 118q0 117 148 301h170zM594 -512q-227 -8 -359.5 69.5t-160.5 200.5q-18 76 12.5 172.5t112.5 143.5q-47 12 -80 63t-33 109q0 131 154 207q-51 47 -90 129t-39 174q0 158 135 273.5 t344 115.5q74 0 167 -23.5t136 -60.5q23 82 118 126t160 21v-186q-45 20 -97 5t-75 -66q94 -121 95 -226q0 -184 -141.5 -302t-348.5 -126q-125 -6 -211 37q-31 -10 -46 -29.5t-7 -38.5q18 -51 149 -51l222 -4q186 -4 300.5 -82t127.5 -211q18 -213 -132.5 -322.5 t-412.5 -117.5zM793 739q0 74 -56.5 115t-146.5 41q-88 0 -142.5 -42t-54.5 -118t55.5 -119t141.5 -43q90 0 146.5 44t56.5 122zM850 -133q0 117 -279 117h-151q-35 -10 -57.5 -45t-22.5 -72q0 -133 231 -133q121 0 200 36t79 97z" glyph-name="gcommaaccent" horiz-adv-x="1218" unicode="ģ"/><glyph d="M1642 1151h-120v-1151h-310v633h-659v-633h-309v1151h-121v115h121v270h309v-270h659v270h310v-270h120v-115zM1212 1151h-659v-246h659v246z" glyph-name="Hbar" horiz-adv-x="1765" unicode="Ħ"/><glyph d="M907 1135q197 0 306.5 -106.5t109.5 -303.5v-725h-326v684q0 168 -186 168q-100 0 -175 -51t-75 -135v-666h-325v1188h-117v168h117v180h325v-180h252v-168h-252v-189q63 63 156.5 99.5t189.5 36.5z" glyph-name="hbar" horiz-adv-x="1384" unicode="ħ"/><glyph d="M410 1673q-123 0 -207 119q-25 39 -56 39q-37 0 -47 -40t11 -101h-177q-29 133 33 222t172 89q129 0 209 -119q20 -39 55 -39q37 0 47.5 39t-10.5 100h174q31 -131 -28 -220t-176 -89zM123 1536h309v-1536h-309v1536z" glyph-name="Itilde" horiz-adv-x="555" unicode="Ĩ"/><glyph d="M406 1161q-123 0 -207 119q-25 39 -56 39q-37 0 -47 -40t10 -101h-176q-29 133 33 222t172 89q129 0 209 -119q20 -39 55 -39q37 0 47.5 39t-10.5 100h174q31 -131 -28 -220t-176 -89zM123 1024h299v-1024h-299v1024z" glyph-name="itilde" horiz-adv-x="544" unicode="ĩ"/><glyph d="M-43 1896h637v-188h-637v188zM123 1536h309v-1536h-309v1536z" glyph-name="Imacron" horiz-adv-x="555" unicode="Ī"/><glyph d="M-47 1384h637v-188h-637v188zM123 1024h299v-1024h-299v1024z" glyph-name="imacron" horiz-adv-x="544" unicode="ī"/><glyph d="M492 -408q-133 -137 -330 -122q-119 8 -193.5 66t-74.5 169q0 195 235 295h-6v1536h309v-1536h-35q-137 0 -220 -87t-83 -183q0 -51 32 -83t87 -32q53 0 104.5 30.5t79.5 78.5z" glyph-name="Iogonek" horiz-adv-x="555" unicode="Į"/><glyph d="M272.5 1180q-69.5 0 -119 49t-49.5 118.5t49.5 119t119 49.5t118.5 -49.5t49 -119t-49 -118.5t-118.5 -49zM487 -408q-133 -137 -329 -122q-119 8 -194 66t-75 169q0 195 236 295h-2v1024h299v-1024h-29q-137 0 -220 -87t-83 -183q0 -51 32 -83t87 -32q53 0 104.5 30.5 t79.5 78.5z" glyph-name="iogonek" horiz-adv-x="544" unicode="į"/><glyph d="M276.5 1692q-69.5 0 -118.5 49t-49 118.5t49 119t118.5 49.5t118.5 -49.5t49 -119t-49 -118.5t-118.5 -49zM123 1536h309v-1536h-309v1536z" glyph-name="Idotaccent" horiz-adv-x="555" unicode="İ"/><glyph d="M123 1024h299v-1024h-299v1024z" glyph-name="dotlessi" horiz-adv-x="544" unicode="ı"/><glyph d="M143 1536h310v-1536h-310v1536zM934 -20q-106 0 -164 20v313q68 -25 143 -24q45 0 78 32.5t33 77.5v1137h307v-1167q0 -174 -111.5 -281.5t-285.5 -107.5z" glyph-name="IJ" horiz-adv-x="1585" unicode="Ĳ"/><glyph d="M315 1200q-68 0 -118 49t-50 119t50.5 119t117.5 49q70 0 120 -49t50 -119t-50 -119t-120 -49zM981 1200q-70 0 -120 49t-50 119t50 119t120 49q68 0 118 -49t50 -119t-50 -119t-118 -49zM614 -512v260h50q86 0 126.5 32t40.5 118v1228h299v-1249q0 -98 -31.5 -172 t-79.5 -114t-114.5 -64.5t-122 -31.5t-118.5 -7h-50zM166 1024h299v-1024h-299v1024z" glyph-name="ij" horiz-adv-x="1298" unicode="ĳ"/><glyph d="M1034 0l-602 686v-686h-309v1536h309v-682l518 682h355l-555 -752l688 -784h-404zM657 -371q-51 18 -80.5 61.5t-29.5 96.5q0 70 48 118t118 48q68 0 114.5 -48t46.5 -118q0 -117 -147 -301h-170z" glyph-name="Kcommaaccent" horiz-adv-x="1437" unicode="Ķ"/><glyph d="M104 0v1536h326v-807l311 397h326l-418 -512l461 -614h-334l-346 471v-471h-326zM561 -369q-51 18 -80.5 61.5t-29.5 96.5q0 70 48 118t117 48q68 0 115 -48t47 -118q0 -117 -147 -301h-170z" glyph-name="kcommaaccent" horiz-adv-x="1159" unicode="ķ"/><glyph d="M338 2048h299l-244 -342h-225zM123 1536h309v-1266h518v-270h-827v1536z" glyph-name="Lacute" horiz-adv-x="1015" unicode="Ĺ"/><glyph d="M317 2048h299l-243 -342h-226zM133 0v1536h299v-1536h-299z" glyph-name="lacute" horiz-adv-x="743" unicode="ĺ"/><glyph d="M123 1536h309v-1266h518v-270h-827v1536zM483 -422q-51 18 -80.5 61.5t-29.5 96.5q0 70 48 118t118 48q68 0 114.5 -48.5t46.5 -117.5q0 -117 -147 -301h-170z" glyph-name="Lcommaaccent" horiz-adv-x="1015" unicode="Ļ"/><glyph d="M133 0v1536h299v-1536h-299zM223 -393q-51 18 -80.5 61t-29.5 96q0 70 48 118t118 48q68 0 114.5 -48t46.5 -118q0 -117 -147 -301h-170z" glyph-name="lcommaaccent" horiz-adv-x="743" unicode="ļ"/><glyph d="M811 1214q-51 18 -81 61.5t-30 96.5q0 70 48.5 118t117.5 48q68 0 115 -48t47 -118q0 -117 -147 -301h-170zM123 1536h309v-1266h518v-270h-827v1536z" glyph-name="Lcaron" horiz-adv-x="1040" unicode="Ľ"/><glyph d="M709 1229q-51 18 -81 61t-30 96q0 70 48 118t118 48q68 0 115 -48t47 -118q0 -117 -148 -301h-170zM133 0v1536h299v-1536h-299z" glyph-name="lcaron" horiz-adv-x="966" unicode="ľ"/><glyph d="M133 0v1536h299v-1536h-299zM643 614q-49 0 -86 36t-37 87t37 88t86 37t87 -37t38 -88t-38 -87t-87 -36z" glyph-name="ldot" horiz-adv-x="784" unicode="ŀ"/><glyph d="M950 270v-270h-827v516l-78 -80h-178l256 269v831h309v-508l68 72h184l-252 -262v-568h518z" glyph-name="Lslash" horiz-adv-x="1015" unicode="Ł"/><glyph d="M504 1112h184l-256 -266v-846h-299v537l-84 -88h-178l262 274v813h299v-500z" glyph-name="lslash" horiz-adv-x="743" unicode="ł"/><glyph d="M948 1706h-225l170 342h299zM1532 1536v-1536h-315l-785 1069v-1069h-309v1536h315l787 -1067v1067h307z" glyph-name="Nacute" horiz-adv-x="1654" unicode="Ń"/><glyph d="M737 1194h-225l170 342h299zM770 1141q197 0 306.5 -107.5t109.5 -304.5v-729h-326v690q0 168 -186 168q-100 0 -175 -51t-75 -135v-672h-326v1126h293l19 -137q61 70 159.5 111t200.5 41z" glyph-name="nacute" horiz-adv-x="1239" unicode="ń"/><glyph d="M1532 1536v-1536h-315l-785 1069v-1069h-309v1536h315l787 -1067v1067h307zM801 -362q-51 18 -81 61t-30 96q0 70 48 118t118 48q68 0 115 -48t47 -118q0 -117 -148 -301h-170z" glyph-name="Ncommaaccent" horiz-adv-x="1654" unicode="Ņ"/><glyph d="M770 1141q197 0 306.5 -107.5t109.5 -304.5v-729h-326v690q0 168 -186 168q-100 0 -175 -51t-75 -135v-672h-326v1126h293l19 -137q61 70 159.5 111t200.5 41zM553 -410q-51 18 -81 61.5t-30 96.5q0 70 48.5 118t117.5 48q68 0 115 -48t47 -118q0 -117 -147 -301h-170z " glyph-name="ncommaaccent" horiz-adv-x="1239" unicode="ņ"/><glyph d="M676 1698l-215 350h217l153 -221l156 221h217l-219 -350h-309zM1532 1536v-1536h-315l-785 1069v-1069h-309v1536h315l787 -1067v1067h307z" glyph-name="Ncaron" horiz-adv-x="1654" unicode="Ň"/><glyph d="M467 1186l-215 350h217l154 -221l155 221h217l-219 -350h-309zM770 1141q197 0 306.5 -107.5t109.5 -304.5v-729h-326v690q0 168 -186 168q-100 0 -175 -51t-75 -135v-672h-326v1126h293l19 -137q61 70 159.5 111t200.5 41z" glyph-name="ncaron" horiz-adv-x="1239" unicode="ň"/><glyph d="M1548 1536v-1640q0 -193 -127 -282t-338 -89v196q80 0 119 33t39 142v112l-792 1045v-1053h-297v1536h305l794 -1051v1051h297z" glyph-name="Eng" horiz-adv-x="1699" unicode="Ŋ"/><glyph d="M1186 729v-729h-66v-125q0 -193 -128 -282t-339 -89v197q82 0 125 33t43 141v141l39 4v670q0 168 -186 168q-100 0 -175 -51t-75 -135v-672h-326v1126h293l19 -137q61 70 159.5 111t200.5 41q197 0 306.5 -107.5t109.5 -304.5z" glyph-name="eng" horiz-adv-x="1277" unicode="ŋ"/><glyph d="M510 1896h635v-188h-635v188zM827 -20q-330 0 -539.5 227t-209.5 561t210 561t539 227q328 0 539 -228t211 -560t-211 -560t-539 -228zM827 279q209 0 330 138t121 351q0 215 -121 353.5t-330 138.5q-211 0 -332.5 -138.5t-121.5 -353.5q0 -213 122.5 -351t331.5 -138z " glyph-name="Omacron" horiz-adv-x="1652" unicode="Ō"/><glyph d="M281 1384h634v-188h-634v188zM598 -20q-231 0 -383 153.5t-152 378.5t152 378.5t383 153.5q229 0 382 -153.5t153 -378.5t-153 -378.5t-382 -153.5zM598 242q104 0 172 77.5t68 192.5t-68 193.5t-172 78.5q-106 0 -173 -77.5t-67 -194.5t67 -193.5t173 -76.5z" glyph-name="omacron" horiz-adv-x="1193" unicode="ō"/><glyph d="M797 2048h278l-358 -365h-207zM1221 2048h280l-358 -365h-207zM827 -20q-330 0 -539.5 227t-209.5 561t210 561t539 227q328 0 539 -228t211 -560t-211 -560t-539 -228zM827 279q209 0 330 138t121 351q0 215 -121 353.5t-330 138.5q-211 0 -332.5 -138.5t-121.5 -353.5 q0 -213 122.5 -351t331.5 -138z" glyph-name="Ohungarumlaut" horiz-adv-x="1652" unicode="Ő"/><glyph d="M567 1536h279l-359 -365h-206zM991 1536h281l-359 -365h-206zM598 -20q-231 0 -383 153.5t-152 378.5t152 378.5t383 153.5q229 0 382 -153.5t153 -378.5t-153 -378.5t-382 -153.5zM598 242q104 0 172 77.5t68 192.5t-68 193.5t-172 78.5q-106 0 -173 -77.5t-67 -194.5 t67 -193.5t173 -76.5z" glyph-name="ohungarumlaut" horiz-adv-x="1193" unicode="ő"/><glyph d="M2445 1268h-702v-365h616v-270h-616v-363h702v-270h-1011v172q-223 -190 -514 -190q-328 0 -558.5 230t-230.5 558t230.5 558.5t558.5 230.5q291 0 514 -191v168h1011v-268zM919.5 279q206.5 0 349 143t142.5 348t-142.5 348.5t-349 143.5t-349 -143.5t-142.5 -348.5 t142.5 -348t349 -143z" glyph-name="OE" horiz-adv-x="2656" unicode="Œ"/><glyph d="M1894 565q0 -45 -6 -96h-758q14 -111 81 -173.5t167 -62.5q176 0 244 132h258q-29 -164 -161 -269.5t-349 -105.5q-231 0 -379 141q-164 -152 -391 -151q-248 0 -410.5 168.5t-162.5 416.5q0 250 162.5 418t410.5 168q227 0 389 -150q145 135 383 136q242 0 382 -154 t140 -418zM1137 688h448q-33 203 -217 203q-188 0 -231 -203zM600 268q78 0 138.5 44t90.5 118q-12 61 -12 133t12 139q-31 74 -91 118t-138 44q-115 0 -186.5 -86t-71.5 -213t71.5 -212t186.5 -85z" glyph-name="oe" horiz-adv-x="1894" unicode="œ"/><glyph d="M768 1706h-225l170 342h299zM1348 0h-347l-356 569h-213v-569h-309v1536h696q186 0 320.5 -151.5t134.5 -348.5q0 -154 -91 -282.5t-229 -163.5zM807 809q80 0 133 63.5t53 165.5q0 98 -53 164t-133 66h-375v-459h375z" glyph-name="Racute" horiz-adv-x="1255" unicode="Ŕ"/><glyph d="M580 1194h-226l170 342h299zM836 1139v-285q-215 0 -317.5 -81t-102.5 -286v-487h-326v1126h305l19 -153q31 66 139.5 116t282.5 50z" glyph-name="racute" horiz-adv-x="907" unicode="ŕ"/><glyph d="M1348 0h-347l-356 569h-213v-569h-309v1536h696q186 0 320.5 -151.5t134.5 -348.5q0 -154 -91 -282.5t-229 -163.5zM807 809q80 0 133 63.5t53 165.5q0 98 -53 164t-133 66h-375v-459h375zM616 -371q-51 18 -80.5 61.5t-29.5 96.5q0 70 48 118t118 48q68 0 115 -48 t47 -118q0 -117 -148 -301h-170z" glyph-name="Rcommaaccent" horiz-adv-x="1255" unicode="Ŗ"/><glyph d="M836 1139v-285q-215 0 -317.5 -81t-102.5 -286v-487h-326v1126h305l19 -153q31 66 139.5 116t282.5 50zM203 -399q-51 18 -81 61t-30 96q0 70 48 118t118 48q68 0 115 -48t47 -118q0 -117 -148 -301h-170z" glyph-name="rcommaaccent" horiz-adv-x="907" unicode="ŗ"/><glyph d="M498 1698l-215 350h217l153 -221l156 221h217l-219 -350h-309zM1348 0h-347l-356 569h-213v-569h-309v1536h696q186 0 320.5 -151.5t134.5 -348.5q0 -154 -91 -282.5t-229 -163.5zM807 809q80 0 133 63.5t53 165.5q0 98 -53 164t-133 66h-375v-459h375z" glyph-name="Rcaron" horiz-adv-x="1255" unicode="Ř"/><glyph d="M309 1186l-215 350h217l154 -221l156 221h217l-220 -350h-309zM836 1139v-285q-215 0 -317.5 -81t-102.5 -286v-487h-326v1126h305l19 -153q31 66 139.5 116t282.5 50z" glyph-name="rcaron" horiz-adv-x="907" unicode="ř"/><glyph d="M748 2048h299l-244 -342h-225zM680 -20q-250 0 -402.5 140t-175.5 376l269 -2q55 -227 319 -228q111 0 177.5 41t68.5 125q0 41 -21.5 78t-47 60.5t-83 53t-91.5 43t-107 42.5q-80 31 -127 52t-112.5 60t-101.5 79t-62.5 100.5t-26.5 132.5q0 188 155.5 305.5 t382.5 117.5q479 0 570 -499h-287q-10 98 -80 169.5t-195 71.5q-96 0 -162.5 -42t-66.5 -111q0 -37 20.5 -67.5t68.5 -59.5t86 -45.5t114 -47t114.5 -47t107.5 -51t106.5 -68.5t79.5 -82t60.5 -108.5t18.5 -132.5q0 -223 -159.5 -339.5t-409.5 -116.5z" glyph-name="Sacute" horiz-adv-x="1325" unicode="Ś"/><glyph d="M567 1536h299l-243 -342h-226zM573 -14q-225 0 -358 114.5t-149 266.5h274q18 -74 82.5 -114t140.5 -36q135 8 135 109q0 27 -16 47t-55 37.5t-68 26.5t-92 28q-84 23 -135 42t-114.5 56t-95.5 92.5t-32 130.5q0 162 128 260.5t339 98.5q164 0 299 -92t152 -267h-277 q-31 111 -166 119q-66 4 -104.5 -17.5t-38.5 -64.5q0 -16 6 -29.5t20.5 -24.5t27.5 -18.5t40 -17.5t44.5 -15t52 -15.5t53.5 -16.5q78 -25 129 -47.5t108.5 -61t87 -98t29.5 -137.5q0 -166 -121 -261t-326 -95z" glyph-name="sacute" horiz-adv-x="1019" unicode="ś"/><glyph d="M762 925.5q76 -30.5 114.5 -47t107.5 -51t106.5 -68.5t79.5 -82t60.5 -108.5t18.5 -132.5q0 -211 -144 -326.5t-374 -127.5l-59 -105q100 18 170.5 -36t70.5 -150q0 -94 -64.5 -158.5t-158.5 -64.5q-76 0 -146.5 44t-92.5 107l129 45q16 -27 47.5 -45t62.5 -18 q37 0 61.5 26.5t24.5 63.5q0 57 -48 74.5t-120 -15.5l-106 62l94 172h4q-215 23 -345 160t-153 352l269 -2q55 -227 319 -228q111 0 177.5 41t68.5 125q0 41 -21.5 78t-47 60.5t-83 53t-91.5 43t-107 42.5q-80 31 -127 52t-112.5 60t-101.5 79t-62.5 100.5t-26.5 132.5 q0 188 155.5 305.5t382.5 117.5q479 0 570 -499h-287q-10 98 -80 169.5t-195 71.5q-96 0 -162.5 -42t-66.5 -111q0 -37 20.5 -67.5t68.5 -59.5t86 -45.5t114 -47z" glyph-name="Scedilla" horiz-adv-x="1325" unicode="Ş"/><glyph d="M573 -14q-225 0 -358 114.5t-149 266.5h274q18 -74 82.5 -114t140.5 -36q135 8 135 109q0 27 -16 47t-55 37.5t-68 26.5t-92 28q-84 23 -135 42t-114.5 56t-95.5 92.5t-32 130.5q0 162 128 260.5t339 98.5q164 0 299 -92t152 -267h-277q-31 111 -166 119 q-66 4 -104.5 -17.5t-38.5 -64.5q0 -16 6 -29.5t20.5 -24.5t27.5 -18.5t40 -17.5t44.5 -15t52 -15.5t53.5 -16.5q78 -25 129 -47.5t108.5 -61t87 -98t29.5 -137.5q0 -166 -121 -261t-326 -95zM596 -18l-59 -105q100 18 170.5 -36t70.5 -150q0 -94 -64.5 -158.5t-158.5 -64.5 q-76 0 -146.5 44t-93.5 107l129 45q16 -27 48 -45t63 -18q37 0 61.5 26.5t24.5 63.5q0 57 -48 74.5t-120 -15.5l-106 62l92 172z" glyph-name="scedilla" horiz-adv-x="1019" unicode="ş"/><glyph d="M315 2048h217l154 -221l156 221h217l-219 -350h-310zM680 -20q-250 0 -402.5 140t-175.5 376l269 -2q55 -227 319 -228q111 0 177.5 41t68.5 125q0 41 -21.5 78t-47 60.5t-83 53t-91.5 43t-107 42.5q-80 31 -127 52t-112.5 60t-101.5 79t-62.5 100.5t-26.5 132.5 q0 188 155.5 305.5t382.5 117.5q479 0 570 -499h-287q-10 98 -80 169.5t-195 71.5q-96 0 -162.5 -42t-66.5 -111q0 -37 20.5 -67.5t68.5 -59.5t86 -45.5t114 -47t114.5 -47t107.5 -51t106.5 -68.5t79.5 -82t60.5 -108.5t18.5 -132.5q0 -223 -159.5 -339.5t-409.5 -116.5z " glyph-name="Scaron" horiz-adv-x="1325" unicode="Š"/><glyph d="M137 1536h217l154 -221l156 221h217l-219 -350h-310zM573 -14q-225 0 -358 114.5t-149 266.5h274q18 -74 82.5 -114t140.5 -36q135 8 135 109q0 27 -16 47t-55 37.5t-68 26.5t-92 28q-84 23 -135 42t-114.5 56t-95.5 92.5t-32 130.5q0 162 128 260.5t339 98.5 q164 0 299 -92t152 -267h-277q-31 111 -166 119q-66 4 -104.5 -17.5t-38.5 -64.5q0 -16 6 -29.5t20.5 -24.5t27.5 -18.5t40 -17.5t44.5 -15t52 -15.5t53.5 -16.5q78 -25 129 -47.5t108.5 -61t87 -98t29.5 -137.5q0 -166 -121 -261t-326 -95z" glyph-name="scaron" horiz-adv-x="1019" unicode="š"/><glyph d="M788 0h-83l-70 -123q100 18 171 -36t71 -150q0 -94 -64.5 -158.5t-159.5 -64.5q-76 0 -146.5 44t-92.5 107l129 45q16 -27 48 -45t62 -18q37 0 61.5 26.5t24.5 63.5q0 57 -48 74.5t-120 -15.5l-106 62l102 188h-84v1268h-436v268h1176v-268h-435v-1268z" glyph-name="Tcommaaccent" horiz-adv-x="1290" unicode="Ţ"/><glyph d="M709 -2q-90 0 -146.5 4t-124 25.5t-105.5 61.5t-64.5 113.5t-26.5 180.5v491h-191v256h191v406h299v-406h305v-256h-305v-471q0 -86 43 -117.5t125 -31.5h141v-256h-141zM508 -123q100 18 171 -36t71 -150q0 -94 -64.5 -158.5t-159.5 -64.5q-76 0 -146.5 44t-92.5 107 l129 45q16 -27 48 -45t62 -18q37 0 61.5 26.5t24.5 63.5q0 57 -48 74.5t-120 -15.5l-106 62l104 194l123 -18z" glyph-name="tcommaaccent" horiz-adv-x="796" unicode="ţ"/><glyph d="M498 1698l-215 350h217l153 -221l156 221h217l-219 -350h-309zM1223 1268h-435v-1268h-305v1268h-436v268h1176v-268z" glyph-name="Tcaron" horiz-adv-x="1263" unicode="Ť"/><glyph d="M733 1282q-51 18 -80.5 61t-29.5 97q0 70 48 118t117 48q68 0 115 -48.5t47 -117.5q0 -117 -147 -301h-170zM709 -2q-90 0 -146.5 4t-124 25.5t-105.5 61.5t-64.5 113.5t-26.5 180.5v491h-191v256h191v406h299v-406h305v-256h-305v-471q0 -86 43 -117.5t125 -31.5h141 v-256h-141z" glyph-name="tcaron" horiz-adv-x="894" unicode="ť"/><glyph d="M1223 1268h-435v-416h193v-168h-193v-684h-305v684h-196v168h196v416h-436v268h1176v-268z" glyph-name="Tbar" horiz-adv-x="1187" unicode="Ŧ"/><glyph d="M709 254h141v-256h-141q-90 0 -146.5 4t-124 25.5t-105.5 61.5t-64.5 113.5t-26.5 180.5v45h-195v168h195v278h-191v256h191v406h299v-406h305v-256h-305v-278h200v-168h-200v-25q0 -86 43 -117.5t125 -31.5z" glyph-name="tbar" horiz-adv-x="796" unicode="ŧ"/><glyph d="M889 1673q-123 0 -207 119q-25 39 -55 39q-37 0 -47.5 -40t10.5 -101h-174q-31 133 30.5 222t171.5 89q129 0 209 -119q20 -39 56 -39q37 0 47 39t-10 100h174q31 -131 -28.5 -220t-176.5 -89zM756 -20q-264 0 -446.5 149.5t-182.5 366.5v1040h309v-985q0 -125 93.5 -213 t226.5 -88t226 88t93 213v985h309v-1040q0 -217 -182 -366.5t-446 -149.5z" glyph-name="Utilde" horiz-adv-x="1511" unicode="Ũ"/><glyph d="M438 1896h635v-188h-635v188zM756 -20q-264 0 -446.5 149.5t-182.5 366.5v1040h309v-985q0 -125 93.5 -213t226.5 -88t226 88t93 213v985h309v-1040q0 -217 -182 -366.5t-446 -149.5z" glyph-name="Umacron" horiz-adv-x="1511" unicode="Ū"/><glyph d="M942 1196h-635v188h635v-188zM1208 1126v-1126h-290l-19 141q-61 -72 -158.5 -111.5t-199.5 -39.5q-186 0 -303 121.5t-117 312.5v702h325v-663q0 -86 50.5 -137.5t138.5 -51.5q98 0 174 53.5t76 135.5v663h323z" glyph-name="umacron" horiz-adv-x="1245" unicode="ū"/><glyph d="M756 1642q-100 0 -171 71t-71 171q0 96 70.5 167t171.5 71q98 0 167.5 -71t69.5 -167q0 -100 -69.5 -171t-167.5 -71zM756 1765q49 0 82.5 33t33.5 86q0 49 -33.5 84t-82.5 35t-82 -35t-33 -84q0 -53 33 -86t82 -33zM756 -20q-264 0 -446.5 149.5t-182.5 366.5v1040h309 v-985q0 -125 93.5 -213t226.5 -88t226 88t93 213v985h309v-1040q0 -217 -182 -366.5t-446 -149.5z" glyph-name="Uring" horiz-adv-x="1511" unicode="Ů"/><glyph d="M625 1130q-100 0 -171 71t-71 171q0 96 70.5 167t171.5 71q98 0 167.5 -71t69.5 -167q0 -100 -69.5 -171t-167.5 -71zM624.5 1491q-49.5 0 -82 -35t-32.5 -84q0 -53 32.5 -86t82 -33t83 33t33.5 86q0 49 -33.5 84t-83 35zM1208 1126v-1126h-290l-19 141 q-61 -72 -158.5 -111.5t-199.5 -39.5q-186 0 -303 121.5t-117 312.5v702h325v-663q0 -86 50.5 -137.5t138.5 -51.5q98 0 174 53.5t76 135.5v663h323z" glyph-name="uring" horiz-adv-x="1245" unicode="ů"/><glyph d="M725 2048h279l-359 -365h-207zM1149 2048h281l-359 -365h-207zM756 -20q-264 0 -446.5 149.5t-182.5 366.5v1040h309v-985q0 -125 93.5 -213t226.5 -88t226 88t93 213v985h309v-1040q0 -217 -182 -366.5t-446 -149.5z" glyph-name="Uhungarumlaut" horiz-adv-x="1511" unicode="Ű"/><glyph d="M514 1171h-207l287 365h278zM733 1171l285 365h280l-358 -365h-207zM1208 1126v-1126h-290l-19 141q-61 -72 -158.5 -111.5t-199.5 -39.5q-186 0 -303 121.5t-117 312.5v702h325v-663q0 -86 50.5 -137.5t138.5 -51.5q98 0 174 53.5t76 135.5v663h323z" glyph-name="uhungarumlaut" horiz-adv-x="1245" unicode="ű"/><glyph d="M1075 1536h309v-1040q0 -205 -163.5 -351.5t-409.5 -162.5q-84 -33 -132 -106t-48 -142q0 -51 31.5 -83t87.5 -32q53 0 104 31t80 78l94 -131q-133 -137 -330 -123q-119 8 -192.5 66.5t-73.5 168.5q0 180 199 281q-219 35 -361.5 176t-142.5 330v1040h309v-985 q0 -125 93.5 -213t226.5 -88t226 88t93 213v985z" glyph-name="Uogonek" horiz-adv-x="1511" unicode="Ų"/><glyph d="M1122 -276l95 -132q-133 -137 -330 -122q-119 8 -192.5 66t-73.5 169q0 197 233 295h64l-19 141q-61 -72 -158.5 -111.5t-199.5 -39.5q-186 0 -303 121.5t-117 312.5v702h325v-663q0 -86 50.5 -137.5t138.5 -51.5q98 0 174 53.5t76 135.5v663h323v-1126h-86 q-137 0 -220 -87t-83 -183q0 -51 32 -83t87 -32q53 0 104 31t80 78z" glyph-name="uogonek" horiz-adv-x="1245" unicode="ų"/><glyph d="M1053 1698h-226l215 350h310l219 -350h-228l-145 221zM2337 1536l-424 -1536h-336l-379 1024l-338 -1024h-334l-467 1536h334l312 -1198l342 1198h305l381 -1200l272 1200h332z" glyph-name="Wcircumflex" horiz-adv-x="2396" unicode="Ŵ"/><glyph d="M662 1186h-226l215 350h310l219 -350h-228l-145 221zM1749 1126l-360 -1126h-367l-133 481l-133 -481h-367l-362 1126h368l187 -751l184 751h272l181 -751l165 751h365z" glyph-name="wcircumflex" horiz-adv-x="1611" unicode="ŵ"/><glyph d="M551 1698h-225l215 350h309l219 -350h-227l-146 221zM850 727v-727h-307v721l-541 815h344l348 -551l353 551h339z" glyph-name="Ycircumflex" horiz-adv-x="1388" unicode="Ŷ"/><glyph d="M479 1186h-225l215 350h309l219 -350h-227l-145 221zM1278 1126l-676 -1693h-293l262 651h-67l-430 1042h319l301 -716l277 716h307z" glyph-name="ycircumflex" horiz-adv-x="1247" unicode="ŷ"/><glyph d="M473 1692q-70 0 -119 49t-49 118.5t49 119t119 49.5t119 -49.5t49 -119t-49 -118.5t-119 -49zM920 1692q-68 0 -118 49t-50 118.5t50 119t118 49.5q70 0 118.5 -49.5t48.5 -119t-48.5 -118.5t-118.5 -49zM850 727v-727h-307v721l-541 815h344l348 -551l353 551h339z" glyph-name="Ydieresis" horiz-adv-x="1388" unicode="Ÿ"/><glyph d="M797 1706h-226l170 342h299zM1239 270v-270h-1173v166l755 1102h-735v268h1149v-166l-758 -1100h762z" glyph-name="Zacute" horiz-adv-x="1308" unicode="Ź"/><glyph d="M608 1536h299l-243 -342h-226zM88 219l514 561h-512v244h889v-215l-516 -565h520v-244h-895v219z" glyph-name="zacute" horiz-adv-x="1071" unicode="ź"/><glyph d="M682 1692q-70 0 -119 49t-49 118.5t49 119t119 49.5t119 -49.5t49 -119t-49 -118.5t-119 -49zM1239 270v-270h-1173v166l755 1102h-735v268h1149v-166l-758 -1100h762z" glyph-name="Zdotaccent" horiz-adv-x="1308" unicode="Ż"/><glyph d="M548.5 1180q-69.5 0 -118.5 49t-49 118.5t49 119t118.5 49.5t119 -49.5t49.5 -119t-49.5 -118.5t-119 -49zM88 219l514 561h-512v244h889v-215l-516 -565h520v-244h-895v219z" glyph-name="zdotaccent" horiz-adv-x="1071" unicode="ż"/><glyph d="M524 1698l-215 350h217l154 -221l156 221h217l-219 -350h-310zM1239 270v-270h-1173v166l755 1102h-735v268h1149v-166l-758 -1100h762z" glyph-name="Zcaron" horiz-adv-x="1308" unicode="Ž"/><glyph d="M178 1536h217l154 -221l156 221h217l-220 -350h-309zM88 219l514 561h-512v244h889v-215l-516 -565h520v-244h-895v219z" glyph-name="zcaron" horiz-adv-x="1071" unicode="ž"/><glyph d="M813 1346q-78 0 -129 -50.5t-66 -138.5l-22 -133h276l-34 -223h-277l-209 -1313h-266l207 1313h-170l35 223h172l26 174q25 154 149 256t279 102q111 0 156 -36l-25 -207q-34 33 -102 33z" glyph-name="florin" horiz-adv-x="980" unicode="ƒ"/><glyph d="M637 1698l-215 350h217l154 -221l155 221h217l-219 -350h-309zM1120 311h-667l-117 -311h-334l616 1536h347l616 -1536h-334zM1032 578l-239 645l-250 -645h489z" glyph-name="uni01CD" horiz-adv-x="1585" unicode="Ǎ"/><glyph d="M385 1186l-215 350h217l154 -221l155 221h217l-219 -350h-309zM430 -16q-166 0 -266.5 88t-100.5 247q0 150 132.5 243t328.5 112l221 20v19q0 94 -43 135t-129 41q-201 0 -217 -172h-262q12 182 130 300t358 118q215 0 336.5 -104.5t121.5 -319.5v-338q0 -135 90 -135 v-238q-10 0 -37.5 -1t-43.5 -1h-28h-32t-28.5 1t-30.5 3t-28.5 6t-30 9.5t-26 14.5t-26.5 20t-21.5 25.5t-19.5 33.5q-47 -57 -142 -92t-206 -35zM516 217q113 0 229 100v175l-153 -21q-211 -29 -211 -133q0 -55 38 -88t97 -33z" glyph-name="uni01CE" horiz-adv-x="1144" unicode="ǎ"/><glyph d="M-98 2048h219l153 -221l156 221h217l-219 -350h-309zM123 1536h309v-1536h-309v1536z" glyph-name="uni01CF" horiz-adv-x="555" unicode="Ǐ"/><glyph d="M-100 1536h219l153 -221l156 221h217l-219 -350h-309zM123 1024h299v-1024h-299v1024z" glyph-name="uni01D0" horiz-adv-x="544" unicode="ǐ"/><glyph d="M457 2048h217l153 -221l156 221h217l-219 -350h-309zM827 -20q-330 0 -539.5 227t-209.5 561t210 561t539 227q328 0 539 -228t211 -560t-211 -560t-539 -228zM827 279q209 0 330 138t121 351q0 215 -121 353.5t-330 138.5q-211 0 -332.5 -138.5t-121.5 -353.5 q0 -213 122.5 -351t331.5 -138z" glyph-name="uni01D1" horiz-adv-x="1652" unicode="Ǒ"/><glyph d="M227 1536h217l154 -221l156 221h217l-219 -350h-310zM598 -20q-231 0 -383 153.5t-152 378.5t152 378.5t383 153.5q229 0 382 -153.5t153 -378.5t-153 -378.5t-382 -153.5zM598 242q104 0 172 77.5t68 192.5t-68 193.5t-172 78.5q-106 0 -173 -77.5t-67 -194.5t67 -193.5 t173 -76.5z" glyph-name="uni01D2" horiz-adv-x="1193" unicode="ǒ"/><glyph d="M385 2048h217l154 -221l155 221h217l-219 -350h-309zM756 -20q-264 0 -446.5 149.5t-182.5 366.5v1040h309v-985q0 -125 93.5 -213t226.5 -88t226 88t93 213v985h309v-1040q0 -217 -182 -366.5t-446 -149.5z" glyph-name="uni01D3" horiz-adv-x="1511" unicode="Ǔ"/><glyph d="M469 1186l-215 350h217l154 -221l155 221h217l-219 -350h-309zM1208 1126v-1126h-290l-19 141q-61 -72 -158.5 -111.5t-199.5 -39.5q-186 0 -303 121.5t-117 312.5v702h325v-663q0 -86 50.5 -137.5t138.5 -51.5q98 0 174 53.5t76 135.5v663h323z" glyph-name="uni01D4" horiz-adv-x="1245" unicode="ǔ"/><glyph d="M694 1698l-215 350h217l154 -221l156 221h217l-219 -350h-310zM1499 821v-311v-510h-207l-37 186q-154 -197 -467 -196q-330 0 -529.5 210t-199.5 560t198 565t517 215q182 0 327.5 -56.5t245 -181t119.5 -305.5h-297q-20 119 -120.5 192t-243.5 73q-223 0 -341 -131.5 t-118 -370.5q0 -223 129 -357.5t311 -134.5q166 0 282 79t116 216h-367v258h682z" glyph-name="Gcaron" horiz-adv-x="1509" unicode="Ǧ"/><glyph d="M432 1186l-215 350h217l154 -221l155 221h218l-220 -350h-309zM594 -512q-227 -8 -359.5 69.5t-160.5 200.5q-18 76 12.5 172.5t112.5 143.5q-47 12 -80 63t-33 109q0 131 154 207q-51 47 -90 129t-39 174q0 158 135 273.5t344 115.5q74 0 167 -23.5t136 -60.5 q23 82 118 126t160 21v-186q-45 20 -97 5t-75 -66q94 -121 95 -226q0 -184 -141.5 -302t-348.5 -126q-125 -6 -211 37q-31 -10 -46 -29.5t-7 -38.5q18 -51 149 -51l222 -4q186 -4 300.5 -82t127.5 -211q18 -213 -132.5 -322.5t-412.5 -117.5zM793 739q0 74 -56.5 115 t-146.5 41q-88 0 -142.5 -42t-54.5 -118t55.5 -119t141.5 -43q90 0 146.5 44t56.5 122zM850 -133q0 117 -279 117h-151q-35 -10 -57.5 -45t-22.5 -72q0 -133 231 -133q121 0 200 36t79 97z" glyph-name="gcaron" horiz-adv-x="1236" unicode="ǧ"/><glyph d="M942 1706h-225l170 342h299zM1319 1374q123 -111 190.5 -268.5t67.5 -337.5q0 -332 -211 -560t-539 -228q-207 0 -370 94l-92 -142h-183l152 230q-121 109 -188.5 266.5t-67.5 339.5q0 334 210 561t539 227q201 0 369 -94l92 140h182zM373 768q0 -219 127 -356l532 802 q-94 45 -205 46q-211 0 -332.5 -138.5t-121.5 -353.5zM827 279q209 0 330 138t121 351q0 221 -123 356l-532 -802q85 -43 204 -43z" glyph-name="Oslashacute" horiz-adv-x="1652" unicode="Ǿ"/><glyph d="M713 1194h-226l170 342h299zM938 930q195 -158 195 -418q0 -225 -153 -378.5t-382 -153.5q-137 0 -252 57l-72 -107h-127l109 164q-193 156 -193 418q0 225 152 378.5t383 153.5q135 0 250 -57l72 107h127zM358 512q0 -111 56 -180l284 428q-45 25 -100 24 q-106 0 -173 -77.5t-67 -194.5zM598 242q104 0 172 77.5t68 192.5q0 102 -58 180l-284 -428q43 -22 102 -22z" glyph-name="oslashacute" horiz-adv-x="1193" unicode="ǿ"/><glyph d="M680 -20q-250 0 -402.5 140t-175.5 376l269 -2q55 -227 319 -228q111 0 177.5 41t68.5 125q0 41 -21.5 78t-47 60.5t-83 53t-91.5 43t-107 42.5q-80 31 -127 52t-112.5 60t-101.5 79t-62.5 100.5t-26.5 132.5q0 188 155.5 305.5t382.5 117.5q479 0 570 -499h-287 q-10 98 -80 169.5t-195 71.5q-96 0 -162.5 -42t-66.5 -111q0 -37 20.5 -67.5t68.5 -59.5t86 -45.5t114 -47t114.5 -47t107.5 -51t106.5 -68.5t79.5 -82t60.5 -108.5t18.5 -132.5q0 -223 -159.5 -339.5t-409.5 -116.5zM621 -473q-51 18 -81 61t-30 97q0 70 48 117.5t118 47.5 q68 0 115 -48t47 -117q0 -117 -148 -301h-170z" glyph-name="Scommaaccent" horiz-adv-x="1325" unicode="Ș"/><glyph d="M573 -14q-225 0 -358 114.5t-149 266.5h274q18 -74 82.5 -114t140.5 -36q135 8 135 109q0 27 -16 47t-55 37.5t-68 26.5t-92 28q-84 23 -135 42t-114.5 56t-95.5 92.5t-32 130.5q0 162 128 260.5t339 98.5q164 0 299 -92t152 -267h-277q-31 111 -166 119 q-66 4 -104.5 -17.5t-38.5 -64.5q0 -16 6 -29.5t20.5 -24.5t27.5 -18.5t40 -17.5t44.5 -15t52 -15.5t53.5 -16.5q78 -25 129 -47.5t108.5 -61t87 -98t29.5 -137.5q0 -166 -121 -261t-326 -95zM481 -473q-51 18 -80.5 61t-29.5 97q0 70 48 117.5t118 47.5q68 0 114.5 -48 t46.5 -117q0 -117 -147 -301h-170z" glyph-name="scommaaccent" horiz-adv-x="1019" unicode="ș"/><glyph d="M1223 1268h-435v-1268h-305v1268h-436v268h1176v-268zM590 -457q-51 18 -81 61.5t-30 96.5q0 70 48 118t118 48q68 0 115 -48t47 -118q0 -117 -148 -301h-170z" glyph-name="uni021A" horiz-adv-x="1187" unicode="Ț"/><glyph d="M709 -2q-90 0 -146.5 4t-124 25.5t-105.5 61.5t-64.5 113.5t-26.5 180.5v491h-191v256h191v406h299v-406h305v-256h-305v-471q0 -86 43 -117.5t125 -31.5h141v-256h-141zM408 -459q-51 18 -81 61.5t-30 96.5q0 70 48 118t118 48q68 0 115 -48t47 -118q0 -117 -148 -301 h-170z" glyph-name="uni021B" horiz-adv-x="796" unicode="ț"/><glyph d="M1135 1268h-703v-365h617v-270h-617v-363h703v-270h-488l-69 -123q100 18 170.5 -36t70.5 -150q0 -94 -64.5 -158.5t-158.5 -64.5q-76 0 -146.5 44t-93.5 107l129 45q16 -27 48 -45t63 -18q37 0 61.5 26.5t24.5 63.5q0 57 -48 74.5t-120 -15.5l-106 62l102 188h-387v1536 h1012v-268z" glyph-name="uni0228" horiz-adv-x="1105" unicode="Ȩ"/><glyph d="M1120 565q0 -45 -6 -96h-758q14 -111 81 -173.5t167 -62.5q176 0 244 132h258q-29 -152 -143.5 -255.5t-307.5 -117.5v-8l-61 -109q100 18 171 -36t71 -150q0 -94 -64.5 -159t-159.5 -65q-76 0 -146.5 44.5t-92.5 107.5l129 45q16 -27 48 -45t62 -18q37 0 61.5 26.5 t24.5 63.5q0 57 -48 74.5t-120 -15.5l-106 62l94 174v10q-215 27 -345 183.5t-130 385.5q0 254 146.5 414t408.5 160q242 0 382 -154t140 -418zM362 688h449q-33 203 -217 203q-189 0 -232 -203z" glyph-name="uni0229" horiz-adv-x="1122" unicode="ȩ"/><glyph d="M74 -532q-104 0 -152 32v250q49 -39 115 -39q53 0 90 41t37 105v1167h299v-1188q0 -156 -112.5 -262t-276.5 -106z" glyph-name="uni0237" horiz-adv-x="618" unicode="ȷ"/><glyph d="M244 1536h309l219 -350h-227l-146 221l-145 -221h-225z" glyph-name="circumflex" horiz-adv-x="47" unicode="ˆ"/><glyph d="M29 1536h217l153 -221l156 221h217l-219 -350h-309z" glyph-name="caron" horiz-adv-x="47" unicode="ˇ"/><glyph d="M586 1141q-166 0 -265.5 91t-99.5 261h170q0 -72 54.5 -127t140.5 -55q88 0 143 54t55 128h170q0 -170 -99 -261t-269 -91z" glyph-name="breve" horiz-adv-x="47" unicode="˘"/><glyph d="M319.5 1180q-69.5 0 -118.5 49t-49 118.5t49 119t118.5 49.5t118.5 -49.5t49 -119t-49 -118.5t-118.5 -49z" glyph-name="dotaccent" horiz-adv-x="47" unicode="˙"/><glyph d="M184 1130q-100 0 -170.5 71t-70.5 171q0 96 70.5 167t170.5 71q98 0 168 -71t70 -167q0 -100 -70 -171t-168 -71zM184 1253q49 0 83 33t34 86q0 49 -34 84t-83 35t-81.5 -35t-32.5 -84q0 -53 32.5 -86t81.5 -33z" glyph-name="ring" horiz-adv-x="47" unicode="˚"/><glyph d="M250 -530q-119 8 -193.5 66t-74.5 169q0 115 91 204t275 134l137 -43q-137 0 -220 -87t-83 -183q0 -51 32 -83t87 -32q53 0 104.5 30.5t79.5 78.5l95 -132q-133 -136 -330 -122z" glyph-name="ogonek" horiz-adv-x="47" unicode="˛"/><glyph d="M508 1223q-123 0 -207 118q-25 39 -55 39q-37 0 -47.5 -40t10.5 -101h-174q-31 133 30.5 222t172.5 89q129 0 208 -118q20 -39 56 -39q37 0 47 38.5t-10 100.5h174q31 -131 -28.5 -220t-176.5 -89z" glyph-name="tilde" horiz-adv-x="49" unicode="˜"/><glyph d="M315 1536h279l-358 -365h-207zM739 1536h281l-358 -365h-207z" glyph-name="hungarumlaut" horiz-adv-x="47" unicode="˝"/><glyph d="M-498 1536h299l170 -342h-223z" glyph-name="gravecomb" unicode="̀"/><glyph d="M-328 1536h299l-243 -342h-226z" glyph-name="acutecomb" unicode="́"/><glyph d="M-555 1536h309l219 -350h-227l-145 221l-146 -221h-225z" glyph-name="uni0302" unicode="̂"/><glyph d="M-242 1223q-123 0 -207 118q-25 39 -55 39q-37 0 -47 -40t10 -101h-174q-31 133 30.5 222t172.5 89q129 0 209 -118q20 -39 55 -39q37 0 47.5 38.5t-10.5 100.5h174q31 -131 -28.5 -220t-176.5 -89z" glyph-name="tildecomb" unicode="̃"/><glyph d="M-662 1384h635v-188h-635v188z" glyph-name="uni0304" unicode="̄"/><glyph d="M-688 1141q-166 0 -265.5 91t-99.5 261h170q0 -72 54.5 -127t140.5 -55q88 0 143.5 54t55.5 128h170q0 -170 -99.5 -261t-269.5 -91z" glyph-name="uni0306" unicode="̆"/><glyph d="M-319.5 1180q-69.5 0 -118.5 49t-49 118.5t49 119t118.5 49.5t118.5 -49.5t49 -119t-49 -118.5t-118.5 -49z" glyph-name="uni0307" unicode="̇"/><glyph d="M-706.5 1180q-69.5 0 -118.5 49t-49 118.5t49 119t118.5 49.5t118.5 -49.5t49 -119t-49 -118.5t-118.5 -49zM-260 1180q-68 0 -118 49t-50 118.5t50 119t118 49.5q70 0 119 -49.5t49 -119t-49 -118.5t-119 -49z" glyph-name="uni0308" unicode="̈"/><glyph d="M-180 1130q-100 0 -171 71t-71 171q0 96 70.5 167t171.5 71q98 0 167.5 -71t69.5 -167q0 -100 -69.5 -171t-167.5 -71zM-180 1253q49 0 83 33t34 86q0 49 -34 84t-83 35t-82 -35t-33 -84q0 -53 33 -86t82 -33z" glyph-name="uni030A" unicode="̊"/><glyph d="M-733 1536h278l-358 -365h-207zM-309 1536h280l-358 -365h-207z" glyph-name="uni030B" unicode="̋"/><glyph d="M-770 1536h217l154 -221l155 221h217l-219 -350h-309z" glyph-name="uni030C" unicode="̌"/><glyph d="M-287 1348q51 -18 81 -61.5t30 -96.5q0 -70 -48 -118t-118 -48q-68 0 -115 48t-47 118q0 117 148 301h170z" glyph-name="uni0312" unicode="̒"/><glyph d="M-196.5 -512q-69.5 0 -119 49t-49.5 119t49.5 119t119 49t118.5 -49t49 -119t-49 -119t-118.5 -49z" glyph-name="dotbelowcomb" unicode="̣"/><glyph d="M-315 2q-51 18 -81 61t-30 97q0 70 48 118t118 48q68 0 115 -48.5t47 -117.5q0 -117 -148 -301h-170z" glyph-name="uni0326" unicode="̦"/><glyph d="M-250 -532q-76 0 -146.5 44t-92.5 107l129 45q16 -27 47.5 -45t62.5 -18q37 0 61.5 26.5t24.5 63.5q0 57 -49 74.5t-119 -15.5l-106 62l102 188h137l-69 -123q100 18 170.5 -36t70.5 -150q0 -94 -64.5 -158.5t-158.5 -64.5z" glyph-name="uni0327" unicode="̧"/><glyph d="M-356 -530q-119 8 -194 66t-75 169q0 115 91.5 204t275.5 134l137 -43q-137 0 -220 -87t-83 -183q0 -51 32 -83t87 -32q53 0 104 30.5t80 78.5l94 -132q-132 -136 -329 -122z" glyph-name="uni0328" unicode="̨"/><glyph d="M-1010 600h695v-168h-695v168z" glyph-name="uni0335" unicode="̵"/><glyph d="M-1548 590h1519v-115h-1519v115z" glyph-name="uni0336" unicode="̶"/><glyph d="M-367 852h185l-639 -664h-176z" glyph-name="uni0337" unicode="̷"/><glyph d="M-186 1604h182l-1106 -1670h-184z" glyph-name="uni0338" unicode="̸"/><glyph d="M55 156l574 1396h336l561 -1394v-158h-1471v156zM1204 246l-274 663q-8 23 -65.5 178.5t-73.5 208.5h-15q-10 -39 -61 -176t-66 -176l-289 -698h844z" glyph-name="Delta" horiz-adv-x="1581" unicode="Δ"/><glyph d="M1247 0l-454 1192l-457 -1192h-334l616 1536h347l616 -1536h-334z" glyph-name="Lambda" horiz-adv-x="1585" unicode="Λ"/><glyph d="M137 1536h918v-268h-918v268zM260 903h672v-270h-672v270zM137 270h918v-270h-918v270z" glyph-name="Xi" horiz-adv-x="1208" unicode="Ξ"/><glyph d="M92 215h279v8q-100 96 -173 256t-73 344q0 307 211 513t543 206q225 0 398 -102.5t259 -263t86 -351.5q0 -178 -72.5 -342t-179.5 -260v-8h285v-215h-645v160q143 80 236 239.5t93 374.5q0 233 -122.5 392t-335.5 159q-209 0 -341 -154.5t-132 -396.5q0 -213 97 -379 t234 -235v-160h-647v215z" glyph-name="Omega" horiz-adv-x="1746" unicode="Ω"/><glyph d="M885 1126h323v-1126h-290l-19 141q-61 -72 -158.5 -111.5t-199.5 -39.5q-109 0 -195 43l2 -8v-537h-217v831q-10 55 -10 105v702h325v-663q0 -86 50.5 -137.5t138.5 -51.5q98 0 174 53.5t76 135.5v663z" glyph-name="mu" horiz-adv-x="1300" unicode="μ"/><glyph d="M133 0q57 178 103.5 448.5t50.5 464.5q-168 0 -252 -24q4 35 9 82t6 63.5t8.5 43t10.5 31.5t18 17.5t27.5 10.5t42 1t56.5 0t77 -4t99 -1h1016l-23 -220h-178v-571q0 -223 31 -342h-270q-39 61 -39 322v591h-365q-8 -211 -53 -491.5t-105 -421.5h-270z" glyph-name="pi" horiz-adv-x="1433" unicode="π"/><glyph d="M1020 793q133 -41 210 -135.5t77 -239.5q0 -193 -128 -305.5t-323 -112.5h-733v1536h635q197 0 325.5 -114.5t128.5 -309.5q1 -208 -192 -319zM905 1081q0 76 -54 131.5t-130 55.5h-291v-355h291q78 0 131 47t53 121zM811 270q78 0 132 55.5t54 131.5q0 78 -55 142.5 t-131 64.5h-381v-394h381zM663.5 -100q69.5 0 118.5 -49.5t49 -119t-49 -118.5t-118.5 -49t-118.5 49t-49 118.5t49 119t118.5 49.5z" glyph-name="uni1E04" horiz-adv-x="1339" unicode="Ḅ"/><glyph d="M723 1137q225 0 371.5 -163t146.5 -409t-146.5 -409.5t-371.5 -163.5q-203 0 -326 133l-16 -125l-285 2v1536h322v-512q112 111 305 111zM659 270q115 0 188 85t73 210q0 127 -73 212t-188 85q-82 0 -147.5 -50t-93.5 -130v-231q29 -82 94 -131.5t147 -49.5zM614.5 -100 q69.5 0 118.5 -49.5t49 -119t-49 -118.5t-118.5 -49t-119 49t-49.5 118.5t49.5 119t119 49.5z" glyph-name="uni1E05" horiz-adv-x="1234" unicode="ḅ"/><glyph d="M1401 1536v-1536h-309v633h-660v-633h-309v1536h309v-631h660v631h309zM764 -100q70 0 119 -49.5t49 -119t-49 -118.5t-119 -49t-119 49t-49 118.5t49 119t119 49.5z" glyph-name="uni1E24" horiz-adv-x="1523" unicode="Ḥ"/><glyph d="M791 1135q197 0 306 -106.5t109 -303.5v-725h-325v684q0 168 -187 168q-100 0 -175 -51t-75 -135v-666h-325v1536h325v-537q63 63 157 99.5t190 36.5zM612.5 -100q69.5 0 118.5 -49.5t49 -119t-49 -118.5t-118.5 -49t-119 49t-49.5 118.5t49.5 119t119 49.5z" glyph-name="uni1E25" horiz-adv-x="1239" unicode="ḥ"/><glyph d="M123 1536h309v-1266h518v-270h-827v1536zM538.5 -436q-69.5 0 -118.5 49t-49 118.5t49 119t118.5 49.5t119 -49.5t49.5 -119t-49.5 -118.5t-119 -49z" glyph-name="uni1E36" horiz-adv-x="1015" unicode="Ḷ"/><glyph d="M133 0v1536h299v-1536h-299zM282.5 -436q-69.5 0 -118.5 49t-49 118.5t49 119t118.5 49.5t119 -49.5t49.5 -119t-49.5 -118.5t-119 -49z" glyph-name="uni1E37" horiz-adv-x="743" unicode="ḷ"/><glyph d="M833.5 1692q-69.5 0 -118.5 49t-49 118.5t49 119t118.5 49.5t118.5 -49.5t49 -119t-49 -118.5t-118.5 -49zM1532 1536v-1536h-315l-785 1069v-1069h-309v1536h315l787 -1067v1067h307z" glyph-name="uni1E44" horiz-adv-x="1654" unicode="Ṅ"/><glyph d="M622.5 1180q-69.5 0 -118.5 49t-49 118.5t49 119t118.5 49.5t119 -49.5t49.5 -119t-49.5 -118.5t-119 -49zM770 1141q197 0 306.5 -107.5t109.5 -304.5v-729h-326v690q0 168 -186 168q-100 0 -175 -51t-75 -135v-672h-326v1126h293l19 -137q61 70 159.5 111t200.5 41z " glyph-name="uni1E45" horiz-adv-x="1239" unicode="ṅ"/><glyph d="M1532 1536v-1536h-315l-785 1069v-1069h-309v1536h315l787 -1067v1067h307zM825.5 -100q69.5 0 118.5 -49.5t49 -119t-49 -118.5t-118.5 -49t-119 49t-49.5 118.5t49.5 119t119 49.5z" glyph-name="uni1E46" horiz-adv-x="1654" unicode="Ṇ"/><glyph d="M770 1141q197 0 306.5 -107.5t109.5 -304.5v-729h-326v690q0 168 -186 168q-100 0 -175 -51t-75 -135v-672h-326v1126h293l19 -137q61 70 159.5 111t200.5 41zM622.5 -100q69.5 0 119 -49.5t49.5 -119t-49.5 -118.5t-119 -49t-118.5 49t-49 118.5t49 119t118.5 49.5z" glyph-name="uni1E47" horiz-adv-x="1239" unicode="ṇ"/><glyph d="M680 -20q-250 0 -402.5 140t-175.5 376l269 -2q55 -227 319 -228q111 0 177.5 41t68.5 125q0 41 -21.5 78t-47 60.5t-83 53t-91.5 43t-107 42.5q-80 31 -127 52t-112.5 60t-101.5 79t-62.5 100.5t-26.5 132.5q0 188 155.5 305.5t382.5 117.5q479 0 570 -499h-287 q-10 98 -80 169.5t-195 71.5q-96 0 -162.5 -42t-66.5 -111q0 -37 20.5 -67.5t68.5 -59.5t86 -45.5t114 -47t114.5 -47t107.5 -51t106.5 -68.5t79.5 -82t60.5 -108.5t18.5 -132.5q0 -223 -159.5 -339.5t-409.5 -116.5zM671.5 -436q-69.5 0 -118.5 49t-49 118.5t49 119 t118.5 49.5t119 -49.5t49.5 -119t-49.5 -118.5t-119 -49z" glyph-name="uni1E62" horiz-adv-x="1325" unicode="Ṣ"/><glyph d="M573 -14q-225 0 -358 114.5t-149 266.5h274q18 -74 82.5 -114t140.5 -36q135 8 135 109q0 27 -16 47t-55 37.5t-68 26.5t-92 28q-84 23 -135 42t-114.5 56t-95.5 92.5t-32 130.5q0 162 128 260.5t339 98.5q164 0 299 -92t152 -267h-277q-31 111 -166 119 q-66 4 -104.5 -17.5t-38.5 -64.5q0 -16 6 -29.5t20.5 -24.5t27.5 -18.5t40 -17.5t44.5 -15t52 -15.5t53.5 -16.5q78 -25 129 -47.5t108.5 -61t87 -98t29.5 -137.5q0 -166 -121 -261t-326 -95zM538.5 -436q-69.5 0 -118.5 49t-49 118.5t49 119t118.5 49.5t119 -49.5 t49.5 -119t-49.5 -118.5t-119 -49z" glyph-name="uni1E63" horiz-adv-x="1019" unicode="ṣ"/><glyph d="M1223 1268h-435v-1268h-305v1268h-436v268h1176v-268zM635 -100q70 0 119 -49.5t49 -119t-49 -118.5t-119 -49t-119 49t-49 118.5t49 119t119 49.5z" glyph-name="uni1E6C" horiz-adv-x="1187" unicode="Ṭ"/><glyph d="M709 -2q-90 0 -146.5 4t-124 25.5t-105.5 61.5t-64.5 113.5t-26.5 180.5v491h-191v256h191v406h299v-406h305v-256h-305v-471q0 -86 43 -117.5t125 -31.5h141v-256h-141zM448.5 -100q69.5 0 118.5 -49.5t49 -119t-49 -118.5t-118.5 -49t-118.5 49t-49 118.5t49 119 t118.5 49.5z" glyph-name="uni1E6D" horiz-adv-x="796" unicode="ṭ"/><glyph d="M1075 1706l-246 342h299l170 -342h-223zM2337 1536l-424 -1536h-336l-379 1024l-338 -1024h-334l-467 1536h334l312 -1198l342 1198h305l381 -1200l272 1200h332z" glyph-name="Wgrave" horiz-adv-x="2396" unicode="Ẁ"/><glyph d="M684 1194l-246 342h299l170 -342h-223zM1749 1126l-360 -1126h-367l-133 481l-133 -481h-367l-362 1126h368l187 -751l184 751h272l181 -751l165 751h365z" glyph-name="wgrave" horiz-adv-x="1611" unicode="ẁ"/><glyph d="M1315 1706h-225l170 342h299zM2337 1536l-424 -1536h-336l-379 1024l-338 -1024h-334l-467 1536h334l312 -1198l342 1198h305l381 -1200l272 1200h332z" glyph-name="Wacute" horiz-adv-x="2396" unicode="Ẃ"/><glyph d="M944 1194h-225l170 342h299zM1749 1126l-360 -1126h-367l-133 481l-133 -481h-367l-362 1126h368l187 -751l184 751h272l181 -751l165 751h365z" glyph-name="wacute" horiz-adv-x="1611" unicode="ẃ"/><glyph d="M974.5 1692q-69.5 0 -118.5 49t-49 118.5t49 119t118.5 49.5t119 -49.5t49.5 -119t-49.5 -118.5t-119 -49zM1421 1692q-68 0 -118 49t-50 118.5t50.5 119t117.5 49.5q70 0 119 -49.5t49 -119t-49 -118.5t-119 -49zM2337 1536l-424 -1536h-336l-379 1024l-338 -1024h-334 l-467 1536h334l312 -1198l342 1198h305l381 -1200l272 1200h332z" glyph-name="Wdieresis" horiz-adv-x="2396" unicode="Ẅ"/><glyph d="M604.5 1180q-69.5 0 -119 49t-49.5 118.5t49.5 119t119 49.5t118.5 -49.5t49 -119t-49 -118.5t-118.5 -49zM1051 1180q-68 0 -118 49t-50 118.5t50 119t118 49.5q70 0 119 -49.5t49 -119t-49 -118.5t-119 -49zM1749 1126l-360 -1126h-367l-133 481l-133 -481h-367 l-362 1126h368l187 -751l184 751h272l181 -751l165 751h365z" glyph-name="wdieresis" horiz-adv-x="1611" unicode="ẅ"/><glyph d="M1239 270v-270h-1173v166l755 1102h-735v268h1149v-166l-758 -1100h762zM651.5 -100q69.5 0 118.5 -49.5t49 -119t-49 -118.5t-118.5 -49t-119 49t-49.5 118.5t49.5 119t119 49.5z" glyph-name="uni1E92" horiz-adv-x="1308" unicode="Ẓ"/><glyph d="M88 219l514 561h-512v244h889v-215l-516 -565h520v-244h-895v219zM536.5 -436q-69.5 0 -118.5 49t-49 118.5t49 119t118.5 49.5t119 -49.5t49.5 -119t-49.5 -118.5t-119 -49z" glyph-name="uni1E93" horiz-adv-x="1071" unicode="ẓ"/><glyph d="M1120 311h-667l-117 -311h-334l616 1536h347l616 -1536h-334zM1032 578l-239 645l-250 -645h489zM794.5 -100q69.5 0 119 -49.5t49.5 -119t-49.5 -118.5t-119 -49t-118.5 49t-49 118.5t49 119t118.5 49.5z" glyph-name="uni1EA0" horiz-adv-x="1585" unicode="Ạ"/><glyph d="M430 -16q-166 0 -266.5 88t-100.5 247q0 150 132.5 243t328.5 112l221 20v19q0 94 -43 135t-129 41q-201 0 -217 -172h-262q12 182 130 300t358 118q215 0 336.5 -104.5t121.5 -319.5v-338q0 -135 90 -135v-238q-10 0 -37.5 -1t-43.5 -1h-28h-32t-28.5 1t-30.5 3t-28.5 6 t-30 9.5t-26 14.5t-26.5 20t-21.5 25.5t-19.5 33.5q-47 -57 -142 -92t-206 -35zM516 217q113 0 229 100v175l-153 -21q-211 -29 -211 -133q0 -55 38 -88t97 -33zM561.5 -100q69.5 0 118.5 -49.5t49 -119t-49 -118.5t-118.5 -49t-119 49t-49.5 118.5t49.5 119t119 49.5z" glyph-name="uni1EA1" horiz-adv-x="1144" unicode="ạ"/><glyph d="M432 1268v-365h617v-270h-617v-363h703v-270h-1012v1536h1012v-268h-703zM579.5 -100q69.5 0 119 -49.5t49.5 -119t-49.5 -118.5t-119 -49t-118.5 49t-49 118.5t49 119t118.5 49.5z" glyph-name="uni1EB8" horiz-adv-x="1105" unicode="Ẹ"/><glyph d="M1120 565q0 -45 -6 -96h-758q14 -111 81 -173.5t167 -62.5q176 0 244 132h258q-29 -164 -161 -269.5t-349 -105.5q-246 0 -399.5 160.5t-153.5 412.5q0 254 146.5 414t408.5 160q242 0 382 -154t140 -418zM594 891q-188 0 -232 -203h449q-33 203 -217 203zM596 -100 q70 0 119 -49.5t49 -119t-49 -118.5t-119 -49t-119 49t-49 118.5t49 119t119 49.5z" glyph-name="uni1EB9" horiz-adv-x="1122" unicode="ẹ"/><glyph d="M240 1690q-31 133 30.5 222t171.5 89q129 0 209 -119q20 -39 56 -39q37 0 47 39t-11 100h175q31 -131 -29 -220t-176 -89q-123 0 -207 119q-25 39 -55 39q-37 0 -47.5 -40t10.5 -101h-174zM432 1268v-365h617v-270h-617v-363h703v-270h-1012v1536h1012v-268h-703z" glyph-name="uni1EBC" horiz-adv-x="1105" unicode="Ẽ"/><glyph d="M244 1178q-31 133 30.5 222t171.5 89q129 0 209 -119q20 -39 56 -39q37 0 47 39t-10 100h174q31 -131 -28.5 -220t-176.5 -89q-123 0 -207 119q-25 39 -55 39q-37 0 -47.5 -40t10.5 -101h-174zM1120 565q0 -45 -6 -96h-758q14 -111 81 -173.5t167 -62.5q176 0 244 132 h258q-29 -164 -161 -269.5t-349 -105.5q-246 0 -399.5 160.5t-153.5 412.5q0 254 146.5 414t408.5 160q242 0 382 -154t140 -418zM594 891q-188 0 -232 -203h449q-33 203 -217 203z" glyph-name="uni1EBD" horiz-adv-x="1122" unicode="ẽ"/><glyph d="M123 1536h309v-1536h-309v1536zM276.5 -436q-69.5 0 -118.5 49t-49 118.5t49 119t118.5 49.5t118.5 -49.5t49 -119t-49 -118.5t-118.5 -49z" glyph-name="uni1ECA" horiz-adv-x="555" unicode="Ị"/><glyph d="M295 1200q-68 0 -118 49t-50 119t50 119t118 49q70 0 120 -49t50 -119t-50 -119t-120 -49zM145 1024h299v-1024h-299v1024zM307.5 -471q-69.5 0 -119 49t-49.5 119t49.5 119t119 49t118.5 -49t49 -119t-49 -119t-118.5 -49z" glyph-name="uni1ECB" horiz-adv-x="591" unicode="ị"/><glyph d="M827 -20q-330 0 -539.5 227t-209.5 561t210 561t539 227q328 0 539 -228t211 -560t-211 -560t-539 -228zM827 279q209 0 330 138t121 351q0 215 -121 353.5t-330 138.5q-211 0 -332.5 -138.5t-121.5 -353.5q0 -213 122.5 -351t331.5 -138zM827.5 -436q-69.5 0 -119 49 t-49.5 118.5t49.5 119t119 49.5t118.5 -49.5t49 -119t-49 -118.5t-118.5 -49z" glyph-name="uni1ECC" horiz-adv-x="1652" unicode="Ọ"/><glyph d="M598 -20q-231 0 -383 153.5t-152 378.5t152 378.5t383 153.5q229 0 382 -153.5t153 -378.5t-153 -378.5t-382 -153.5zM598 242q104 0 172 77.5t68 192.5t-68 193.5t-172 78.5q-106 0 -173 -77.5t-67 -194.5t67 -193.5t173 -76.5zM598 -436q-70 0 -119 49t-49 118.5 t49 119t119 49.5t119 -49.5t49 -119t-49 -118.5t-119 -49z" glyph-name="uni1ECD" horiz-adv-x="1193" unicode="ọ"/><glyph d="M756 -20q-264 0 -446.5 149.5t-182.5 366.5v1040h309v-985q0 -125 93.5 -213t226.5 -88t226 88t93 213v985h309v-1040q0 -217 -182 -366.5t-446 -149.5zM755.5 -436q-69.5 0 -118.5 49t-49 118.5t49 119t118.5 49.5t119 -49.5t49.5 -119t-49.5 -118.5t-119 -49z" glyph-name="uni1EE4" horiz-adv-x="1511" unicode="Ụ"/><glyph d="M573 1706l-245 342h299l170 -342h-224zM850 727v-727h-307v721l-541 815h344l348 -551l353 551h339z" glyph-name="Ygrave" horiz-adv-x="1388" unicode="Ỳ"/><glyph d="M500 1194l-246 342h299l170 -342h-223zM1278 1126l-676 -1693h-293l262 651h-67l-430 1042h319l301 -716l277 716h307z" glyph-name="ygrave" horiz-adv-x="1247" unicode="ỳ"/><glyph d="M543 721l-541 815h344l348 -551l353 551h339l-536 -809v-727h-307v721zM698.5 -100q69.5 0 118.5 -49.5t49 -119t-49 -118.5t-118.5 -49t-119 49t-49.5 118.5t49.5 119t119 49.5z" glyph-name="uni1EF4" horiz-adv-x="1388" unicode="Ỵ"/><glyph d="M358 1690q-31 133 31 222t172 89q129 0 209 -119q20 -39 55 -39q37 0 47.5 39t-10.5 100h174q31 -131 -28.5 -220t-176.5 -89q-123 0 -206 119q-25 39 -56 39q-37 0 -47 -40t10 -101h-174zM850 727v-727h-307v721l-541 815h344l348 -551l353 551h339z" glyph-name="uni1EF8" horiz-adv-x="1388" unicode="Ỹ"/><glyph d="M152 633h1024v-199h-1024v199z" glyph-name="endash" horiz-adv-x="1325" unicode="–"/><glyph d="M-2 633h2050v-199h-2050v199z" glyph-name="emdash" horiz-adv-x="2045" unicode="—"/><glyph d="M178 1069q-68 0 -115 48t-47 118q0 117 148 301h168l-41 -180q53 -49 53 -121t-50 -119t-116 -47z" glyph-name="quoteleft" horiz-adv-x="356" unicode="‘"/><glyph d="M127 1212q-49 18 -80 62.5t-31 95.5q0 70 49.5 118t117 48t114.5 -48t47 -118q0 -117 -147 -301h-168z" glyph-name="quoteright" horiz-adv-x="356" unicode="’"/><glyph d="M127 2q-51 18 -81 61t-30 97q0 70 48.5 118t117.5 48q68 0 115 -48.5t47 -117.5q0 -117 -147 -301h-170z" glyph-name="quotesinglbase" horiz-adv-x="356" unicode="‚"/><glyph d="M178 1069q-70 0 -116 48t-46 118q0 117 148 301h168l-41 -180q53 -49 53 -121q0 -70 -49 -118t-117 -48zM629 1069q-70 0 -116 48t-46 118q0 117 147 301h168l-41 -180q53 -49 54 -121q0 -70 -49 -118t-117 -48z" glyph-name="quotedblleft" horiz-adv-x="806" unicode="“"/><glyph d="M70 1249q-53 49 -54 121q0 70 49.5 118t116.5 48q70 0 116 -48t46 -118q0 -117 -147 -301h-168zM520 1249q-53 49 -53 121q0 70 49 118t117 48q70 0 116 -48t46 -118q0 -117 -148 -301h-168z" glyph-name="quotedblright" horiz-adv-x="806" unicode="”"/><glyph d="M70 0q-53 49 -54 121q0 70 49.5 118t116.5 48q70 0 116 -48.5t46 -117.5q0 -117 -147 -301h-168zM520 0q-53 49 -53 121q0 70 49 118t117 48q70 0 116 -48.5t46 -117.5q0 -117 -148 -301h-168z" glyph-name="quotedblbase" horiz-adv-x="806" unicode="„"/><glyph d="M1094 827h-340v-1175h-189v1175h-332v187h332v358h189v-358h340v-187z" glyph-name="dagger" horiz-adv-x="1327" unicode="†"/><glyph d="M754 827v-612h340v-188h-340v-375h-189v375h-332v188h332v612h-332v187h332v358h189v-358h340v-187h-340z" glyph-name="daggerdbl" horiz-adv-x="1327" unicode="‡"/><glyph d="M520 348q-133 0 -230 94.5t-97 231.5q0 133 98 230t229 97t228.5 -98t97.5 -229q0 -137 -96.5 -231.5t-229.5 -94.5z" glyph-name="bullet" horiz-adv-x="1036" unicode="•"/><glyph d="M369 -16q-68 0 -118 49t-50 118.5t50 120t118 50.5q70 0 119 -49.5t49 -120.5q0 -70 -49 -119t-119 -49zM979 -16q-70 0 -119 49t-49 118.5t49 120t119 50.5t120 -50.5t50 -120t-50 -118.5t-120 -49zM1587 -16q-68 0 -116 49t-48 118.5t48.5 120t115.5 50.5 q72 0 122 -50.5t50 -120t-50 -118.5t-122 -49z" glyph-name="ellipsis" horiz-adv-x="1943" unicode="…"/><glyph d="M399 821q-137 0 -231 107.5t-94 259.5q0 154 94 261t231 107q135 0 229.5 -107.5t94.5 -260.5q0 -152 -94.5 -259.5t-229.5 -107.5zM1188 1536h307l-1034 -1536h-307zM399 1044q39 0 70 42t31 101.5t-31 102.5t-70 43q-41 0 -70.5 -42t-29.5 -103q0 -59 29.5 -101.5 t70.5 -42.5zM1253.5 -20q-135.5 0 -230.5 107.5t-95 261t95 261t230.5 107.5t229.5 -108.5t94 -260t-94 -260t-229.5 -108.5zM2005 -20q-135 0 -230.5 108.5t-95.5 260t95.5 260t230.5 108.5t230.5 -108.5t95.5 -260t-95.5 -260t-230.5 -108.5zM1251 205q41 0 71 41 t30 102.5t-30 102.5t-71 41t-70.5 -41t-29.5 -102.5t29.5 -102.5t70.5 -41zM2005 205q39 0 69.5 42t30.5 101.5t-30.5 101.5t-69.5 42q-41 0 -70.5 -41t-29.5 -102.5t29.5 -102.5t70.5 -41z" glyph-name="perthousand" horiz-adv-x="2400" unicode="‰"/><glyph d="M70 571l311 377h237l-311 -377l311 -376h-237z" glyph-name="guilsinglleft" horiz-adv-x="727" unicode="‹"/><glyph d="M422 571l-311 377h235l311 -377l-311 -376h-235z" glyph-name="guilsinglright" horiz-adv-x="727" unicode="›"/><glyph d="M1001 1536h297l-1071 -1536h-299z" glyph-name="fraction" horiz-adv-x="1257" unicode="⁄"/><glyph d="M43 965h135q35 240 184.5 379t370.5 139q236 0 376 -143.5t144 -391.5h-245q-12 303 -275 303q-121 0 -198.5 -73.5t-102.5 -212.5h475l-41 -201h-444v-53h436l-39 -219h-387q49 -283 303 -283q276 0 291 328h244q-6 -260 -150.5 -412t-384.5 -152q-223 0 -372.5 139.5 t-184.5 379.5h-135v219h127v53h-127v201z" glyph-name="Euro" horiz-adv-x="1384" unicode="€"/><glyph d="M682 -14q-190 0 -295.5 99t-132.5 259l-2 21q-18 -12 -59 -43t-66 -46l-76 146q33 27 99.5 75t97.5 72v541q0 287 117.5 427t304.5 140q168 0 255 -109.5t87 -275.5q0 -193 -125 -379t-367 -395l2 -67q2 -115 66.5 -178.5t159 -63.5t179.5 61.5t142 151.5l119 -119 q-176 -317 -506 -317zM520 764q299 305 299 528q0 197 -137 197q-68 0 -115 -81t-47 -263v-381z" glyph-name="afii61289" horiz-adv-x="1218" unicode="ℓ"/><glyph d="M20 1536h512v-123h-186v-594h-141v594h-185v123zM1419 1536v-719h-141v516l-172 -516h-150l-172 516v-516h-143v719h201l188 -532l191 532h198z" glyph-name="trademark" horiz-adv-x="1533" unicode="™"/><glyph d="M938 -18q-362 0 -618.5 230t-256.5 554q0 328 256 559t619 231q365 0 621 -231t256 -559v-21h-1418q-12 0 -12 -8v-430q0 -23 18 -49q227 -233 537 -233q166 0 313.5 69.5t251.5 192.5h125q-119 -141 -301 -223t-391 -82zM1485 788q8 0 8 15v430q0 33 -20 51 q-229 225 -532.5 225t-534.5 -231q-20 -25 -21 -53v-422q0 -14 12 -15h1088z" glyph-name="estimated" horiz-adv-x="1880" unicode="℮"/><glyph d="M1546 598h-1100l62 -260l-498 385l498 385l-62 -262h1100v-248z" glyph-name="arrowleft" horiz-adv-x="1720" unicode="←"/><glyph d="M375 1100l-262 -62l385 498l385 -498l-260 62v-1100h-248v1100z" glyph-name="arrowup" horiz-adv-x="1013" unicode="↑"/><glyph d="M1274 846l-62 262l498 -385l-498 -385l62 260h-1100v248h1100z" glyph-name="arrowright" horiz-adv-x="1720" unicode="→"/><glyph d="M623 1536v-1100l260 62l-385 -498l-385 498l262 -62v1100h248z" glyph-name="arrowdown" horiz-adv-x="995" unicode="↓"/><glyph d="M-133 682l498 385l-64 -260l1149 -2l-61 260l497 -385l-495 -385l61 262l-1151 2l59 -264z" glyph-name="arrowboth" horiz-adv-x="1753" unicode="↔"/><glyph d="M113 350l262 -61v798l-262 -61l385 496l385 -498l-260 61v-794l260 61l-385 -497z" glyph-name="arrowupdn" horiz-adv-x="995" unicode="↕"/><glyph d="M1055 137l-779 776l-141 -227l-80 625l625 -80l-229 -141l778 -779z" glyph-name="uni2196" horiz-adv-x="1095" unicode="↖"/><glyph d="M645 1090l-229 141l624 80l-79 -625l-142 227l-778 -776l-174 174z" glyph-name="uni2197" horiz-adv-x="1095" unicode="↗"/><glyph d="M43 1399l778 -776l142 227l79 -625l-624 80l229 141l-778 779z" glyph-name="uni2198" horiz-adv-x="1097" unicode="↘"/><glyph d="M451 446l229 -141l-625 -80l80 625l141 -227l779 776l174 -174z" glyph-name="uni2199" horiz-adv-x="1097" unicode="↙"/><glyph d="M313 1456q205 45 378 -44t271.5 -285.5t96.5 -454.5q-2 -285 -158 -477.5t-385 -192.5q-270 0 -383 179t-10 450q84 225 259 325.5t366 44.5q-61 174 -178 244t-257 4v207zM797 672q0 41 -4 114q-133 76 -246 17.5t-182 -238.5q-55 -147 -9.5 -259.5t160.5 -112.5 q111 0 195 142t86 337z" glyph-name="partialdiff" horiz-adv-x="1128" unicode="∂"/><glyph d="M1274 987q143 -170 143 -391q0 -254 -179 -433t-433 -179q-223 0 -391 141l-90 -88l-80 80l90 88q-141 168 -141 391q0 254 179 433t433 179q221 0 389 -141l90 90l80 -80zM428 596q0 -125 72 -223l528 526q-100 74 -223 74q-158 0 -267.5 -109.5t-109.5 -267.5zM805 219 q158 0 267.5 109.5t109.5 267.5q0 123 -74 223l-528 -526q100 -74 225 -74z" glyph-name="emptyset" horiz-adv-x="1607" unicode="∅"/><glyph d="M1452 1233h-123v-1479h-205v1479h-725v-1479h-206v1479h-123v207h1382v-207z" glyph-name="product" horiz-adv-x="1521" unicode="∏"/><glyph d="M152 -63l698 661l-698 662v180h1202v-223h-842l637 -619l-637 -618h842v-224l-1202 2v179z" glyph-name="summation" horiz-adv-x="1505" unicode="∑"/><glyph d="M90 727h1229v-192h-1229v192z" glyph-name="minus" horiz-adv-x="1406" unicode="−"/><glyph d="M256 528h-145v189h280l191 -582l688 1440l174 -74l-797 -1661h-168z" glyph-name="radical" horiz-adv-x="1492" unicode="√"/><glyph d="M410 262q-137 0 -226.5 93.5t-93.5 240.5q4 147 93 240.5t227 93.5q184 0 374 -195q190 195 375 195q143 0 228.5 -89t89.5 -245q-4 -156 -89 -245t-229 -89q-180 0 -375 195q-194 -195 -374 -195zM410 451q109 0 247 145q-139 145 -247 145q-55 0 -93 -41t-41 -104 q2 -61 40.5 -103t93.5 -42zM1159 451q55 0 92 39.5t39 105.5q-2 66 -39 105.5t-92 39.5q-111 0 -250 -145q141 -145 250 -145z" glyph-name="infinity" horiz-adv-x="1566" unicode="∞"/><glyph d="M344 -387q-98 0 -153.5 72.5t-32.5 179.5h143q0 -61 7 -81t36 -20q37 0 37 43v1516q0 84 55.5 139.5t138.5 55.5q94 0 149.5 -74t33.5 -178h-146q0 61 -6 80.5t-33 19.5q-41 0 -41 -43v-1516q0 -84 -54 -139t-134 -55z" glyph-name="integral" horiz-adv-x="913" unicode="∫"/><glyph d="M805 649q-51 0 -94 13.5t-84 46t-54.5 45t-48.5 51.5q-68 78 -135 78q-74 0 -115 -62.5t-28 -150.5h-152q-20 160 66 262t231 102q82 0 139.5 -35.5t120.5 -111.5q68 -88 142 -88q70 0 111.5 58t27.5 153h149q25 -152 -57 -256.5t-219 -104.5zM805 225q-51 0 -94 13.5 t-84 46t-54.5 45t-48.5 51.5q-68 78 -135 78q-74 0 -115 -62.5t-28 -150.5h-152q-20 162 66 264t231 102q80 0 138.5 -35.5t121.5 -113.5q68 -88 142 -88q70 0 111.5 58.5t27.5 152.5h149q25 -152 -57 -256.5t-219 -104.5z" glyph-name="approxequal" horiz-adv-x="1177" unicode="≈"/><glyph d="M891 653l-189 -219h617v-188h-776l-195 -228h-166l195 228h-287v188h449l186 219h-635v187h797l172 202h166l-174 -202h268v-187h-428z" glyph-name="notequal" horiz-adv-x="1406" unicode="≠"/><glyph d="M1343 1257l-884 -380l884 -383v-248l-1130 497v267l1130 493v-246zM213 170h1130v-170h-1130v170z" glyph-name="lessequal" horiz-adv-x="1554" unicode="≤"/><glyph d="M1343 1010v-267l-1130 -497v248l883 383l-883 380v246zM213 170h1130v-170h-1130v170z" glyph-name="greaterequal" horiz-adv-x="1554" unicode="≥"/><glyph d="M152 723l618 618l616 -616l-616 -619zM1061 725l-291 291l-293 -293l293 -291z" glyph-name="lozenge" horiz-adv-x="1538" unicode="◊"/><glyph glyph-name="glyph432"/><glyph d="M375 1100l-262 -62l385 498l385 -498l-260 62v-1100h-248v1100z" glyph-name="glyph433" horiz-adv-x="995"/><glyph d="M295 1200q-68 0 -118 49t-50 119t50 119t118 49q70 0 120 -49t50 -119t-50 -119t-120 -49zM145 1024h299v-1024h-299v1024z" glyph-name="i.locl" horiz-adv-x="696"/><glyph d="M1120 311h-667l-117 -311h-334l616 1536h347l616 -1536h-334zM1032 578l-239 645l-250 -645h489z" glyph-name="glyph435" horiz-adv-x="1585"/><glyph d="M909 1706h-225l170 342h299zM1120 311h-667l-117 -311h-334l616 1536h347l616 -1536h-334zM1032 578l-239 645l-250 -645h489z" glyph-name="glyph436" horiz-adv-x="1585"/><glyph d="M793 1653q-166 0 -265.5 91t-99.5 261h170q0 -72 54.5 -127t140.5 -55q88 0 143 54t55 128h170q0 -170 -99 -261t-269 -91zM1120 311h-667l-117 -311h-334l616 1536h347l616 -1536h-334zM1032 578l-239 645l-250 -645h489z" glyph-name="glyph437" horiz-adv-x="1585"/><glyph d="M637 1698l-215 350h217l154 -221l155 221h217l-219 -350h-309zM1120 311h-667l-117 -311h-334l616 1536h347l616 -1536h-334zM1032 578l-239 645l-250 -645h489z" glyph-name="glyph438" horiz-adv-x="1585"/><glyph d="M647 1698h-225l215 350h309l219 -350h-227l-145 221zM1120 311h-667l-117 -311h-334l616 1536h347l616 -1536h-334zM1032 578l-239 645l-250 -645h489z" glyph-name="glyph439" horiz-adv-x="1585"/><glyph d="M569.5 1692q-69.5 0 -119 49t-49.5 118.5t49.5 119t119 49.5t118.5 -49.5t49 -119t-49 -118.5t-118.5 -49zM1016 1692q-68 0 -118 49t-50 118.5t50 119t118 49.5q70 0 119 -49.5t49 -119t-49 -118.5t-119 -49zM1120 311h-667l-117 -311h-334l616 1536h347l616 -1536h-334 zM1032 578l-239 645l-250 -645h489z" glyph-name="glyph440" horiz-adv-x="1585"/><glyph d="M1120 311h-667l-117 -311h-334l616 1536h347l616 -1536h-334zM1032 578l-239 645l-250 -645h489zM794.5 -100q69.5 0 119 -49.5t49.5 -119t-49.5 -118.5t-119 -49t-118.5 49t-49 118.5t49 119t118.5 49.5z" glyph-name="glyph441" horiz-adv-x="1585"/><glyph d="M670 1706l-246 342h299l170 -342h-223zM1120 311h-667l-117 -311h-334l616 1536h347l616 -1536h-334zM1032 578l-239 645l-250 -645h489z" glyph-name="glyph442" horiz-adv-x="1585"/><glyph d="M1112 1708h-635v188h635v-188zM1120 311h-667l-117 -311h-334l616 1536h347l616 -1536h-334zM1032 578l-239 645l-250 -645h489z" glyph-name="glyph443" horiz-adv-x="1585"/><glyph d="M1581 -276l94 -132q-133 -137 -329 -122q-119 8 -193 66t-74 169q0 195 234 295h-66l-127 311h-667l-117 -311h-334l616 1536h347l616 -1536q-158 -6 -230.5 -90t-72.5 -180q0 -51 31.5 -83t87.5 -32q53 0 104 31t80 78zM543 578h489l-239 645z" glyph-name="glyph444" horiz-adv-x="1585"/><glyph d="M977 1505l604 -1505h-334l-127 311h-667l-117 -311h-334l604 1507q-53 66 -53 152q0 96 70.5 166.5t171.5 70.5q98 0 167.5 -70.5t69.5 -166.5q0 -88 -55 -154zM794.5 1778q-49.5 0 -83 -35t-33.5 -84q0 -53 33.5 -86t83 -33t83 33t33.5 86q0 49 -33.5 84t-83 35z M543 578h489l-239 645z" glyph-name="glyph445" horiz-adv-x="1585"/><glyph d="M455 1690q-31 133 30.5 222t171.5 89q129 0 209 -119q20 -39 56 -39q37 0 47 39t-11 100h175q31 -131 -29 -220t-176 -89q-123 0 -207 119q-25 39 -55 39q-37 0 -47.5 -40t10.5 -101h-174zM1120 311h-667l-117 -311h-334l616 1536h347l616 -1536h-334zM1032 578l-239 645 l-250 -645h489z" glyph-name="glyph446" horiz-adv-x="1585"/><glyph d="M618 1536h1227v-260h-608v-391h522v-232h-522v-391h608v-262h-907v319h-479l-111 -319h-346zM940 553v723h-109l-274 -723h383z" glyph-name="glyph447" horiz-adv-x="1916"/><glyph d="M979 793q133 -41 210 -135.5t77 -239.5q0 -193 -128 -305.5t-323 -112.5h-692v1536h594q197 0 325.5 -114.5t128.5 -309.5q1 -208 -192 -319zM864 1081q0 76 -54 131.5t-130 55.5h-250v-355h250q78 0 131 47t53 121zM770 270q78 0 132 55.5t54 131.5q0 78 -55 142.5 t-131 64.5h-340v-394h340z" glyph-name="glyph448" horiz-adv-x="1298"/><glyph d="M1020 793q133 -41 210 -135.5t77 -239.5q0 -193 -128 -305.5t-323 -112.5h-733v1536h635q197 0 325.5 -114.5t128.5 -309.5q1 -208 -192 -319zM905 1081q0 76 -54 131.5t-130 55.5h-291v-355h291q78 0 131 47t53 121zM811 270q78 0 132 55.5t54 131.5q0 78 -55 142.5 t-131 64.5h-381v-394h381zM663.5 -100q69.5 0 118.5 -49.5t49 -119t-49 -118.5t-118.5 -49t-118.5 49t-49 118.5t49 119t118.5 49.5z" glyph-name="glyph449" horiz-adv-x="1339"/><glyph d="M827 -20q-328 0 -538.5 228t-210.5 560q0 334 210 561t539 227q295 0 490.5 -173t212.5 -451h-291q-16 129 -119.5 229.5t-292.5 100.5q-211 0 -333.5 -140.5t-122.5 -353.5q0 -215 122.5 -355.5t333.5 -140.5q180 0 288 100.5t124 221.5h291q-20 -246 -225.5 -430 t-477.5 -184z" glyph-name="glyph450" horiz-adv-x="1669"/><glyph d="M887 2048h299l-244 -342h-225zM827 -20q-328 0 -538.5 228t-210.5 560q0 334 210 561t539 227q295 0 490.5 -173t212.5 -451h-291q-16 129 -119.5 229.5t-292.5 100.5q-211 0 -333.5 -140.5t-122.5 -353.5q0 -215 122.5 -355.5t333.5 -140.5q180 0 288 100.5t124 221.5 h291q-20 -246 -225.5 -430t-477.5 -184z" glyph-name="glyph451" horiz-adv-x="1669"/><glyph d="M457 2048h217l153 -221l156 221h217l-219 -350h-309zM827 -20q-328 0 -538.5 228t-210.5 560q0 334 210 561t539 227q295 0 490.5 -173t212.5 -451h-291q-16 129 -119.5 229.5t-292.5 100.5q-211 0 -333.5 -140.5t-122.5 -353.5q0 -215 122.5 -355.5t333.5 -140.5 q180 0 288 100.5t124 221.5h291q-20 -246 -225.5 -430t-477.5 -184z" glyph-name="glyph452" horiz-adv-x="1669"/><glyph d="M827 272q180 0 288 100.5t124 221.5h291q-18 -231 -203.5 -411.5t-439.5 -200.5l-60 -105q100 18 171 -36t71 -150q0 -94 -64.5 -158.5t-158.5 -64.5q-76 0 -146.5 44t-93.5 107l129 45q16 -27 48 -45t63 -18q37 0 61.5 26.5t24.5 63.5q0 57 -48 74.5t-120 -15.5l-107 62 l93 172q-297 29 -484.5 251t-187.5 533q0 334 210 561t539 227q295 0 490.5 -173t212.5 -451h-291q-16 129 -119.5 229.5t-292.5 100.5q-211 0 -333.5 -140.5t-122.5 -353.5q0 -215 122.5 -355.5t333.5 -140.5z" glyph-name="glyph453" horiz-adv-x="1669"/><glyph d="M827.5 1692q-69.5 0 -119 49t-49.5 118.5t49.5 119t119 49.5t118.5 -49.5t49 -119t-49 -118.5t-118.5 -49zM827 -20q-328 0 -538.5 228t-210.5 560q0 334 210 561t539 227q295 0 490.5 -173t212.5 -451h-291q-16 129 -119.5 229.5t-292.5 100.5q-211 0 -333.5 -140.5 t-122.5 -353.5q0 -215 122.5 -355.5t333.5 -140.5q180 0 288 100.5t124 221.5h291q-20 -246 -225.5 -430t-477.5 -184z" glyph-name="glyph454" horiz-adv-x="1669"/><glyph d="M123 1536h491q332 0 550 -203t218 -565q0 -365 -217 -566.5t-551 -201.5h-491v1536zM612 270q209 0 336 122t127 376q0 260 -126 380t-337 120h-182v-998h182z" glyph-name="glyph455" horiz-adv-x="1458"/><glyph d="M764 1536q317 0 542.5 -225.5t225.5 -542.5t-225.5 -542.5t-542.5 -225.5h-492v684h-149v168h149v684h492zM762 270q195 0 329 144.5t134 353.5q0 211 -134.5 355.5t-328.5 144.5h-182v-416h239v-168h-239v-414h182z" glyph-name="glyph456" horiz-adv-x="1607"/><glyph d="M242 2048h217l153 -221l156 221h217l-219 -350h-309zM123 1536h532q332 0 550 -203t218 -565q0 -365 -217 -566.5t-551 -201.5h-532v1536zM653 270q209 0 336 122t127 376q0 260 -126 380t-337 120h-223v-998h223z" glyph-name="glyph457" horiz-adv-x="1499"/><glyph d="M805 1536q332 0 550 -203t218 -565q0 -365 -217 -566.5t-551 -201.5h-533v684h-149v168h149v684h533zM803 270q209 0 336 122t127 376q0 260 -126 380t-337 120h-223v-416h198v-168h-198v-414h223z" glyph-name="glyph458" horiz-adv-x="1648"/><glyph d="M432 1268v-365h557v-270h-557v-363h643v-270h-952v1536h952v-268h-643z" glyph-name="glyph459" horiz-adv-x="1189"/><glyph d="M694 1706h-225l170 342h299zM432 1268v-365h617v-270h-617v-363h703v-270h-1012v1536h1012v-268h-703z" glyph-name="glyph460" horiz-adv-x="1249"/><glyph d="M422 1698l-215 350h217l154 -221l155 221h217l-219 -350h-309zM432 1268v-365h617v-270h-617v-363h703v-270h-1012v1536h1012v-268h-703z" glyph-name="glyph461" horiz-adv-x="1249"/><glyph d="M1135 1268h-703v-365h617v-270h-617v-363h703v-270h-488l-69 -123q100 18 170.5 -36t70.5 -150q0 -94 -64.5 -158.5t-158.5 -64.5q-76 0 -146.5 44t-93.5 107l129 45q16 -27 48 -45t63 -18q37 0 61.5 26.5t24.5 63.5q0 57 -48 74.5t-120 -15.5l-106 62l102 188h-387v1536 h1012v-268z" glyph-name="glyph462" horiz-adv-x="1249"/><glyph d="M432 1698h-225l215 350h309l219 -350h-227l-145 221zM432 1268v-365h617v-270h-617v-363h703v-270h-1012v1536h1012v-268h-703z" glyph-name="glyph463" horiz-adv-x="1249"/><glyph d="M354.5 1692q-69.5 0 -119 49t-49.5 118.5t49.5 119t119 49.5t118.5 -49.5t49 -119t-49 -118.5t-118.5 -49zM801 1692q-68 0 -118 49t-50 118.5t50 119t118 49.5q70 0 119 -49.5t49 -119t-49 -118.5t-119 -49zM432 1268v-365h617v-270h-617v-363h703v-270h-1012v1536h1012 v-268h-703z" glyph-name="glyph464" horiz-adv-x="1249"/><glyph d="M579.5 1692q-69.5 0 -118.5 49t-49 118.5t49 119t118.5 49.5t119 -49.5t49.5 -119t-49.5 -118.5t-119 -49zM432 1268v-365h617v-270h-617v-363h703v-270h-1012v1536h1012v-268h-703z" glyph-name="glyph465" horiz-adv-x="1249"/><glyph d="M432 1268v-365h617v-270h-617v-363h703v-270h-1012v1536h1012v-268h-703zM579.5 -100q69.5 0 119 -49.5t49.5 -119t-49.5 -118.5t-119 -49t-118.5 49t-49 118.5t49 119t118.5 49.5z" glyph-name="glyph466" horiz-adv-x="1249"/><glyph d="M455 1706l-246 342h299l170 -342h-223zM432 1268v-365h617v-270h-617v-363h703v-270h-1012v1536h1012v-268h-703z" glyph-name="glyph467" horiz-adv-x="1249"/><glyph d="M897 1708h-635v188h635v-188zM432 1268v-365h617v-270h-617v-363h703v-270h-1012v1536h1012v-268h-703z" glyph-name="glyph468" horiz-adv-x="1249"/><glyph d="M1135 1268h-703v-365h617v-270h-617v-363h703v-270h-101q-137 0 -220 -87t-83 -183q0 -51 32 -83t87 -32q53 0 104.5 30.5t79.5 78.5l94 -132q-133 -137 -329 -122q-119 8 -193 66t-74 169q0 195 234 295h-643v1536h1012v-268z" glyph-name="glyph469" horiz-adv-x="1249"/><glyph d="M240 1690q-31 133 30.5 222t171.5 89q129 0 209 -119q20 -39 56 -39q37 0 47 39t-11 100h175q31 -131 -29 -220t-176 -89q-123 0 -207 119q-25 39 -55 39q-37 0 -47.5 -40t10.5 -101h-174zM432 1268v-365h617v-270h-617v-363h703v-270h-1012v1536h1012v-268h-703z" glyph-name="glyph470" horiz-adv-x="1249"/><glyph d="M432 1268v-365h557v-270h-557v-633h-309v1536h952v-268h-643z" glyph-name="glyph471" horiz-adv-x="1118"/><glyph d="M805 1272q-227 0 -347 -134t-120 -378q0 -227 131 -364.5t317 -137.5q168 0 287 81t119 220h-375v264h696q0 -201 -35.5 -350t-116.5 -266t-224.5 -177.5t-348.5 -60.5q-336 0 -539.5 216t-203.5 574.5t202 577.5t527 219q285 0 480.5 -141t226.5 -414h-303 q-20 121 -124 196t-249 75z" glyph-name="glyph472" horiz-adv-x="1599"/><glyph d="M848 1653q-166 0 -265.5 91t-99.5 261h170q0 -72 54.5 -127t140.5 -55q88 0 143.5 54t55.5 128h170q0 -170 -99.5 -261t-269.5 -91zM1499 821v-311v-510h-207l-37 186q-154 -197 -467 -196q-330 0 -529.5 210t-199.5 560t198 565t517 215q182 0 327.5 -56.5t245 -181 t119.5 -305.5h-297q-20 119 -120.5 192t-243.5 73q-223 0 -341 -131.5t-118 -370.5q0 -223 129 -357.5t311 -134.5q166 0 282 79t116 216h-367v258h682z" glyph-name="glyph473" horiz-adv-x="1599"/><glyph d="M694 1698l-215 350h217l154 -221l156 221h217l-219 -350h-310zM1499 821v-311v-510h-207l-37 186q-154 -197 -467 -196q-330 0 -529.5 210t-199.5 560t198 565t517 215q182 0 327.5 -56.5t245 -181t119.5 -305.5h-297q-20 119 -120.5 192t-243.5 73q-223 0 -341 -131.5 t-118 -370.5q0 -223 129 -357.5t311 -134.5q166 0 282 79t116 216h-367v258h682z" glyph-name="glyph474" horiz-adv-x="1599"/><glyph d="M1499 821v-311v-510h-207l-37 186q-154 -197 -467 -196q-330 0 -529.5 210t-199.5 560t198 565t517 215q182 0 327.5 -56.5t245 -181t119.5 -305.5h-297q-20 119 -120.5 192t-243.5 73q-223 0 -341 -131.5t-118 -370.5q0 -223 129 -357.5t311 -134.5q166 0 282 79 t116 216h-367v258h682zM809 -426q-51 18 -81 61t-30 97q0 70 48.5 118t117.5 48q68 0 115 -48.5t47 -117.5q0 -117 -147 -301h-170z" glyph-name="glyph475" horiz-adv-x="1599"/><glyph d="M891 1692q-70 0 -119 49t-49 118.5t49 119t119 49.5t119 -49.5t49 -119t-49 -118.5t-119 -49zM1499 821v-311v-510h-207l-37 186q-154 -197 -467 -196q-330 0 -529.5 210t-199.5 560t198 565t517 215q182 0 327.5 -56.5t245 -181t119.5 -305.5h-297q-20 119 -120.5 192 t-243.5 73q-223 0 -341 -131.5t-118 -370.5q0 -223 129 -357.5t311 -134.5q166 0 282 79t116 216h-367v258h682z" glyph-name="glyph476" horiz-adv-x="1599"/><glyph d="M1401 1536v-1536h-309v633h-660v-633h-309v1536h309v-631h660v631h309z" glyph-name="glyph477" horiz-adv-x="1523"/><glyph d="M1642 1151h-120v-1151h-310v633h-659v-633h-309v1151h-121v115h121v270h309v-270h659v270h310v-270h120v-115zM1212 1151h-659v-246h659v246z" glyph-name="glyph478" horiz-adv-x="1765"/><glyph d="M1401 1536v-1536h-309v633h-660v-633h-309v1536h309v-631h660v631h309zM764 -100q70 0 119 -49.5t49 -119t-49 -118.5t-119 -49t-119 49t-49 118.5t49 119t119 49.5z" glyph-name="glyph479" horiz-adv-x="1523"/><glyph d="M123 1536h309v-1536h-309v1536z" glyph-name="glyph480" horiz-adv-x="555"/><glyph d="M143 1536h310v-1536h-310v1536zM934 -20q-106 0 -164 20v313q68 -25 143 -24q45 0 78 32.5t33 77.5v1137h307v-1167q0 -174 -111.5 -281.5t-285.5 -107.5z" glyph-name="glyph481" horiz-adv-x="1585"/><glyph d="M336 2048h299l-244 -342h-225zM123 1536h309v-1536h-309v1536z" glyph-name="glyph482" horiz-adv-x="555"/><glyph d="M-98 2048h219l153 -221l156 221h217l-219 -350h-309zM123 1536h309v-1536h-309v1536z" glyph-name="glyph483" horiz-adv-x="555"/><glyph d="M119 2048h309l219 -350h-227l-146 221l-145 -221h-227zM123 1536h309v-1536h-309v1536z" glyph-name="glyph484" horiz-adv-x="555"/><glyph d="M51.5 1692q-69.5 0 -120 49t-50.5 118.5t50.5 119t120 49.5t118.5 -49.5t49 -119t-49 -118.5t-118.5 -49zM498 1692q-68 0 -118 49t-50 118.5t50 119t118 49.5q70 0 119 -49.5t49 -119t-49 -118.5t-119 -49zM123 1536h309v-1536h-309v1536z" glyph-name="glyph485" horiz-adv-x="555"/><glyph d="M276.5 1692q-69.5 0 -118.5 49t-49 118.5t49 119t118.5 49.5t118.5 -49.5t49 -119t-49 -118.5t-118.5 -49zM123 1536h309v-1536h-309v1536z" glyph-name="glyph486" horiz-adv-x="555"/><glyph d="M123 1536h309v-1536h-309v1536zM276.5 -436q-69.5 0 -118.5 49t-49 118.5t49 119t118.5 49.5t118.5 -49.5t49 -119t-49 -118.5t-118.5 -49z" glyph-name="glyph487" horiz-adv-x="555"/><glyph d="M-96 2048h301l170 -342h-223zM123 1536h309v-1536h-309v1536z" glyph-name="glyph488" horiz-adv-x="555"/><glyph d="M-43 1896h637v-188h-637v188zM123 1536h309v-1536h-309v1536z" glyph-name="glyph489" horiz-adv-x="555"/><glyph d="M492 -408q-133 -137 -330 -122q-119 8 -193.5 66t-74.5 169q0 195 235 295h-6v1536h309v-1536h-35q-137 0 -220 -87t-83 -183q0 -51 32 -83t87 -32q53 0 104.5 30.5t79.5 78.5z" glyph-name="glyph490" horiz-adv-x="555"/><glyph d="M410 1673q-123 0 -207 119q-25 39 -56 39q-37 0 -47 -40t11 -101h-177q-29 133 33 222t172 89q129 0 209 -119q20 -39 55 -39q37 0 47.5 39t-10.5 100h174q31 -131 -28 -220t-176 -89zM123 1536h309v-1536h-309v1536z" glyph-name="glyph491" horiz-adv-x="555"/><glyph d="M238 -20q-106 0 -164 20v313q68 -25 143 -24q45 0 78 32.5t33 77.5v1137h307v-1167q0 -174 -111.5 -281.5t-285.5 -107.5z" glyph-name="glyph492" horiz-adv-x="763"/><glyph d="M1034 0l-602 686v-686h-309v1536h309v-682l518 682h355l-555 -752l688 -784h-404z" glyph-name="glyph493" horiz-adv-x="1435"/><glyph d="M1034 0l-602 686v-686h-309v1536h309v-682l518 682h355l-555 -752l688 -784h-404zM657 -371q-51 18 -80.5 61.5t-29.5 96.5q0 70 48 118t118 48q68 0 114.5 -48t46.5 -118q0 -117 -147 -301h-170z" glyph-name="glyph494" horiz-adv-x="1435"/><glyph d="M123 1536h309v-1266h518v-270h-827v1536z" glyph-name="glyph495" horiz-adv-x="1015"/><glyph d="M338 2048h299l-244 -342h-225zM123 1536h309v-1266h518v-270h-827v1536z" glyph-name="glyph496" horiz-adv-x="1015"/><glyph d="M811 1214q-51 18 -81 61.5t-30 96.5q0 70 48.5 118t117.5 48q68 0 115 -48t47 -118q0 -117 -147 -301h-170zM123 1536h309v-1266h518v-270h-827v1536z" glyph-name="glyph497" horiz-adv-x="1093"/><glyph d="M123 1536h309v-1266h518v-270h-827v1536zM483 -422q-51 18 -80.5 61.5t-29.5 96.5q0 70 48 118t118 48q68 0 114.5 -48.5t46.5 -117.5q0 -117 -147 -301h-170z" glyph-name="glyph498" horiz-adv-x="1015"/><glyph d="M123 1536h309v-1266h518v-270h-827v1536zM538.5 -436q-69.5 0 -118.5 49t-49 118.5t49 119t118.5 49.5t119 -49.5t49.5 -119t-49.5 -118.5t-119 -49z" glyph-name="glyph499" horiz-adv-x="1015"/><glyph d="M1206 270v-270h-827v516l-78 -80h-178l256 269v831h309v-508l68 72h184l-252 -262v-568h518z" glyph-name="glyph500" horiz-adv-x="1271"/><glyph d="M1794 1536v-1536h-307v1102l-365 -1102h-319l-371 1102v-1102h-309v1536h434l401 -1139l406 1139h430z" glyph-name="glyph501" horiz-adv-x="1916"/><glyph d="M1532 1536v-1536h-315l-785 1069v-1069h-309v1536h315l787 -1067v1067h307z" glyph-name="glyph502" horiz-adv-x="1654"/><glyph d="M948 1706h-225l170 342h299zM1532 1536v-1536h-315l-785 1069v-1069h-309v1536h315l787 -1067v1067h307z" glyph-name="glyph503" horiz-adv-x="1654"/><glyph d="M676 1698l-215 350h217l153 -221l156 221h217l-219 -350h-309zM1532 1536v-1536h-315l-785 1069v-1069h-309v1536h315l787 -1067v1067h307z" glyph-name="glyph504" horiz-adv-x="1654"/><glyph d="M1532 1536v-1536h-315l-785 1069v-1069h-309v1536h315l787 -1067v1067h307zM801 -362q-51 18 -81 61t-30 96q0 70 48 118t118 48q68 0 115 -48t47 -118q0 -117 -148 -301h-170z" glyph-name="glyph505" horiz-adv-x="1654"/><glyph d="M833.5 1692q-69.5 0 -118.5 49t-49 118.5t49 119t118.5 49.5t118.5 -49.5t49 -119t-49 -118.5t-118.5 -49zM1532 1536v-1536h-315l-785 1069v-1069h-309v1536h315l787 -1067v1067h307z" glyph-name="glyph506" horiz-adv-x="1654"/><glyph d="M1532 1536v-1536h-315l-785 1069v-1069h-309v1536h315l787 -1067v1067h307zM825.5 -100q69.5 0 118.5 -49.5t49 -119t-49 -118.5t-118.5 -49t-119 49t-49.5 118.5t49.5 119t119 49.5z" glyph-name="glyph507" horiz-adv-x="1654"/><glyph d="M1520 1536v-1640q0 -193 -127 -282t-338 -89v196q80 0 118.5 33t38.5 142v112l-792 1045v-1053h-297v1536h305l795 -1051v1051h297z" glyph-name="glyph508" horiz-adv-x="1642"/><glyph d="M494 1690q-31 133 30.5 222t171.5 89q129 0 209 -119q20 -39 56 -39q37 0 47 39t-11 100h174q31 -131 -28.5 -220t-175.5 -89q-123 0 -207 119q-25 39 -55 39q-37 0 -47.5 -40t10.5 -101h-174zM1532 1536v-1536h-315l-785 1069v-1069h-309v1536h315l787 -1067v1067h307z " glyph-name="glyph509" horiz-adv-x="1654"/><glyph d="M827 -20q-330 0 -539.5 227t-209.5 561t210 561t539 227q328 0 539 -228t211 -560t-211 -560t-539 -228zM827 279q209 0 330 138t121 351q0 215 -121 353.5t-330 138.5q-211 0 -332.5 -138.5t-121.5 -353.5q0 -213 122.5 -351t331.5 -138z" glyph-name="glyph510" horiz-adv-x="1652"/><glyph d="M887 2048h299l-244 -342h-225zM827 -20q-330 0 -539.5 227t-209.5 561t210 561t539 227q328 0 539 -228t211 -560t-211 -560t-539 -228zM827 279q209 0 330 138t121 351q0 215 -121 353.5t-330 138.5q-211 0 -332.5 -138.5t-121.5 -353.5q0 -213 122.5 -351t331.5 -138z " glyph-name="glyph511" horiz-adv-x="1652"/><glyph d="M457 2048h217l153 -221l156 221h217l-219 -350h-309zM827 -20q-330 0 -539.5 227t-209.5 561t210 561t539 227q328 0 539 -228t211 -560t-211 -560t-539 -228zM827 279q209 0 330 138t121 351q0 215 -121 353.5t-330 138.5q-211 0 -332.5 -138.5t-121.5 -353.5 q0 -213 122.5 -351t331.5 -138z" glyph-name="glyph512" horiz-adv-x="1652"/><glyph d="M672 2048h309l219 -350h-227l-146 221l-145 -221h-225zM827 -20q-330 0 -539.5 227t-209.5 561t210 561t539 227q328 0 539 -228t211 -560t-211 -560t-539 -228zM827 279q209 0 330 138t121 351q0 215 -121 353.5t-330 138.5q-211 0 -332.5 -138.5t-121.5 -353.5 q0 -213 122.5 -351t331.5 -138z" glyph-name="glyph513" horiz-adv-x="1652"/><glyph d="M604.5 1692q-69.5 0 -119 49t-49.5 118.5t49.5 119t119 49.5t118.5 -49.5t49 -119t-49 -118.5t-118.5 -49zM1051 1692q-68 0 -118 49t-50 118.5t50 119t118 49.5q70 0 119 -49.5t49 -119t-49 -118.5t-119 -49zM827 -20q-330 0 -539.5 227t-209.5 561t210 561t539 227 q328 0 539 -228t211 -560t-211 -560t-539 -228zM827 279q209 0 330 138t121 351q0 215 -121 353.5t-330 138.5q-211 0 -332.5 -138.5t-121.5 -353.5q0 -213 122.5 -351t331.5 -138z" glyph-name="glyph514" horiz-adv-x="1652"/><glyph d="M827 -20q-330 0 -539.5 227t-209.5 561t210 561t539 227q328 0 539 -228t211 -560t-211 -560t-539 -228zM827 279q209 0 330 138t121 351q0 215 -121 353.5t-330 138.5q-211 0 -332.5 -138.5t-121.5 -353.5q0 -213 122.5 -351t331.5 -138zM827.5 -436q-69.5 0 -119 49 t-49.5 118.5t49.5 119t119 49.5t118.5 -49.5t49 -119t-49 -118.5t-118.5 -49z" glyph-name="glyph515" horiz-adv-x="1652"/><glyph d="M457 2048h299l170 -342h-224zM827 -20q-330 0 -539.5 227t-209.5 561t210 561t539 227q328 0 539 -228t211 -560t-211 -560t-539 -228zM827 279q209 0 330 138t121 351q0 215 -121 353.5t-330 138.5q-211 0 -332.5 -138.5t-121.5 -353.5q0 -213 122.5 -351t331.5 -138z " glyph-name="glyph516" horiz-adv-x="1652"/><glyph d="M797 2048h278l-358 -365h-207zM1221 2048h280l-358 -365h-207zM827 -20q-330 0 -539.5 227t-209.5 561t210 561t539 227q328 0 539 -228t211 -560t-211 -560t-539 -228zM827 279q209 0 330 138t121 351q0 215 -121 353.5t-330 138.5q-211 0 -332.5 -138.5t-121.5 -353.5 q0 -213 122.5 -351t331.5 -138z" glyph-name="glyph517" horiz-adv-x="1652"/><glyph d="M510 1896h635v-188h-635v188zM827 -20q-330 0 -539.5 227t-209.5 561t210 561t539 227q328 0 539 -228t211 -560t-211 -560t-539 -228zM827 279q209 0 330 138t121 351q0 215 -121 353.5t-330 138.5q-211 0 -332.5 -138.5t-121.5 -353.5q0 -213 122.5 -351t331.5 -138z " glyph-name="glyph518" horiz-adv-x="1652"/><glyph d="M1319 1374q123 -111 190.5 -268.5t67.5 -337.5q0 -332 -211 -560t-539 -228q-207 0 -370 94l-92 -142h-183l152 230q-121 109 -188.5 266.5t-67.5 339.5q0 334 210 561t539 227q201 0 369 -94l92 140h182zM373 768q0 -219 127 -356l532 802q-94 45 -205 46 q-211 0 -332.5 -138.5t-121.5 -353.5zM827 279q209 0 330 138t121 351q0 221 -123 356l-532 -802q85 -43 204 -43z" glyph-name="glyph519" horiz-adv-x="1652"/><glyph d="M942 1706h-225l170 342h299zM1319 1374q123 -111 190.5 -268.5t67.5 -337.5q0 -332 -211 -560t-539 -228q-207 0 -370 94l-92 -142h-183l152 230q-121 109 -188.5 266.5t-67.5 339.5q0 334 210 561t539 227q201 0 369 -94l92 140h182zM373 768q0 -219 127 -356l532 802 q-94 45 -205 46q-211 0 -332.5 -138.5t-121.5 -353.5zM827 279q209 0 330 138t121 351q0 221 -123 356l-532 -802q85 -43 204 -43z" glyph-name="glyph520" horiz-adv-x="1652"/><glyph d="M961 1673q-123 0 -207 119q-25 39 -56 39q-37 0 -47 -40t11 -101h-175q-31 133 31 222t172 89q129 0 209 -119q20 -39 55 -39q37 0 47.5 39t-10.5 100h174q31 -131 -28 -220t-176 -89zM827 -20q-330 0 -539.5 227t-209.5 561t210 561t539 227q328 0 539 -228t211 -560 t-211 -560t-539 -228zM827 279q209 0 330 138t121 351q0 215 -121 353.5t-330 138.5q-211 0 -332.5 -138.5t-121.5 -353.5q0 -213 122.5 -351t331.5 -138z" glyph-name="glyph521" horiz-adv-x="1652"/><glyph d="M2392 1268h-702v-365h616v-270h-616v-363h702v-270h-1012v172q-223 -190 -514 -190q-328 0 -558 230t-230 558t230.5 558.5t557.5 230.5q291 0 514 -191v168h1012v-268zM866 279q207 0 349.5 143t142.5 348t-142.5 348.5t-349.5 143.5t-349 -143.5t-142 -348.5t142 -348 t349 -143z" glyph-name="glyph522" horiz-adv-x="2506"/><glyph d="M758 1536q188 0 321 -151.5t133 -346t-133 -341t-321 -146.5h-326v-551h-309v1536h635zM729 803q82 0 142.5 71.5t60.5 161.5q0 88 -60.5 160t-142.5 72h-297v-465h297z" glyph-name="glyph523" horiz-adv-x="1249"/><glyph d="M754 1315q188 0 319 -134t131 -327q0 -186 -131 -314t-319 -128h-332v-412h-299v1536h299v-221h332zM743 674q80 0 135.5 56t55.5 134t-55.5 132.5t-135.5 54.5h-321v-377h321z" glyph-name="glyph524" horiz-adv-x="1241"/><glyph d="M1618 233v-233h-66q-162 0 -270 115l-10 8q-193 -143 -445 -143q-330 0 -539.5 227t-209.5 561t210 561t539 227q328 0 539 -228t211 -560q0 -260 -135 -463l24 -24q47 -47 133 -48h19zM827 279q139 0 240 61l-213 225l170 174l205 -213q49 109 49 242q0 215 -121 353.5 t-330 138.5q-211 0 -332.5 -138.5t-121.5 -353.5q0 -213 122.5 -351t331.5 -138z" glyph-name="glyph525" horiz-adv-x="1644"/><glyph d="M1286 0h-346l-356 569h-152v-569h-309v1536h635q186 0 320 -151.5t134 -348.5q0 -154 -91 -282.5t-228 -163.5zM745 809q80 0 133.5 63.5t53.5 165.5q0 98 -53.5 164t-133.5 66h-313v-459h313z" glyph-name="glyph526" horiz-adv-x="1353"/><glyph d="M768 1706h-225l170 342h299zM1348 0h-347l-356 569h-213v-569h-309v1536h696q186 0 320.5 -151.5t134.5 -348.5q0 -154 -91 -282.5t-229 -163.5zM807 809q80 0 133 63.5t53 165.5q0 98 -53 164t-133 66h-375v-459h375z" glyph-name="glyph527" horiz-adv-x="1415"/><glyph d="M498 1698l-215 350h217l153 -221l156 221h217l-219 -350h-309zM1348 0h-347l-356 569h-213v-569h-309v1536h696q186 0 320.5 -151.5t134.5 -348.5q0 -154 -91 -282.5t-229 -163.5zM807 809q80 0 133 63.5t53 165.5q0 98 -53 164t-133 66h-375v-459h375z" glyph-name="glyph528" horiz-adv-x="1415"/><glyph d="M1348 0h-347l-356 569h-213v-569h-309v1536h696q186 0 320.5 -151.5t134.5 -348.5q0 -154 -91 -282.5t-229 -163.5zM807 809q80 0 133 63.5t53 165.5q0 98 -53 164t-133 66h-375v-459h375zM616 -371q-51 18 -80.5 61.5t-29.5 96.5q0 70 48 118t118 48q68 0 115 -48 t47 -118q0 -117 -148 -301h-170z" glyph-name="glyph529" horiz-adv-x="1415"/><glyph d="M680 -20q-250 0 -402.5 140t-175.5 376l269 -2q55 -227 319 -228q111 0 177.5 41t68.5 125q0 41 -21.5 78t-47 60.5t-83 53t-91.5 43t-107 42.5q-80 31 -127 52t-112.5 60t-101.5 79t-62.5 100.5t-26.5 132.5q0 188 155.5 305.5t382.5 117.5q479 0 570 -499h-287 q-10 98 -80 169.5t-195 71.5q-96 0 -162.5 -42t-66.5 -111q0 -37 20.5 -67.5t68.5 -59.5t86 -45.5t114 -47t114.5 -47t107.5 -51t106.5 -68.5t79.5 -82t60.5 -108.5t18.5 -132.5q0 -223 -159.5 -339.5t-409.5 -116.5z" glyph-name="glyph530" horiz-adv-x="1325"/><glyph d="M748 2048h299l-244 -342h-225zM680 -20q-250 0 -402.5 140t-175.5 376l269 -2q55 -227 319 -228q111 0 177.5 41t68.5 125q0 41 -21.5 78t-47 60.5t-83 53t-91.5 43t-107 42.5q-80 31 -127 52t-112.5 60t-101.5 79t-62.5 100.5t-26.5 132.5q0 188 155.5 305.5 t382.5 117.5q479 0 570 -499h-287q-10 98 -80 169.5t-195 71.5q-96 0 -162.5 -42t-66.5 -111q0 -37 20.5 -67.5t68.5 -59.5t86 -45.5t114 -47t114.5 -47t107.5 -51t106.5 -68.5t79.5 -82t60.5 -108.5t18.5 -132.5q0 -223 -159.5 -339.5t-409.5 -116.5z" glyph-name="glyph531" horiz-adv-x="1325"/><glyph d="M315 2048h217l154 -221l156 221h217l-219 -350h-310zM680 -20q-250 0 -402.5 140t-175.5 376l269 -2q55 -227 319 -228q111 0 177.5 41t68.5 125q0 41 -21.5 78t-47 60.5t-83 53t-91.5 43t-107 42.5q-80 31 -127 52t-112.5 60t-101.5 79t-62.5 100.5t-26.5 132.5 q0 188 155.5 305.5t382.5 117.5q479 0 570 -499h-287q-10 98 -80 169.5t-195 71.5q-96 0 -162.5 -42t-66.5 -111q0 -37 20.5 -67.5t68.5 -59.5t86 -45.5t114 -47t114.5 -47t107.5 -51t106.5 -68.5t79.5 -82t60.5 -108.5t18.5 -132.5q0 -223 -159.5 -339.5t-409.5 -116.5z " glyph-name="glyph532" horiz-adv-x="1325"/><glyph d="M762 925.5q76 -30.5 114.5 -47t107.5 -51t106.5 -68.5t79.5 -82t60.5 -108.5t18.5 -132.5q0 -211 -144 -326.5t-374 -127.5l-59 -105q100 18 170.5 -36t70.5 -150q0 -94 -64.5 -158.5t-158.5 -64.5q-76 0 -146.5 44t-92.5 107l129 45q16 -27 47.5 -45t62.5 -18 q37 0 61.5 26.5t24.5 63.5q0 57 -48 74.5t-120 -15.5l-106 62l94 172h4q-215 23 -345 160t-153 352l269 -2q55 -227 319 -228q111 0 177.5 41t68.5 125q0 41 -21.5 78t-47 60.5t-83 53t-91.5 43t-107 42.5q-80 31 -127 52t-112.5 60t-101.5 79t-62.5 100.5t-26.5 132.5 q0 188 155.5 305.5t382.5 117.5q479 0 570 -499h-287q-10 98 -80 169.5t-195 71.5q-96 0 -162.5 -42t-66.5 -111q0 -37 20.5 -67.5t68.5 -59.5t86 -45.5t114 -47z" glyph-name="glyph533" horiz-adv-x="1325"/><glyph d="M680 -20q-250 0 -402.5 140t-175.5 376l269 -2q55 -227 319 -228q111 0 177.5 41t68.5 125q0 41 -21.5 78t-47 60.5t-83 53t-91.5 43t-107 42.5q-80 31 -127 52t-112.5 60t-101.5 79t-62.5 100.5t-26.5 132.5q0 188 155.5 305.5t382.5 117.5q479 0 570 -499h-287 q-10 98 -80 169.5t-195 71.5q-96 0 -162.5 -42t-66.5 -111q0 -37 20.5 -67.5t68.5 -59.5t86 -45.5t114 -47t114.5 -47t107.5 -51t106.5 -68.5t79.5 -82t60.5 -108.5t18.5 -132.5q0 -223 -159.5 -339.5t-409.5 -116.5zM621 -473q-51 18 -81 61t-30 97q0 70 48 117.5t118 47.5 q68 0 115 -48t47 -117q0 -117 -148 -301h-170z" glyph-name="glyph534" horiz-adv-x="1325"/><glyph d="M680 -20q-250 0 -402.5 140t-175.5 376l269 -2q55 -227 319 -228q111 0 177.5 41t68.5 125q0 41 -21.5 78t-47 60.5t-83 53t-91.5 43t-107 42.5q-80 31 -127 52t-112.5 60t-101.5 79t-62.5 100.5t-26.5 132.5q0 188 155.5 305.5t382.5 117.5q479 0 570 -499h-287 q-10 98 -80 169.5t-195 71.5q-96 0 -162.5 -42t-66.5 -111q0 -37 20.5 -67.5t68.5 -59.5t86 -45.5t114 -47t114.5 -47t107.5 -51t106.5 -68.5t79.5 -82t60.5 -108.5t18.5 -132.5q0 -223 -159.5 -339.5t-409.5 -116.5zM671.5 -436q-69.5 0 -118.5 49t-49 118.5t49 119 t118.5 49.5t119 -49.5t49.5 -119t-49.5 -118.5t-119 -49z" glyph-name="glyph535" horiz-adv-x="1325"/><glyph d="M1223 1268h-435v-1268h-305v1268h-436v268h1176v-268z" glyph-name="glyph536" horiz-adv-x="1269"/><glyph d="M1223 1268h-435v-416h193v-168h-193v-684h-305v684h-196v168h196v416h-436v268h1176v-268z" glyph-name="glyph537" horiz-adv-x="1269"/><glyph d="M498 1698l-215 350h217l153 -221l156 221h217l-219 -350h-309zM1223 1268h-435v-1268h-305v1268h-436v268h1176v-268z" glyph-name="glyph538" horiz-adv-x="1269"/><glyph d="M788 0h-83l-70 -123q100 18 171 -36t71 -150q0 -94 -64.5 -158.5t-159.5 -64.5q-76 0 -146.5 44t-92.5 107l129 45q16 -27 48 -45t62 -18q37 0 61.5 26.5t24.5 63.5q0 57 -48 74.5t-120 -15.5l-106 62l102 188h-84v1268h-436v268h1176v-268h-435v-1268z" glyph-name="glyph539" horiz-adv-x="1269"/><glyph d="M1223 1268h-435v-1268h-305v1268h-436v268h1176v-268zM590 -457q-51 18 -81 61.5t-30 96.5q0 70 48 118t118 48q68 0 115 -48t47 -118q0 -117 -148 -301h-170z" glyph-name="glyph540" horiz-adv-x="1269"/><glyph d="M1223 1268h-435v-1268h-305v1268h-436v268h1176v-268zM635 -100q70 0 119 -49.5t49 -119t-49 -118.5t-119 -49t-119 49t-49 118.5t49 119t119 49.5z" glyph-name="glyph541" horiz-adv-x="1269"/><glyph d="M756 -20q-264 0 -446.5 149.5t-182.5 366.5v1040h309v-985q0 -125 93.5 -213t226.5 -88t226 88t93 213v985h309v-1040q0 -217 -182 -366.5t-446 -149.5z" glyph-name="glyph542" horiz-adv-x="1511"/><glyph d="M815 2048h299l-244 -342h-225zM756 -20q-264 0 -446.5 149.5t-182.5 366.5v1040h309v-985q0 -125 93.5 -213t226.5 -88t226 88t93 213v985h309v-1040q0 -217 -182 -366.5t-446 -149.5z" glyph-name="glyph543" horiz-adv-x="1511"/><glyph d="M385 2048h217l154 -221l155 221h217l-219 -350h-309zM756 -20q-264 0 -446.5 149.5t-182.5 366.5v1040h309v-985q0 -125 93.5 -213t226.5 -88t226 88t93 213v985h309v-1040q0 -217 -182 -366.5t-446 -149.5z" glyph-name="glyph544" horiz-adv-x="1511"/><glyph d="M600 2048h309l219 -350h-227l-145 221l-146 -221h-225zM756 -20q-264 0 -446.5 149.5t-182.5 366.5v1040h309v-985q0 -125 93.5 -213t226.5 -88t226 88t93 213v985h309v-1040q0 -217 -182 -366.5t-446 -149.5z" glyph-name="glyph545" horiz-adv-x="1511"/><glyph d="M532.5 1692q-69.5 0 -118.5 49t-49 118.5t49 119t118.5 49.5t118.5 -49.5t49 -119t-49 -118.5t-118.5 -49zM979 1692q-68 0 -118 49t-50 118.5t50 119t118 49.5q70 0 119 -49.5t49 -119t-49 -118.5t-119 -49zM756 -20q-264 0 -446.5 149.5t-182.5 366.5v1040h309v-985 q0 -125 93.5 -213t226.5 -88t226 88t93 213v985h309v-1040q0 -217 -182 -366.5t-446 -149.5z" glyph-name="glyph546" horiz-adv-x="1511"/><glyph d="M756 -20q-264 0 -446.5 149.5t-182.5 366.5v1040h309v-985q0 -125 93.5 -213t226.5 -88t226 88t93 213v985h309v-1040q0 -217 -182 -366.5t-446 -149.5zM755.5 -436q-69.5 0 -118.5 49t-49 118.5t49 119t118.5 49.5t119 -49.5t49.5 -119t-49.5 -118.5t-119 -49z" glyph-name="glyph547" horiz-adv-x="1511"/><glyph d="M385 2048h299l170 -342h-223zM756 -20q-264 0 -446.5 149.5t-182.5 366.5v1040h309v-985q0 -125 93.5 -213t226.5 -88t226 88t93 213v985h309v-1040q0 -217 -182 -366.5t-446 -149.5z" glyph-name="glyph548" horiz-adv-x="1511"/><glyph d="M725 2048h279l-359 -365h-207zM1149 2048h281l-359 -365h-207zM756 -20q-264 0 -446.5 149.5t-182.5 366.5v1040h309v-985q0 -125 93.5 -213t226.5 -88t226 88t93 213v985h309v-1040q0 -217 -182 -366.5t-446 -149.5z" glyph-name="glyph549" horiz-adv-x="1556"/><glyph d="M438 1896h635v-188h-635v188zM756 -20q-264 0 -446.5 149.5t-182.5 366.5v1040h309v-985q0 -125 93.5 -213t226.5 -88t226 88t93 213v985h309v-1040q0 -217 -182 -366.5t-446 -149.5z" glyph-name="glyph550" horiz-adv-x="1511"/><glyph d="M1075 1536h309v-1040q0 -205 -163.5 -351.5t-409.5 -162.5q-84 -33 -132 -106t-48 -142q0 -51 31.5 -83t87.5 -32q53 0 104 31t80 78l94 -131q-133 -137 -330 -123q-119 8 -192.5 66.5t-73.5 168.5q0 180 199 281q-219 35 -361.5 176t-142.5 330v1040h309v-985 q0 -125 93.5 -213t226.5 -88t226 88t93 213v985z" glyph-name="glyph551" horiz-adv-x="1511"/><glyph d="M756 1642q-100 0 -171 71t-71 171q0 96 70.5 167t171.5 71q98 0 167.5 -71t69.5 -167q0 -100 -69.5 -171t-167.5 -71zM756 1765q49 0 82.5 33t33.5 86q0 49 -33.5 84t-82.5 35t-82 -35t-33 -84q0 -53 33 -86t82 -33zM756 -20q-264 0 -446.5 149.5t-182.5 366.5v1040h309 v-985q0 -125 93.5 -213t226.5 -88t226 88t93 213v985h309v-1040q0 -217 -182 -366.5t-446 -149.5z" glyph-name="glyph552" horiz-adv-x="1511"/><glyph d="M889 1673q-123 0 -207 119q-25 39 -55 39q-37 0 -47.5 -40t10.5 -101h-174q-31 133 30.5 222t171.5 89q129 0 209 -119q20 -39 56 -39q37 0 47 39t-10 100h174q31 -131 -28.5 -220t-176.5 -89zM756 -20q-264 0 -446.5 149.5t-182.5 366.5v1040h309v-985q0 -125 93.5 -213 t226.5 -88t226 88t93 213v985h309v-1040q0 -217 -182 -366.5t-446 -149.5z" glyph-name="glyph553" horiz-adv-x="1511"/><glyph d="M1581 1536l-616 -1536h-347l-616 1536h346l445 -1178l442 1178h346z" glyph-name="glyph554" horiz-adv-x="1585"/><glyph d="M2337 1536l-424 -1536h-336l-379 1024l-338 -1024h-334l-467 1536h334l312 -1198l342 1198h305l381 -1200l272 1200h332z" glyph-name="glyph555" horiz-adv-x="2396"/><glyph d="M1315 1706h-225l170 342h299zM2337 1536l-424 -1536h-336l-379 1024l-338 -1024h-334l-467 1536h334l312 -1198l342 1198h305l381 -1200l272 1200h332z" glyph-name="glyph556" horiz-adv-x="2396"/><glyph d="M1053 1698h-226l215 350h310l219 -350h-228l-145 221zM2337 1536l-424 -1536h-336l-379 1024l-338 -1024h-334l-467 1536h334l312 -1198l342 1198h305l381 -1200l272 1200h332z" glyph-name="glyph557" horiz-adv-x="2396"/><glyph d="M974.5 1692q-69.5 0 -118.5 49t-49 118.5t49 119t118.5 49.5t119 -49.5t49.5 -119t-49.5 -118.5t-119 -49zM1421 1692q-68 0 -118 49t-50 118.5t50.5 119t117.5 49.5q70 0 119 -49.5t49 -119t-49 -118.5t-119 -49zM2337 1536l-424 -1536h-336l-379 1024l-338 -1024h-334 l-467 1536h334l312 -1198l342 1198h305l381 -1200l272 1200h332z" glyph-name="glyph558" horiz-adv-x="2396"/><glyph d="M1075 1706l-246 342h299l170 -342h-223zM2337 1536l-424 -1536h-336l-379 1024l-338 -1024h-334l-467 1536h334l312 -1198l342 1198h305l381 -1200l272 1200h332z" glyph-name="glyph559" horiz-adv-x="2396"/><glyph d="M1042 0l-344 537l-344 -537h-352l530 788l-501 748h350l317 -494l320 494h350l-504 -745l531 -791h-353z" glyph-name="glyph560" horiz-adv-x="1398"/><glyph d="M850 727v-727h-307v721l-541 815h344l348 -551l353 551h339z" glyph-name="glyph561" horiz-adv-x="1388"/><glyph d="M813 1706h-225l170 342h299zM850 727v-727h-307v721l-541 815h344l348 -551l353 551h339z" glyph-name="glyph562" horiz-adv-x="1388"/><glyph d="M551 1698h-225l215 350h309l219 -350h-227l-146 221zM850 727v-727h-307v721l-541 815h344l348 -551l353 551h339z" glyph-name="glyph563" horiz-adv-x="1388"/><glyph d="M473 1692q-70 0 -119 49t-49 118.5t49 119t119 49.5t119 -49.5t49 -119t-49 -118.5t-119 -49zM920 1692q-68 0 -118 49t-50 118.5t50 119t118 49.5q70 0 118.5 -49.5t48.5 -119t-48.5 -118.5t-118.5 -49zM850 727v-727h-307v721l-541 815h344l348 -551l353 551h339z" glyph-name="glyph564" horiz-adv-x="1388"/><glyph d="M543 721l-541 815h344l348 -551l353 551h339l-536 -809v-727h-307v721zM698.5 -100q69.5 0 118.5 -49.5t49 -119t-49 -118.5t-118.5 -49t-119 49t-49.5 118.5t49.5 119t119 49.5z" glyph-name="glyph565" horiz-adv-x="1388"/><glyph d="M573 1706l-245 342h299l170 -342h-224zM850 727v-727h-307v721l-541 815h344l348 -551l353 551h339z" glyph-name="glyph566" horiz-adv-x="1388"/><glyph d="M358 1690q-31 133 31 222t172 89q129 0 209 -119q20 -39 55 -39q37 0 47.5 39t-10.5 100h174q31 -131 -28.5 -220t-176.5 -89q-123 0 -206 119q-25 39 -56 39q-37 0 -47 -40t10 -101h-174zM850 727v-727h-307v721l-541 815h344l348 -551l353 551h339z" glyph-name="glyph567" horiz-adv-x="1388"/><glyph d="M1239 270v-270h-1173v166l755 1102h-735v268h1149v-166l-758 -1100h762z" glyph-name="glyph568" horiz-adv-x="1308"/><glyph d="M797 1706h-226l170 342h299zM1239 270v-270h-1173v166l755 1102h-735v268h1149v-166l-758 -1100h762z" glyph-name="glyph569" horiz-adv-x="1308"/><glyph d="M524 1698l-215 350h217l154 -221l156 221h217l-219 -350h-310zM1239 270v-270h-1173v166l755 1102h-735v268h1149v-166l-758 -1100h762z" glyph-name="glyph570" horiz-adv-x="1308"/><glyph d="M682 1692q-70 0 -119 49t-49 118.5t49 119t119 49.5t119 -49.5t49 -119t-49 -118.5t-119 -49zM1239 270v-270h-1173v166l755 1102h-735v268h1149v-166l-758 -1100h762z" glyph-name="glyph571" horiz-adv-x="1308"/><glyph d="M1239 270v-270h-1173v166l755 1102h-735v268h1149v-166l-758 -1100h762zM651.5 -100q69.5 0 118.5 -49.5t49 -119t-49 -118.5t-118.5 -49t-119 49t-49.5 118.5t49.5 119t119 49.5z" glyph-name="glyph572" horiz-adv-x="1308"/><glyph d="M375 -16q-143 10 -227.5 89t-84.5 220q0 139 121 222t301 83h203v55q0 86 -39 124t-119 38q-182 0 -198 -158h-240q10 166 117.5 274.5t329.5 108.5q199 0 313.5 -96t114.5 -293v-651h-240l-18 100q-90 -132 -334 -116zM479 199q104 0 209 92v121h-139q-88 0 -141.5 -26 t-53.5 -77t35 -80.5t90 -29.5z" glyph-name="glyph573" horiz-adv-x="1017"/><glyph d="M961 1536l-244 -342h-225l170 342h299zM1040 373q0 -135 90 -135v-238q-10 0 -37.5 -1t-43.5 -1h-28h-32t-28.5 1t-30.5 3t-28.5 6t-30 9.5t-26 14.5t-26.5 20t-21.5 25.5t-19.5 33.5q-47 -57 -142 -92t-206 -35q-166 0 -266.5 88t-100.5 247q0 150 132.5 243t328.5 112 l221 20v19q0 94 -43 135t-129 41q-201 0 -217 -172h-262q12 182 130 300t358 118q215 0 336.5 -104.5t121.5 -319.5v-338zM745 317v175l-153 -21q-211 -29 -211 -133q0 -55 38 -88t97 -33q112 0 229 100z" glyph-name="glyph574" horiz-adv-x="1181"/><glyph d="M518 1141q-166 0 -265 91t-99 261h170q0 -72 54 -127t140 -55q88 0 143.5 54t55.5 128h170q0 -170 -99.5 -261t-269.5 -91zM430 -16q-166 0 -266.5 88t-100.5 247q0 150 132.5 243t328.5 112l221 20v19q0 94 -43 135t-129 41q-201 0 -217 -172h-262q12 182 130 300 t358 118q215 0 336.5 -104.5t121.5 -319.5v-338q0 -135 90 -135v-238q-10 0 -37.5 -1t-43.5 -1h-28h-32t-28.5 1t-30.5 3t-28.5 6t-30 9.5t-26 14.5t-26.5 20t-21.5 25.5t-19.5 33.5q-47 -57 -142 -92t-206 -35zM516 217q113 0 229 100v175l-153 -21q-211 -29 -211 -133 q0 -55 38 -88t97 -33z" glyph-name="glyph575" horiz-adv-x="1181"/><glyph d="M385 1186l-215 350h217l154 -221l155 221h217l-219 -350h-309zM430 -16q-166 0 -266.5 88t-100.5 247q0 150 132.5 243t328.5 112l221 20v19q0 94 -43 135t-129 41q-201 0 -217 -172h-262q12 182 130 300t358 118q215 0 336.5 -104.5t121.5 -319.5v-338q0 -135 90 -135 v-238q-10 0 -37.5 -1t-43.5 -1h-28h-32t-28.5 1t-30.5 3t-28.5 6t-30 9.5t-26 14.5t-26.5 20t-21.5 25.5t-19.5 33.5q-47 -57 -142 -92t-206 -35zM516 217q113 0 229 100v175l-153 -21q-211 -29 -211 -133q0 -55 38 -88t97 -33z" glyph-name="glyph576" horiz-adv-x="1181"/><glyph d="M520 1407l-145 -221h-225l215 350h309l219 -350h-227zM1040 373q0 -135 90 -135v-238q-10 0 -37.5 -1t-43.5 -1h-28h-32t-28.5 1t-30.5 3t-28.5 6t-30 9.5t-26 14.5t-26.5 20t-21.5 25.5t-19.5 33.5q-47 -57 -142 -92t-206 -35q-166 0 -266.5 88t-100.5 247 q0 150 132.5 243t328.5 112l221 20v19q0 94 -43 135t-129 41q-201 0 -217 -172h-262q12 182 130 300t358 118q215 0 336.5 -104.5t121.5 -319.5v-338zM745 317v175l-153 -21q-211 -29 -211 -133q0 -55 38 -88t97 -33q112 0 229 100z" glyph-name="glyph577" horiz-adv-x="1181"/><glyph d="M297 1180q-70 0 -119 49t-49 118.5t49 119t119 49.5t119 -49.5t49 -119t-49 -118.5t-119 -49zM743 1180q-68 0 -118 49t-50 118.5t50.5 119t117.5 49.5q70 0 119 -49.5t49 -119t-49 -118.5t-119 -49zM430 -16q-166 0 -266.5 88t-100.5 247q0 150 132.5 243t328.5 112 l221 20v19q0 94 -43 135t-129 41q-201 0 -217 -172h-262q12 182 130 300t358 118q215 0 336.5 -104.5t121.5 -319.5v-338q0 -135 90 -135v-238q-10 0 -37.5 -1t-43.5 -1h-28h-32t-28.5 1t-30.5 3t-28.5 6t-30 9.5t-26 14.5t-26.5 20t-21.5 25.5t-19.5 33.5q-47 -57 -142 -92 t-206 -35zM516 217q113 0 229 100v175l-153 -21q-211 -29 -211 -133q0 -55 38 -88t97 -33z" glyph-name="glyph578" horiz-adv-x="1181"/><glyph d="M430 -16q-166 0 -266.5 88t-100.5 247q0 150 132.5 243t328.5 112l221 20v19q0 94 -43 135t-129 41q-201 0 -217 -172h-262q12 182 130 300t358 118q215 0 336.5 -104.5t121.5 -319.5v-338q0 -135 90 -135v-238q-10 0 -37.5 -1t-43.5 -1h-28h-32t-28.5 1t-30.5 3t-28.5 6 t-30 9.5t-26 14.5t-26.5 20t-21.5 25.5t-19.5 33.5q-47 -57 -142 -92t-206 -35zM516 217q113 0 229 100v175l-153 -21q-211 -29 -211 -133q0 -55 38 -88t97 -33zM561.5 -100q69.5 0 118.5 -49.5t49 -119t-49 -118.5t-118.5 -49t-119 49t-49.5 118.5t49.5 119t119 49.5z" glyph-name="glyph579" horiz-adv-x="1181"/><glyph d="M700 1194h-223l-246 342h299zM1040 373q0 -135 90 -135v-238q-10 0 -37.5 -1t-43.5 -1h-28h-32t-28.5 1t-30.5 3t-28.5 6t-30 9.5t-26 14.5t-26.5 20t-21.5 25.5t-19.5 33.5q-47 -57 -142 -92t-206 -35q-166 0 -266.5 88t-100.5 247q0 150 132.5 243t328.5 112l221 20v19 q0 94 -43 135t-129 41q-201 0 -217 -172h-262q12 182 130 300t358 118q215 0 336.5 -104.5t121.5 -319.5v-338zM745 317v175l-153 -21q-211 -29 -211 -133q0 -55 38 -88t97 -33q112 0 229 100z" glyph-name="glyph580" horiz-adv-x="1181"/><glyph d="M819 1196h-635v188h635v-188zM430 -16q-166 0 -266.5 88t-100.5 247q0 150 132.5 243t328.5 112l221 20v19q0 94 -43 135t-129 41q-201 0 -217 -172h-262q12 182 130 300t358 118q215 0 336.5 -104.5t121.5 -319.5v-338q0 -135 90 -135v-238q-10 0 -37.5 -1t-43.5 -1h-28 h-32t-28.5 1t-30.5 3t-28.5 6t-30 9.5t-26 14.5t-26.5 20t-21.5 25.5t-19.5 33.5q-47 -57 -142 -92t-206 -35zM516 217q113 0 229 100v175l-153 -21q-211 -29 -211 -133q0 -55 38 -88t97 -33z" glyph-name="glyph581" horiz-adv-x="1181"/><glyph d="M952 0q-139 -25 -213.5 -101.5t-74.5 -168.5q0 -51 31.5 -83t86.5 -32q53 0 104.5 30.5t80.5 78.5l94 -132q-133 -137 -330 -122q-119 8 -192.5 66t-73.5 169q0 199 250 295h233q-123 12 -170 111q-47 -57 -142 -92t-206 -35q-166 0 -266.5 88t-100.5 247 q0 150 132.5 243t328.5 112l221 20v19q0 94 -43 135t-129 41q-201 0 -217 -172h-262q12 182 130 300t358 118q215 0 336.5 -104.5t121.5 -319.5v-338q0 -135 90 -135v-238q-10 0 -37.5 -1t-43.5 -1q-81 0 -97 2zM745 317v175l-153 -21q-211 -29 -211 -133q0 -55 38 -88 t97 -33q112 0 229 100z" glyph-name="glyph582" horiz-adv-x="1181"/><glyph d="M1040 373q0 -135 90 -135v-238q-10 0 -37.5 -1t-43.5 -1h-28h-32t-28.5 1t-30.5 3t-28.5 6t-30 9.5t-26 14.5t-26.5 20t-21.5 25.5t-19.5 33.5q-47 -57 -142 -92t-206 -35q-166 0 -266.5 88t-100.5 247q0 150 132.5 243t328.5 112l221 20v19q0 94 -43 135t-129 41 q-201 0 -217 -172h-262q10 166 109.5 280.5t300.5 132.5q-94 6 -159.5 77t-65.5 165q0 96 70.5 167t170.5 71q98 0 168 -71t70 -167q0 -88 -55.5 -154.5t-139.5 -82.5h19q215 0 336.5 -104.5t121.5 -319.5v-338zM406 1372q0 -53 32.5 -86t81.5 -33t83 33t34 86q0 49 -34 84 t-83 35t-81.5 -35t-32.5 -84zM745 317v175l-153 -21q-211 -29 -211 -133q0 -55 38 -88t97 -33q112 0 229 100z" glyph-name="glyph583" horiz-adv-x="1181"/><glyph d="M199 1178q-31 133 30.5 222t171.5 89q129 0 209 -119q20 -39 56 -39q37 0 47 39t-11 100h175q31 -131 -29 -220t-176 -89q-123 0 -207 119q-25 39 -55 39q-37 0 -47.5 -40t10.5 -101h-174zM430 -16q-166 0 -266.5 88t-100.5 247q0 150 132.5 243t328.5 112l221 20v19 q0 94 -43 135t-129 41q-201 0 -217 -172h-262q12 182 130 300t358 118q215 0 336.5 -104.5t121.5 -319.5v-338q0 -135 90 -135v-238q-10 0 -37.5 -1t-43.5 -1h-28h-32t-28.5 1t-30.5 3t-28.5 6t-30 9.5t-26 14.5t-26.5 20t-21.5 25.5t-19.5 33.5q-47 -57 -142 -92t-206 -35z M516 217q113 0 229 100v175l-153 -21q-211 -29 -211 -133q0 -55 38 -88t97 -33z" glyph-name="glyph584" horiz-adv-x="1181"/><glyph d="M1896 565q0 -45 -6 -96h-757q14 -111 80.5 -173.5t166.5 -62.5q176 0 244 132h258q-29 -164 -161 -272.5t-349 -108.5q-188 0 -332 100v-84h-198l-64 115q-39 -57 -137 -94t-211 -37q-166 0 -266.5 88t-100.5 247q0 150 132.5 243t328.5 112l221 20v19q0 94 -43 135 t-129 41q-201 0 -217 -172h-262q12 182 130 300t358 118q264 0 381 -152q156 162 411 162q242 0 382 -157t140 -423zM1139 688h448q-33 203 -217 203q-188 0 -231 -203zM745 317v175l-153 -21q-211 -29 -211 -133q0 -55 38 -88t97 -33q112 0 229 100z" glyph-name="glyph585" horiz-adv-x="2084"/><glyph d="M698 1044q207 0 341.5 -152.5t134.5 -379.5t-134.5 -379.5t-341.5 -152.5q-180 0 -299 129l-12 -111l-264 2v1536h295v-602q114 110 280 110zM639 242q106 0 173 77.5t67 192.5t-67 193.5t-173 78.5q-74 0 -134.5 -46t-86.5 -120v-212q27 -74 86 -119t135 -45z" glyph-name="glyph586" horiz-adv-x="1234"/><glyph d="M723 1137q225 0 371.5 -163t146.5 -409t-146.5 -409.5t-371.5 -163.5q-203 0 -326 133l-16 -125l-285 2v1536h322v-512q112 111 305 111zM659 270q115 0 188 85t73 210q0 127 -73 212t-188 85q-82 0 -147.5 -50t-93.5 -130v-231q29 -82 94 -131.5t147 -49.5zM614.5 -100 q69.5 0 118.5 -49.5t49 -119t-49 -118.5t-118.5 -49t-119 49t-49.5 118.5t49.5 119t119 49.5z" glyph-name="glyph587" horiz-adv-x="1234"/><glyph d="M539 -20q-225 0 -362.5 149.5t-137.5 382.5t137 382.5t363 149.5q115 0 205 -29.5t144 -74.5t92 -105.5t53.5 -112.5t21.5 -108h-262q-8 74 -73 127.5t-155 53.5q-113 0 -172 -78t-59 -205t59.5 -205t171.5 -78q88 0 152.5 57.5t75.5 129.5h262q-6 -57 -21.5 -111.5 t-52.5 -116t-91 -105.5t-145 -73.5t-206 -29.5z" glyph-name="glyph588" horiz-adv-x="1089"/><glyph d="M606 1536h299l-243 -342h-226zM584 -10q-246 0 -395.5 159.5t-149.5 415.5t148.5 414t396.5 158q125 0 223 -32t157.5 -79t100.5 -112.5t57.5 -122t22.5 -115.5h-285q-10 80 -79.5 138t-168.5 58q-123 0 -187.5 -83.5t-64.5 -223.5q0 -137 64.5 -222t187.5 -85 q96 0 166 62.5t82 140.5h285q-6 -63 -22.5 -121.5t-57.5 -124t-100.5 -114t-157.5 -80t-223 -31.5z" glyph-name="glyph589" horiz-adv-x="1179"/><glyph d="M215 1536h217l154 -221l155 221h217l-219 -350h-309zM584 -10q-246 0 -395.5 159.5t-149.5 415.5t148.5 414t396.5 158q125 0 223 -32t157.5 -79t100.5 -112.5t57.5 -122t22.5 -115.5h-285q-10 80 -79.5 138t-168.5 58q-123 0 -187.5 -83.5t-64.5 -223.5 q0 -137 64.5 -222t187.5 -85q96 0 166 62.5t82 140.5h285q-6 -63 -22.5 -121.5t-57.5 -124t-100.5 -114t-157.5 -80t-223 -31.5z" glyph-name="glyph590" horiz-adv-x="1179"/><glyph d="M612 258q96 0 166 62.5t82 140.5h285q-6 -61 -21.5 -118.5t-54.5 -123t-96.5 -113t-151.5 -81t-213 -35.5q-2 -2 -2 -4t-2 -4l-59 -105q100 18 170.5 -36t70.5 -150q0 -94 -64.5 -158.5t-158.5 -64.5q-76 0 -146.5 44t-92.5 107l129 45q16 -27 47.5 -45t62.5 -18 q37 0 61.5 26.5t24.5 63.5q0 57 -48 74.5t-120 -15.5l-106 62l96 176l10 10q-203 33 -322.5 186.5t-119.5 380.5q0 256 148.5 414t396.5 158q125 0 223 -32t157.5 -79t100.5 -112.5t57.5 -122t22.5 -115.5h-285q-10 80 -79.5 138t-168.5 58q-123 0 -187.5 -83.5 t-64.5 -223.5q0 -137 64.5 -222t187.5 -85z" glyph-name="glyph591" horiz-adv-x="1179"/><glyph d="M606.5 1180q-69.5 0 -119 49t-49.5 118.5t49.5 119t119 49.5t118.5 -49.5t49 -119t-49 -118.5t-118.5 -49zM584 -10q-246 0 -395.5 159.5t-149.5 415.5t148.5 414t396.5 158q125 0 223 -32t157.5 -79t100.5 -112.5t57.5 -122t22.5 -115.5h-285q-10 80 -79.5 138 t-168.5 58q-123 0 -187.5 -83.5t-64.5 -223.5q0 -137 64.5 -222t187.5 -85q96 0 166 62.5t82 140.5h285q-6 -63 -22.5 -121.5t-57.5 -124t-100.5 -114t-157.5 -80t-223 -31.5z" glyph-name="glyph592" horiz-adv-x="1179"/><glyph d="M1112 1536v-1536l-264 -2l-17 106q-119 -125 -292 -124q-209 0 -342.5 152.5t-133.5 379.5t133.5 379.5t342.5 152.5q164 0 278 -110v602h295zM598 242q74 0 132 44t87 117v218q-29 74 -88 118.5t-131 44.5q-106 0 -173 -77.5t-67 -194.5t67 -193.5t173 -76.5z" glyph-name="glyph593" horiz-adv-x="1234"/><glyph d="M799 1413q186 -139 294.5 -376.5t108.5 -524.5q0 -223 -166 -377.5t-403 -154.5q-240 0 -405 154.5t-165 377.5t165 377.5t405 154.5q88 0 178 -26q-61 131 -162 203l-92 -117l-90 70l82 102q-94 41 -244 49l62 236q178 0 338 -86l86 108l90 -67zM633 242 q113 0 191.5 78.5t78.5 191.5t-79 192.5t-191.5 79.5t-192.5 -78.5t-80 -193.5q0 -113 79 -191.5t194 -78.5z" glyph-name="glyph594" horiz-adv-x="1249"/><glyph d="M1397 1219q-51 18 -81 61t-30 96q0 70 48 118t118 48q68 0 115 -48t47 -118q0 -117 -148 -301h-170zM1200 1534v-1532l-280 -2l-25 111q-119 -121 -320 -121q-227 0 -372.5 159.5t-145.5 405.5q0 248 146.5 415t371.5 167q178 0 304 -121v518h321zM639 260q80 0 144.5 48 t95.5 128v238q-31 80 -95.5 129t-144.5 49q-117 0 -188.5 -85t-71.5 -212q0 -125 71.5 -210t188.5 -85z" glyph-name="glyph595" horiz-adv-x="1626"/><glyph d="M1257 1176h-145v-1176l-264 -2l-17 106q-119 -125 -292 -124q-209 0 -342.5 152.5t-133.5 379.5t133.5 379.5t342.5 152.5q164 0 278 -110v242h-254v167h254v193h295v-193h145v-167zM598 242q74 0 132 44t87 117v218q-29 74 -88 118.5t-131 44.5q-106 0 -173 -77.5 t-67 -194.5t67 -193.5t173 -76.5z" glyph-name="glyph596" horiz-adv-x="1234"/><glyph d="M1051 514q0 -43 -7 -88h-694q12 -100 73.5 -158.5t154.5 -58.5q160 0 223 121h237q-29 -152 -149.5 -251t-319.5 -99q-225 0 -370.5 151.5t-145.5 380.5q0 233 139.5 384t378.5 151q221 0 350.5 -144.5t129.5 -388.5zM567 813q-170 0 -211 -186h412q-33 186 -201 186z " glyph-name="glyph597" horiz-adv-x="1097"/><glyph d="M942 1538l-244 -342h-225l170 342h299zM1120 565q0 -45 -6 -96h-758q14 -111 81 -173.5t167 -62.5q176 0 244 132h258q-29 -164 -161 -269.5t-349 -105.5q-246 0 -399.5 160.5t-153.5 412.5q0 254 146.5 414t408.5 160q242 0 382 -154t140 -418zM362 688h449 q-33 203 -217 203q-189 0 -232 -203z" glyph-name="glyph598" horiz-adv-x="1187"/><glyph d="M426 1188l-215 350h217l154 -221l155 221h217l-219 -350h-309zM1120 565q0 -45 -6 -96h-758q14 -111 81 -173.5t167 -62.5q176 0 244 132h258q-29 -164 -161 -269.5t-349 -105.5q-246 0 -399.5 160.5t-153.5 412.5q0 254 146.5 414t408.5 160q242 0 382 -154t140 -418z M594 891q-188 0 -232 -203h449q-33 203 -217 203z" glyph-name="glyph599" horiz-adv-x="1187"/><glyph d="M1120 565q0 -45 -6 -96h-758q14 -111 81 -173.5t167 -62.5q176 0 244 132h258q-29 -152 -143.5 -255.5t-307.5 -117.5v-8l-61 -109q100 18 171 -36t71 -150q0 -94 -64.5 -159t-159.5 -65q-76 0 -146.5 44.5t-92.5 107.5l129 45q16 -27 48 -45t62 -18q37 0 61.5 26.5 t24.5 63.5q0 57 -48 74.5t-120 -15.5l-106 62l94 174v10q-215 27 -345 183.5t-130 385.5q0 254 146.5 414t408.5 160q242 0 382 -154t140 -418zM362 688h449q-33 203 -217 203q-189 0 -232 -203z" glyph-name="glyph600" horiz-adv-x="1187"/><glyph d="M436 1188h-225l215 350h309l219 -350h-227l-145 221zM1120 565q0 -45 -6 -96h-758q14 -111 81 -173.5t167 -62.5q176 0 244 132h258q-29 -164 -161 -269.5t-349 -105.5q-246 0 -399.5 160.5t-153.5 412.5q0 254 146.5 414t408.5 160q242 0 382 -154t140 -418zM594 891 q-188 0 -232 -203h449q-33 203 -217 203z" glyph-name="glyph601" horiz-adv-x="1187"/><glyph d="M358.5 1182q-69.5 0 -119 49t-49.5 118.5t49.5 119t119 49.5t118.5 -49.5t49 -119t-49 -118.5t-118.5 -49zM805 1182q-68 0 -118 49t-50 118.5t50 119t118 49.5q70 0 119 -49.5t49 -119t-49 -118.5t-119 -49zM1120 565q0 -45 -6 -96h-758q14 -111 81 -173.5t167 -62.5 q176 0 244 132h258q-29 -164 -161 -269.5t-349 -105.5q-246 0 -399.5 160.5t-153.5 412.5q0 254 146.5 414t408.5 160q242 0 382 -154t140 -418zM594 891q-188 0 -232 -203h449q-33 203 -217 203z" glyph-name="glyph602" horiz-adv-x="1187"/><glyph d="M583.5 1182q-69.5 0 -118.5 49t-49 118.5t49 119t118.5 49.5t119 -49.5t49.5 -119t-49.5 -118.5t-119 -49zM1120 565q0 -45 -6 -96h-758q14 -111 81 -173.5t167 -62.5q176 0 244 132h258q-29 -164 -161 -269.5t-349 -105.5q-246 0 -399.5 160.5t-153.5 412.5 q0 254 146.5 414t408.5 160q242 0 382 -154t140 -418zM594 891q-188 0 -232 -203h449q-33 203 -217 203z" glyph-name="glyph603" horiz-adv-x="1187"/><glyph d="M1120 565q0 -45 -6 -96h-758q14 -111 81 -173.5t167 -62.5q176 0 244 132h258q-29 -164 -161 -269.5t-349 -105.5q-246 0 -399.5 160.5t-153.5 412.5q0 254 146.5 414t408.5 160q242 0 382 -154t140 -418zM594 891q-188 0 -232 -203h449q-33 203 -217 203zM596 -100 q70 0 119 -49.5t49 -119t-49 -118.5t-119 -49t-119 49t-49 118.5t49 119t119 49.5z" glyph-name="glyph604" horiz-adv-x="1187"/><glyph d="M459 1196l-246 342h299l170 -342h-223zM1120 565q0 -45 -6 -96h-758q14 -111 81 -173.5t167 -62.5q176 0 244 132h258q-29 -164 -161 -269.5t-349 -105.5q-246 0 -399.5 160.5t-153.5 412.5q0 254 146.5 414t408.5 160q242 0 382 -154t140 -418zM594 891 q-188 0 -232 -203h449q-33 203 -217 203z" glyph-name="glyph605" horiz-adv-x="1187"/><glyph d="M901 1198h-635v188h635v-188zM1120 565q0 -45 -6 -96h-758q14 -111 81 -173.5t167 -62.5q176 0 244 132h258q-29 -164 -161 -269.5t-349 -105.5q-246 0 -399.5 160.5t-153.5 412.5q0 254 146.5 414t408.5 160q242 0 382 -154t140 -418zM594 891q-188 0 -232 -203h449 q-33 203 -217 203z" glyph-name="glyph606" horiz-adv-x="1187"/><glyph d="M1120 565q0 -45 -6 -96h-758q14 -111 81 -173.5t167 -62.5q176 0 244 132h258q-29 -150 -140.5 -252.5t-297.5 -118.5l-6 -10q-51 -70 -52 -146q0 -51 32 -82.5t87 -31.5q53 0 104.5 30.5t79.5 77.5l95 -131q-133 -137 -330 -123q-119 8 -192.5 66.5t-73.5 169.5 q0 96 61 174q0 10 2 14q-199 39 -315.5 191.5t-116.5 369.5q0 254 146.5 414t408.5 160q242 0 382 -154t140 -418zM362 688h449q-33 203 -217 203q-189 0 -232 -203z" glyph-name="glyph607" horiz-adv-x="1187"/><glyph d="M244 1178q-31 133 30.5 222t171.5 89q129 0 209 -119q20 -39 56 -39q37 0 47 39t-10 100h174q31 -131 -28.5 -220t-176.5 -89q-123 0 -207 119q-25 39 -55 39q-37 0 -47.5 -40t10.5 -101h-174zM1120 565q0 -45 -6 -96h-758q14 -111 81 -173.5t167 -62.5q176 0 244 132 h258q-29 -164 -161 -269.5t-349 -105.5q-246 0 -399.5 160.5t-153.5 412.5q0 254 146.5 414t408.5 160q242 0 382 -154t140 -418zM594 891q-188 0 -232 -203h449q-33 203 -217 203z" glyph-name="glyph608" horiz-adv-x="1187"/><glyph d="M221 0v801h-172v223h172v143q0 158 112.5 273.5t274.5 115.5q152 0 240 -65v-193q-104 61 -203 27q-127 -43 -127 -178v-123h246v-223h-246v-801h-297z" glyph-name="glyph609" horiz-adv-x="804"/><glyph d="M1114 1024v-1020q0 -233 -144.5 -374.5t-381.5 -141.5q-139 0 -245.5 41t-163 105.5t-85 128t-31.5 122.5h230q12 -80 108.5 -134t200.5 -42q96 12 155.5 87t59.5 208v86q-115 -111 -278 -110q-209 0 -342.5 152.5t-133.5 379.5t133.5 379.5t342.5 152.5q178 0 295 -126 l14 106h266zM598 242q74 0 132 44t87 117v218q-29 74 -88 118.5t-131 44.5q-106 0 -173 -77.5t-67 -194.5t67 -193.5t173 -76.5z" glyph-name="glyph610" horiz-adv-x="1236"/><glyph d="M1171 1022q-45 20 -97 5t-75 -66q94 -121 95 -226q0 -184 -141.5 -302t-348.5 -126q-125 -6 -211 37q-31 -10 -46 -29.5t-7 -38.5q18 -51 149 -51l222 -4q186 -4 300.5 -82t127.5 -211q18 -213 -132.5 -322.5t-412.5 -117.5q-227 -8 -359.5 69.5t-160.5 200.5 q-18 76 12.5 172.5t112.5 143.5q-47 12 -80 63t-33 109q0 131 154 207q-51 47 -90 129t-39 174q0 154 127 267.5t325 121.5q-139 16 -220 105t-81 243h170q0 -72 54.5 -127t140.5 -55q88 0 143 54t55 128h170q0 -166 -93 -256t-253 -96q172 -20 244 -80q23 82 118 126 t160 21v-186zM590 573q90 0 146.5 44.5t56.5 121.5q0 74 -56.5 115t-146.5 41q-88 0 -142.5 -42t-54.5 -118t55.5 -119t141.5 -43zM420 -16q-35 -10 -57.5 -45t-22.5 -72q0 -133 231 -133q121 0 200 35.5t79 97.5q0 117 -279 117h-151z" glyph-name="glyph611" horiz-adv-x="1218"/><glyph d="M432 1186l-215 350h217l154 -221l155 221h218l-220 -350h-309zM594 -512q-227 -8 -359.5 69.5t-160.5 200.5q-18 76 12.5 172.5t112.5 143.5q-47 12 -80 63t-33 109q0 131 154 207q-51 47 -90 129t-39 174q0 158 135 273.5t344 115.5q74 0 167 -23.5t136 -60.5 q23 82 118 126t160 21v-186q-45 20 -97 5t-75 -66q94 -121 95 -226q0 -184 -141.5 -302t-348.5 -126q-125 -6 -211 37q-31 -10 -46 -29.5t-7 -38.5q18 -51 149 -51l222 -4q186 -4 300.5 -82t127.5 -211q18 -213 -132.5 -322.5t-412.5 -117.5zM793 739q0 74 -56.5 115 t-146.5 41q-88 0 -142.5 -42t-54.5 -118t55.5 -119t141.5 -43q90 0 146.5 44t56.5 122zM850 -133q0 117 -279 117h-151q-35 -10 -57.5 -45t-22.5 -72q0 -133 231 -133q121 0 200 36t79 97z" glyph-name="glyph612" horiz-adv-x="1218"/><glyph d="M657 1477q51 -18 81 -61.5t30 -96.5q0 -70 -48 -118t-118 -48q-68 0 -115 48t-47 118q0 117 148 301h170zM594 -512q-227 -8 -359.5 69.5t-160.5 200.5q-18 76 12.5 172.5t112.5 143.5q-47 12 -80 63t-33 109q0 131 154 207q-51 47 -90 129t-39 174q0 158 135 273.5 t344 115.5q74 0 167 -23.5t136 -60.5q23 82 118 126t160 21v-186q-45 20 -97 5t-75 -66q94 -121 95 -226q0 -184 -141.5 -302t-348.5 -126q-125 -6 -211 37q-31 -10 -46 -29.5t-7 -38.5q18 -51 149 -51l222 -4q186 -4 300.5 -82t127.5 -211q18 -213 -132.5 -322.5 t-412.5 -117.5zM793 739q0 74 -56.5 115t-146.5 41q-88 0 -142.5 -42t-54.5 -118t55.5 -119t141.5 -43q90 0 146.5 44t56.5 122zM850 -133q0 117 -279 117h-151q-35 -10 -57.5 -45t-22.5 -72q0 -133 231 -133q121 0 200 36t79 97z" glyph-name="glyph613" horiz-adv-x="1218"/><glyph d="M587.5 1180q-69.5 0 -118.5 49t-49 118.5t49 119t118.5 49.5t119 -49.5t49.5 -119t-49.5 -118.5t-119 -49zM594 -512q-227 -8 -359.5 69.5t-160.5 200.5q-18 76 12.5 172.5t112.5 143.5q-47 12 -80 63t-33 109q0 131 154 207q-51 47 -90 129t-39 174q0 158 135 273.5 t344 115.5q74 0 167 -23.5t136 -60.5q23 82 118 126t160 21v-186q-45 20 -97 5t-75 -66q94 -121 95 -226q0 -184 -141.5 -302t-348.5 -126q-125 -6 -211 37q-31 -10 -46 -29.5t-7 -38.5q18 -51 149 -51l222 -4q186 -4 300.5 -82t127.5 -211q18 -213 -132.5 -322.5 t-412.5 -117.5zM793 739q0 74 -56.5 115t-146.5 41q-88 0 -142.5 -42t-54.5 -118t55.5 -119t141.5 -43q90 0 146.5 44t56.5 122zM850 -133q0 117 -279 117h-151q-35 -10 -57.5 -45t-22.5 -72q0 -133 231 -133q121 0 200 36t79 97z" glyph-name="glyph614" horiz-adv-x="1218"/><glyph d="M739 1044q180 0 280.5 -98t100.5 -278v-668h-299v631q0 154 -170 153q-92 0 -160.5 -47t-68.5 -123v-614h-299v1536h299v-616q57 57 142 90.5t175 33.5z" glyph-name="glyph615" horiz-adv-x="1239"/><glyph d="M791 1135q197 0 306 -106.5t109 -303.5v-725h-325v684q0 168 -187 168q-100 0 -175 -51t-75 -135v-666h-325v1188h-117v168h117v180h325v-180h252v-168h-252v-189q63 63 157 99.5t190 36.5z" glyph-name="glyph616" horiz-adv-x="1239"/><glyph d="M791 1135q197 0 306 -106.5t109 -303.5v-725h-325v684q0 168 -187 168q-100 0 -175 -51t-75 -135v-666h-325v1536h325v-537q63 63 157 99.5t190 36.5zM612.5 -100q69.5 0 118.5 -49.5t49 -119t-49 -118.5t-118.5 -49t-119 49t-49.5 118.5t49.5 119t119 49.5z" glyph-name="glyph617" horiz-adv-x="1239"/><glyph d="M295 1200q-68 0 -118 49t-50 119t50 119t118 49q70 0 120 -49t50 -119t-50 -119t-120 -49zM145 1024h299v-1024h-299v1024z" glyph-name="glyph618" horiz-adv-x="591"/><glyph d="M123 1024h299v-1024h-299v1024z" glyph-name="glyph619" horiz-adv-x="544"/><glyph d="M334 1536h299l-244 -342h-225zM123 1024h299v-1024h-299v1024z" glyph-name="glyph620" horiz-adv-x="544"/><glyph d="M-100 1536h219l153 -221l156 221h217l-219 -350h-309zM123 1024h299v-1024h-299v1024z" glyph-name="glyph621" horiz-adv-x="544"/><glyph d="M117 1536h309l219 -350h-227l-146 221l-145 -221h-227zM123 1024h299v-1024h-299v1024z" glyph-name="glyph622" horiz-adv-x="544"/><glyph d="M49.5 1180q-69.5 0 -120 49t-50.5 118.5t50.5 119t120 49.5t118.5 -49.5t49 -119t-49 -118.5t-118.5 -49zM496 1180q-68 0 -118 49t-50 118.5t50 119t118 49.5q70 0 119 -49.5t49 -119t-49 -118.5t-119 -49zM123 1024h299v-1024h-299v1024z" glyph-name="glyph623" horiz-adv-x="544"/><glyph d="M295 1200q-68 0 -118 49t-50 119t50 119t118 49q70 0 120 -49t50 -119t-50 -119t-120 -49zM145 1024h299v-1024h-299v1024z" glyph-name="glyph624" horiz-adv-x="696"/><glyph d="M295 1200q-68 0 -118 49t-50 119t50 119t118 49q70 0 120 -49t50 -119t-50 -119t-120 -49zM145 1024h299v-1024h-299v1024zM307.5 -471q-69.5 0 -119 49t-49.5 119t49.5 119t119 49t118.5 -49t49 -119t-49 -119t-118.5 -49z" glyph-name="glyph625" horiz-adv-x="591"/><glyph d="M-100 1536h301l170 -342h-224zM123 1024h299v-1024h-299v1024z" glyph-name="glyph626" horiz-adv-x="544"/><glyph d="M315 1200q-68 0 -118 49t-50 119t50.5 119t117.5 49q70 0 120 -49t50 -119t-50 -119t-120 -49zM981 1200q-70 0 -120 49t-50 119t50 119t120 49q68 0 118 -49t50 -119t-50 -119t-118 -49zM614 -512v260h50q86 0 126.5 32t40.5 118v1228h299v-1249q0 -98 -31.5 -172 t-79.5 -114t-114.5 -64.5t-122 -31.5t-118.5 -7h-50zM166 1024h299v-1024h-299v1024z" glyph-name="glyph627" horiz-adv-x="1298"/><glyph d="M-47 1384h637v-188h-637v188zM123 1024h299v-1024h-299v1024z" glyph-name="glyph628" horiz-adv-x="544"/><glyph d="M272.5 1180q-69.5 0 -119 49t-49.5 118.5t49.5 119t119 49.5t118.5 -49.5t49 -119t-49 -118.5t-118.5 -49zM487 -408q-133 -137 -329 -122q-119 8 -194 66t-75 169q0 195 236 295h-2v1024h299v-1024h-29q-137 0 -220 -87t-83 -183q0 -51 32 -83t87 -32q53 0 104.5 30.5 t79.5 78.5z" glyph-name="glyph629" horiz-adv-x="544"/><glyph d="M406 1161q-123 0 -207 119q-25 39 -56 39q-37 0 -47 -40t10 -101h-176q-29 133 33 222t172 89q129 0 209 -119q20 -39 55 -39q37 0 47.5 39t-10.5 100h174q31 -131 -28 -220t-176 -89zM123 1024h299v-1024h-299v1024z" glyph-name="glyph630" horiz-adv-x="544"/><glyph d="M305 1200q-70 0 -120 49t-50 119t50.5 119t119.5 49q68 0 118 -49t50 -119t-50 -119t-118 -49zM29 -512v260q63 6 95 36t32 114v1126h299v-1147q0 -121 -41 -206t-107.5 -124t-135 -53t-142.5 -6z" glyph-name="glyph631" horiz-adv-x="565"/><glyph d="M74 -532q-104 0 -152 32v250q49 -39 115 -39q53 0 90 41t37 105v1167h299v-1188q0 -156 -112.5 -262t-276.5 -106z" glyph-name="glyph632" horiz-adv-x="618"/><glyph d="M123 0v1536h299v-872l270 360h312l-361 -461l453 -563h-308l-366 477v-477h-299z" glyph-name="glyph633" horiz-adv-x="1159"/><glyph d="M104 0v1536h326v-807l311 397h326l-418 -512l461 -614h-334l-346 471v-471h-326zM561 -369q-51 18 -80.5 61.5t-29.5 96.5q0 70 48 118t117 48q68 0 115 -48t47 -118q0 -117 -147 -301h-170z" glyph-name="glyph634" horiz-adv-x="1159"/><glyph d="M133 0v1536h299v-1536h-299z" glyph-name="glyph635" horiz-adv-x="600"/><glyph d="M317 2048h299l-243 -342h-226zM133 0v1536h299v-1536h-299z" glyph-name="glyph636" horiz-adv-x="743"/><glyph d="M709 1229q-51 18 -81 61t-30 96q0 70 48 118t118 48q68 0 115 -48t47 -118q0 -117 -148 -301h-170zM133 0v1536h299v-1536h-299z" glyph-name="glyph637" horiz-adv-x="966"/><glyph d="M133 0v1536h299v-1536h-299zM223 -393q-51 18 -80.5 61t-29.5 96q0 70 48 118t118 48q68 0 114.5 -48t46.5 -118q0 -117 -147 -301h-170z" glyph-name="glyph638" horiz-adv-x="743"/><glyph d="M133 0v1536h299v-1536h-299zM643 614q-49 0 -86 36t-37 87t37 88t86 37t87 -37t38 -88t-38 -87t-87 -36z" glyph-name="glyph639" horiz-adv-x="784"/><glyph d="M133 0v1536h299v-1536h-299zM282.5 -436q-69.5 0 -118.5 49t-49 118.5t49 119t118.5 49.5t119 -49.5t49.5 -119t-49.5 -118.5t-119 -49z" glyph-name="glyph640" horiz-adv-x="743"/><glyph d="M504 1112h184l-256 -266v-846h-299v537l-84 -88h-178l262 274v813h299v-500z" glyph-name="glyph641" horiz-adv-x="743"/><glyph d="M1374 1044q174 0 268.5 -97t94.5 -275v-672h-299v635q0 150 -150 149q-84 0 -146.5 -47t-62.5 -123v-614h-299v635q0 150 -147 149q-84 0 -147.5 -47t-63.5 -123v-614h-299v1024h268l15 -109q117 129 311 129t299 -159q59 74 156.5 116.5t201.5 42.5z" glyph-name="glyph642" horiz-adv-x="1853"/><glyph d="M715 1044q180 0 280.5 -98t100.5 -278v-668h-299v631q0 154 -170 153q-92 0 -161 -47t-69 -123v-614h-299v1024h269l16 -119q57 63 147.5 101t184.5 38z" glyph-name="glyph643" horiz-adv-x="1177"/><glyph d="M737 1194h-225l170 342h299zM770 1141q197 0 306.5 -107.5t109.5 -304.5v-729h-326v690q0 168 -186 168q-100 0 -175 -51t-75 -135v-672h-326v1126h293l19 -137q61 70 159.5 111t200.5 41z" glyph-name="glyph644" horiz-adv-x="1267"/><glyph d="M467 1186l-215 350h217l154 -221l155 221h217l-219 -350h-309zM770 1141q197 0 306.5 -107.5t109.5 -304.5v-729h-326v690q0 168 -186 168q-100 0 -175 -51t-75 -135v-672h-326v1126h293l19 -137q61 70 159.5 111t200.5 41z" glyph-name="glyph645" horiz-adv-x="1267"/><glyph d="M770 1141q197 0 306.5 -107.5t109.5 -304.5v-729h-326v690q0 168 -186 168q-100 0 -175 -51t-75 -135v-672h-326v1126h293l19 -137q61 70 159.5 111t200.5 41zM553 -410q-51 18 -81 61.5t-30 96.5q0 70 48.5 118t117.5 48q68 0 115 -48t47 -118q0 -117 -147 -301h-170z " glyph-name="glyph646" horiz-adv-x="1267"/><glyph d="M622.5 1180q-69.5 0 -118.5 49t-49 118.5t49 119t118.5 49.5t119 -49.5t49.5 -119t-49.5 -118.5t-119 -49zM770 1141q197 0 306.5 -107.5t109.5 -304.5v-729h-326v690q0 168 -186 168q-100 0 -175 -51t-75 -135v-672h-326v1126h293l19 -137q61 70 159.5 111t200.5 41z " glyph-name="glyph647" horiz-adv-x="1267"/><glyph d="M770 1141q197 0 306.5 -107.5t109.5 -304.5v-729h-326v690q0 168 -186 168q-100 0 -175 -51t-75 -135v-672h-326v1126h293l19 -137q61 70 159.5 111t200.5 41zM622.5 -100q69.5 0 119 -49.5t49.5 -119t-49.5 -118.5t-119 -49t-118.5 49t-49 118.5t49 119t118.5 49.5z" glyph-name="glyph648" horiz-adv-x="1267"/><glyph d="M1186 729v-729h-25v-125q0 -193 -128 -282t-339 -89v197q82 0 125 33t43 141v125h-2v690q0 168 -186 168q-100 0 -175 -51t-75 -135v-672h-326v1126h293l19 -137q61 70 159.5 111t200.5 41q197 0 306.5 -107.5t109.5 -304.5z" glyph-name="glyph649" horiz-adv-x="1267"/><glyph d="M283 1178q-31 133 30.5 222t171.5 89q129 0 209 -119q20 -39 56 -39q37 0 47 39t-11 100h175q31 -131 -29 -220t-176 -89q-123 0 -207 119q-25 39 -55 39q-37 0 -47.5 -40t10.5 -101h-174zM770 1141q197 0 306.5 -107.5t109.5 -304.5v-729h-326v690q0 168 -186 168 q-100 0 -175 -51t-75 -135v-672h-326v1126h293l19 -137q61 70 159.5 111t200.5 41z" glyph-name="glyph650" horiz-adv-x="1267"/><glyph d="M594 -20q-231 0 -383 153.5t-152 378.5t151.5 378.5t383.5 153.5q229 0 381.5 -153.5t152.5 -378.5t-152.5 -378.5t-381.5 -153.5zM594 242q104 0 172 77.5t68 192.5t-68 193.5t-172 78.5q-106 0 -173 -77.5t-67 -194.5t67 -193.5t173 -76.5z" glyph-name="glyph651" horiz-adv-x="1181"/><glyph d="M657 1536h299l-243 -342h-226zM641 -14q-252 0 -417 166.5t-165 412.5t165 413t417 167t417 -167t165 -413t-165 -412.5t-417 -166.5zM641 270q115 0 188.5 85t73.5 210t-73.5 211t-188.5 86q-117 0 -189.5 -85t-72.5 -212t72.5 -211t189.5 -84z" glyph-name="glyph652" horiz-adv-x="1275"/><glyph d="M223 1536h217l154 -221l156 221h217l-219 -350h-310zM594 -20q-231 0 -383 153.5t-152 378.5t151.5 378.5t383.5 153.5q229 0 381.5 -153.5t152.5 -378.5t-152.5 -378.5t-381.5 -153.5zM594 242q104 0 172 77.5t68 192.5t-68 193.5t-172 78.5q-106 0 -173 -77.5 t-67 -194.5t67 -193.5t173 -76.5z" glyph-name="glyph653" horiz-adv-x="1181"/><glyph d="M498 1536h309l219 -350h-227l-146 221l-145 -221h-225zM641 -14q-252 0 -417 166.5t-165 412.5t165 413t417 167t417 -167t165 -413t-165 -412.5t-417 -166.5zM641 270q115 0 188.5 85t73.5 210t-73.5 211t-188.5 86q-117 0 -189.5 -85t-72.5 -212t72.5 -211t189.5 -84z " glyph-name="glyph654" horiz-adv-x="1275"/><glyph d="M438.5 1180q-69.5 0 -119 49t-49.5 118.5t49.5 119t119 49.5t118.5 -49.5t49 -119t-49 -118.5t-118.5 -49zM885 1180q-68 0 -118 49t-50 118.5t50 119t118 49.5q70 0 119 -49.5t49 -119t-49 -118.5t-119 -49zM641 -14q-252 0 -417 166.5t-165 412.5t165 413t417 167 t417 -167t165 -413t-165 -412.5t-417 -166.5zM641 270q115 0 188.5 85t73.5 210t-73.5 211t-188.5 86q-117 0 -189.5 -85t-72.5 -212t72.5 -211t189.5 -84z" glyph-name="glyph655" horiz-adv-x="1275"/><glyph d="M594 -20q-231 0 -383 153.5t-152 378.5t151.5 378.5t383.5 153.5q229 0 381.5 -153.5t152.5 -378.5t-152.5 -378.5t-381.5 -153.5zM594 242q104 0 172 77.5t68 192.5t-68 193.5t-172 78.5q-106 0 -173 -77.5t-67 -194.5t67 -193.5t173 -76.5zM594 -436q-70 0 -119 49 t-49 118.5t49 119t119 49.5t119 -49.5t49 -119t-49 -118.5t-119 -49z" glyph-name="glyph656" horiz-adv-x="1181"/><glyph d="M227 1536h299l170 -342h-223zM641 -14q-252 0 -417 166.5t-165 412.5t165 413t417 167t417 -167t165 -413t-165 -412.5t-417 -166.5zM641 270q115 0 188.5 85t73.5 210t-73.5 211t-188.5 86q-117 0 -189.5 -85t-72.5 -212t72.5 -211t189.5 -84z" glyph-name="glyph657" horiz-adv-x="1275"/><glyph d="M563 1536h279l-359 -365h-207zM987 1536h281l-359 -365h-207zM594 -20q-231 0 -383 153.5t-152 378.5t151.5 378.5t383.5 153.5q229 0 381.5 -153.5t152.5 -378.5t-152.5 -378.5t-381.5 -153.5zM594 242q104 0 172 77.5t68 192.5t-68 193.5t-172 78.5q-106 0 -173 -77.5 t-67 -194.5t67 -193.5t173 -76.5z" glyph-name="glyph658" horiz-adv-x="1320"/><glyph d="M276 1384h635v-188h-635v188zM594 -20q-231 0 -383 153.5t-152 378.5t151.5 378.5t383.5 153.5q229 0 381.5 -153.5t152.5 -378.5t-152.5 -378.5t-381.5 -153.5zM594 242q104 0 172 77.5t68 192.5t-68 193.5t-172 78.5q-106 0 -173 -77.5t-67 -194.5t67 -193.5t173 -76.5 z" glyph-name="glyph659" horiz-adv-x="1181"/><glyph d="M997 1030q209 -176 209 -461q0 -246 -163.5 -415.5t-409.5 -169.5q-147 0 -271 63l-75 -117h-137l116 181q-207 174 -207 458q0 250 163 418t411 168q141 0 268 -61l76 116h137zM377 569q0 -123 59 -196l303 469q-51 29 -106 28q-115 0 -185.5 -86t-70.5 -215zM633 272 q113 0 184.5 85t71.5 212q0 119 -62 199l-305 -471q48 -25 111 -25z" glyph-name="glyph660" horiz-adv-x="1259"/><glyph d="M709 1194h-226l170 342h299zM934 930q195 -158 194 -418q0 -225 -152.5 -378.5t-381.5 -153.5q-137 0 -252 57l-72 -107h-127l109 164q-193 156 -193 418q0 225 151.5 378.5t383.5 153.5q135 0 250 -57l71 107h127zM354 512q0 -111 56 -180l284 428q-47 25 -100 24 q-106 0 -173 -77.5t-67 -194.5zM594 242q104 0 172 77.5t68 192.5q0 102 -58 180l-284 -428q43 -22 102 -22z" glyph-name="glyph661" horiz-adv-x="1181"/><glyph d="M731 1161q-123 0 -207 119q-25 39 -55 39q-37 0 -47 -40t10 -101h-174q-31 133 30.5 222t172.5 89q129 0 209 -119q20 -39 55 -39q37 0 47 39t-10 100h174q31 -131 -28.5 -220t-176.5 -89zM641 -14q-252 0 -417 166.5t-165 412.5t165 413t417 167t417 -167t165 -413 t-165 -412.5t-417 -166.5zM641 270q115 0 188.5 85t73.5 210t-73.5 211t-188.5 86q-117 0 -189.5 -85t-72.5 -212t72.5 -211t189.5 -84z" glyph-name="glyph662" horiz-adv-x="1275"/><glyph d="M1894 565q0 -45 -6 -96h-758q14 -111 81 -173.5t167 -62.5q176 0 244 132h258q-29 -164 -161 -269.5t-349 -105.5q-233 0 -385 145q-164 -152 -401 -151q-252 0 -417 166.5t-165 412.5t165 413t417 167q238 0 397 -148q147 141 391 142q242 0 382 -154t140 -418z M1137 688h448q-33 203 -217 203q-188 0 -231 -203zM584 268q86 0 149.5 48.5t93.5 129.5q-10 61 -10 117q0 68 8 119q-29 80 -92 129t-149 49q-117 0 -188.5 -85t-71.5 -212t71.5 -211t188.5 -84z" glyph-name="glyph663" horiz-adv-x="1894"/><glyph d="M698 1044q207 0 341.5 -152.5t134.5 -379.5t-134.5 -379.5t-341.5 -152.5q-166 0 -280 110v-604l-295 2v1536h295v-90q114 110 280 110zM639 242q106 0 173 77.5t67 192.5t-67 193.5t-173 78.5q-74 0 -134.5 -46t-86.5 -120v-212q27 -74 86 -119t135 -45z" glyph-name="glyph664" horiz-adv-x="1234"/><glyph d="M737 1044q213 0 359.5 -153.5t146.5 -378.5q0 -223 -146.5 -377.5t-359.5 -154.5q-190 0 -315 131v-623h-299v2048h299v-623q125 131 315 131zM692 242q115 0 193 77.5t78 192.5t-79 193.5t-191.5 78.5t-191.5 -79.5t-79 -192.5t78.5 -191.5t191.5 -78.5z" glyph-name="glyph665" horiz-adv-x="1304"/><glyph d="M1112 1024v-1536l-295 -2v604q-115 -111 -278 -110q-209 0 -342.5 152.5t-133.5 379.5t133.5 379.5t342.5 152.5q164 0 278 -110v90h295zM598 242q74 0 132 44t87 117v218q-29 74 -88 118.5t-131 44.5q-106 0 -173 -77.5t-67 -194.5t67 -193.5t173 -76.5z" glyph-name="glyph666" horiz-adv-x="1234"/><glyph d="M774 1044v-231q-195 0 -290 -75.5t-95 -245.5v-492h-299v1024h299v-158q25 72 125 125t260 53z" glyph-name="glyph667" horiz-adv-x="800"/><glyph d="M580 1194h-226l170 342h299zM836 1139v-285q-215 0 -317.5 -81t-102.5 -286v-487h-326v1126h305l19 -153q31 66 139.5 116t282.5 50z" glyph-name="glyph668" horiz-adv-x="862"/><glyph d="M309 1186l-215 350h217l154 -221l156 221h217l-220 -350h-309zM836 1139v-285q-215 0 -317.5 -81t-102.5 -286v-487h-326v1126h305l19 -153q31 66 139.5 116t282.5 50z" glyph-name="glyph669" horiz-adv-x="864"/><glyph d="M836 1139v-285q-215 0 -317.5 -81t-102.5 -286v-487h-326v1126h305l19 -153q31 66 139.5 116t282.5 50zM203 -399q-51 18 -81 61t-30 96q0 70 48 118t118 48q68 0 115 -48t47 -118q0 -117 -148 -301h-170z" glyph-name="glyph670" horiz-adv-x="862"/><glyph d="M532 -20q-207 0 -328.5 105t-137.5 245h251q16 -68 76 -105t129 -32q125 8 125 100q0 45 -48 69.5t-148 53.5q-10 2 -17 4q-61 18 -98 29.5t-90 38t-83 54t-52.5 72.5t-22.5 101q0 147 118 238t310 91q152 0 275.5 -85t138.5 -244h-254q-27 100 -152 108q-59 4 -95 -15.5 t-36 -57.5q0 -14 5 -26.5t18.5 -23t26 -17.5t36 -16.5t40 -14.5t48 -14t49.5 -15q70 -23 118 -43.5t100.5 -56.5t80 -90t27.5 -126q0 -152 -111 -239.5t-299 -87.5z" glyph-name="glyph671" horiz-adv-x="1003"/><glyph d="M567 1536h299l-243 -342h-226zM573 -14q-225 0 -358 114.5t-149 266.5h274q18 -74 82.5 -114t140.5 -36q135 8 135 109q0 27 -16 47t-55 37.5t-68 26.5t-92 28q-84 23 -135 42t-114.5 56t-95.5 92.5t-32 130.5q0 162 128 260.5t339 98.5q164 0 299 -92t152 -267h-277 q-31 111 -166 119q-66 4 -104.5 -17.5t-38.5 -64.5q0 -16 6 -29.5t20.5 -24.5t27.5 -18.5t40 -17.5t44.5 -15t52 -15.5t53.5 -16.5q78 -25 129 -47.5t108.5 -61t87 -98t29.5 -137.5q0 -166 -121 -261t-326 -95z" glyph-name="glyph672" horiz-adv-x="1081"/><glyph d="M137 1536h217l154 -221l156 221h217l-219 -350h-310zM573 -14q-225 0 -358 114.5t-149 266.5h274q18 -74 82.5 -114t140.5 -36q135 8 135 109q0 27 -16 47t-55 37.5t-68 26.5t-92 28q-84 23 -135 42t-114.5 56t-95.5 92.5t-32 130.5q0 162 128 260.5t339 98.5 q164 0 299 -92t152 -267h-277q-31 111 -166 119q-66 4 -104.5 -17.5t-38.5 -64.5q0 -16 6 -29.5t20.5 -24.5t27.5 -18.5t40 -17.5t44.5 -15t52 -15.5t53.5 -16.5q78 -25 129 -47.5t108.5 -61t87 -98t29.5 -137.5q0 -166 -121 -261t-326 -95z" glyph-name="glyph673" horiz-adv-x="1081"/><glyph d="M573 -14q-225 0 -358 114.5t-149 266.5h274q18 -74 82.5 -114t140.5 -36q135 8 135 109q0 27 -16 47t-55 37.5t-68 26.5t-92 28q-84 23 -135 42t-114.5 56t-95.5 92.5t-32 130.5q0 162 128 260.5t339 98.5q164 0 299 -92t152 -267h-277q-31 111 -166 119 q-66 4 -104.5 -17.5t-38.5 -64.5q0 -16 6 -29.5t20.5 -24.5t27.5 -18.5t40 -17.5t44.5 -15t52 -15.5t53.5 -16.5q78 -25 129 -47.5t108.5 -61t87 -98t29.5 -137.5q0 -166 -121 -261t-326 -95zM596 -18l-59 -105q100 18 170.5 -36t70.5 -150q0 -94 -64.5 -158.5t-158.5 -64.5 q-76 0 -146.5 44t-93.5 107l129 45q16 -27 48 -45t63 -18q37 0 61.5 26.5t24.5 63.5q0 57 -48 74.5t-120 -15.5l-106 62l92 172z" glyph-name="glyph674" horiz-adv-x="1081"/><glyph d="M573 -14q-225 0 -358 114.5t-149 266.5h274q18 -74 82.5 -114t140.5 -36q135 8 135 109q0 27 -16 47t-55 37.5t-68 26.5t-92 28q-84 23 -135 42t-114.5 56t-95.5 92.5t-32 130.5q0 162 128 260.5t339 98.5q164 0 299 -92t152 -267h-277q-31 111 -166 119 q-66 4 -104.5 -17.5t-38.5 -64.5q0 -16 6 -29.5t20.5 -24.5t27.5 -18.5t40 -17.5t44.5 -15t52 -15.5t53.5 -16.5q78 -25 129 -47.5t108.5 -61t87 -98t29.5 -137.5q0 -166 -121 -261t-326 -95zM481 -473q-51 18 -80.5 61t-29.5 97q0 70 48 117.5t118 47.5q68 0 114.5 -48 t46.5 -117q0 -117 -147 -301h-170z" glyph-name="glyph675" horiz-adv-x="1081"/><glyph d="M573 -14q-225 0 -358 114.5t-149 266.5h274q18 -74 82.5 -114t140.5 -36q135 8 135 109q0 27 -16 47t-55 37.5t-68 26.5t-92 28q-84 23 -135 42t-114.5 56t-95.5 92.5t-32 130.5q0 162 128 260.5t339 98.5q164 0 299 -92t152 -267h-277q-31 111 -166 119 q-66 4 -104.5 -17.5t-38.5 -64.5q0 -16 6 -29.5t20.5 -24.5t27.5 -18.5t40 -17.5t44.5 -15t52 -15.5t53.5 -16.5q78 -25 129 -47.5t108.5 -61t87 -98t29.5 -137.5q0 -166 -121 -261t-326 -95zM538.5 -436q-69.5 0 -118.5 49t-49 118.5t49 119t118.5 49.5t119 -49.5 t49.5 -119t-49.5 -118.5t-119 -49z" glyph-name="glyph676" horiz-adv-x="1081"/><glyph d="M1081 803q96 -63 152.5 -163.5t56.5 -217.5q0 -184 -121.5 -313t-298.5 -129q-84 0 -187 27.5t-161 72.5l115 231q82 -59 176 -55q72 4 125 55t53 129q0 88 -66.5 150.5t-160.5 62.5h-82v244h33q84 0 145.5 58.5t61.5 140.5q0 78 -63.5 129t-160.5 51q-109 0 -179 -61.5 t-70 -155.5v-1059h-297v1059q0 207 155.5 342t386.5 135q221 0 364.5 -124t143.5 -312q0 -172 -121 -297z" glyph-name="glyph677" horiz-adv-x="1398"/><glyph d="M721 8q-41 -18 -105.5 -24.5t-141.5 10t-143.5 54.5t-111.5 119t-45 191v443h-123v223h123v348h299v-348h256v-223h-256v-445q0 -70 42 -107.5t97.5 -37.5t108.5 12v-215z" glyph-name="glyph678" horiz-adv-x="772"/><glyph d="M713 254h141v-256h-141q-90 0 -146.5 4t-124 25.5t-105.5 61.5t-64.5 113.5t-26.5 180.5v45h-195v168h195v278h-191v256h191v406h299v-406h305v-256h-305v-278h200v-168h-200v-25q0 -86 43 -117.5t125 -31.5z" glyph-name="glyph679" horiz-adv-x="917"/><glyph d="M733 1282q-51 18 -80.5 61t-29.5 97q0 70 48 118t117 48q68 0 115 -48.5t47 -117.5q0 -117 -147 -301h-170zM709 -2q-90 0 -146.5 4t-124 25.5t-105.5 61.5t-64.5 113.5t-26.5 180.5v491h-191v256h191v406h299v-406h305v-256h-305v-471q0 -86 43 -117.5t125 -31.5h141 v-256h-141z" glyph-name="glyph680" horiz-adv-x="993"/><glyph d="M709 -2q-90 0 -146.5 4t-124 25.5t-105.5 61.5t-64.5 113.5t-26.5 180.5v491h-191v256h191v406h299v-406h305v-256h-305v-471q0 -86 43 -117.5t125 -31.5h141v-256h-141zM508 -123q100 18 171 -36t71 -150q0 -94 -64.5 -158.5t-159.5 -64.5q-76 0 -146.5 44t-92.5 107 l129 45q16 -27 48 -45t62 -18q37 0 61.5 26.5t24.5 63.5q0 57 -48 74.5t-120 -15.5l-106 62l104 194l123 -18z" glyph-name="glyph681" horiz-adv-x="913"/><glyph d="M709 -2q-90 0 -146.5 4t-124 25.5t-105.5 61.5t-64.5 113.5t-26.5 180.5v491h-191v256h191v406h299v-406h305v-256h-305v-471q0 -86 43 -117.5t125 -31.5h141v-256h-141zM408 -459q-51 18 -81 61.5t-30 96.5q0 70 48 118t118 48q68 0 115 -48t47 -118q0 -117 -148 -301 h-170z" glyph-name="glyph682" horiz-adv-x="913"/><glyph d="M709 -2q-90 0 -146.5 4t-124 25.5t-105.5 61.5t-64.5 113.5t-26.5 180.5v491h-191v256h191v406h299v-406h305v-256h-305v-471q0 -86 43 -117.5t125 -31.5h141v-256h-141zM448.5 -100q69.5 0 118.5 -49.5t49 -119t-49 -118.5t-118.5 -49t-118.5 49t-49 118.5t49 119 t118.5 49.5z" glyph-name="glyph683" horiz-adv-x="913"/><glyph d="M1118 1024v-1024h-266l-16 121q-57 -66 -147.5 -103.5t-182.5 -37.5q-170 0 -277.5 112.5t-107.5 286.5v645h299v-608q0 -80 46 -127t126 -47q90 0 159.5 49t69.5 125v608h297z" glyph-name="glyph684" horiz-adv-x="1216"/><glyph d="M739 1194h-225l170 342h299zM1208 1126v-1126h-290l-19 141q-61 -72 -158.5 -111.5t-199.5 -39.5q-186 0 -303 121.5t-117 312.5v702h325v-663q0 -86 50.5 -137.5t138.5 -51.5q98 0 174 53.5t76 135.5v663h323z" glyph-name="glyph685" horiz-adv-x="1306"/><glyph d="M469 1186l-215 350h217l154 -221l155 221h217l-219 -350h-309zM1208 1126v-1126h-290l-19 141q-61 -72 -158.5 -111.5t-199.5 -39.5q-186 0 -303 121.5t-117 312.5v702h325v-663q0 -86 50.5 -137.5t138.5 -51.5q98 0 174 53.5t76 135.5v663h323z" glyph-name="glyph686" horiz-adv-x="1306"/><glyph d="M479 1186h-225l215 350h309l219 -350h-227l-145 221zM1208 1126v-1126h-290l-19 141q-61 -72 -158.5 -111.5t-199.5 -39.5q-186 0 -303 121.5t-117 312.5v702h325v-663q0 -86 50.5 -137.5t138.5 -51.5q98 0 174 53.5t76 135.5v663h323z" glyph-name="glyph687" horiz-adv-x="1306"/><glyph d="M401.5 1180q-69.5 0 -119 49t-49.5 118.5t49.5 119t119 49.5t118.5 -49.5t49 -119t-49 -118.5t-118.5 -49zM848 1180q-68 0 -118 49t-50 118.5t50 119t118 49.5q70 0 119 -49.5t49 -119t-49 -118.5t-119 -49zM1208 1126v-1126h-290l-19 141q-61 -72 -158.5 -111.5 t-199.5 -39.5q-186 0 -303 121.5t-117 312.5v702h325v-663q0 -86 50.5 -137.5t138.5 -51.5q98 0 174 53.5t76 135.5v663h323z" glyph-name="glyph688" horiz-adv-x="1306"/><glyph d="M500 1194l-246 342h299l170 -342h-223zM1208 1126v-1126h-290l-19 141q-61 -72 -158.5 -111.5t-199.5 -39.5q-186 0 -303 121.5t-117 312.5v702h325v-663q0 -86 50.5 -137.5t138.5 -51.5q98 0 174 53.5t76 135.5v663h323z" glyph-name="glyph689" horiz-adv-x="1306"/><glyph d="M514 1171h-207l287 365h278zM733 1171l285 365h280l-358 -365h-207zM1208 1126v-1126h-290l-19 141q-61 -72 -158.5 -111.5t-199.5 -39.5q-186 0 -303 121.5t-117 312.5v702h325v-663q0 -86 50.5 -137.5t138.5 -51.5q98 0 174 53.5t76 135.5v663h323z" glyph-name="glyph690" horiz-adv-x="1396"/><glyph d="M942 1196h-635v188h635v-188zM1208 1126v-1126h-290l-19 141q-61 -72 -158.5 -111.5t-199.5 -39.5q-186 0 -303 121.5t-117 312.5v702h325v-663q0 -86 50.5 -137.5t138.5 -51.5q98 0 174 53.5t76 135.5v663h323z" glyph-name="glyph691" horiz-adv-x="1306"/><glyph d="M1122 -276l95 -132q-133 -137 -330 -122q-119 8 -192.5 66t-73.5 169q0 197 233 295h64l-19 141q-61 -72 -158.5 -111.5t-199.5 -39.5q-186 0 -303 121.5t-117 312.5v702h325v-663q0 -86 50.5 -137.5t138.5 -51.5q98 0 174 53.5t76 135.5v663h323v-1126h-86 q-137 0 -220 -87t-83 -183q0 -51 32 -83t87 -32q53 0 104 31t80 78z" glyph-name="glyph692" horiz-adv-x="1314"/><glyph d="M625 1130q-100 0 -171 71t-71 171q0 96 70.5 167t171.5 71q98 0 167.5 -71t69.5 -167q0 -100 -69.5 -171t-167.5 -71zM624.5 1491q-49.5 0 -82 -35t-32.5 -84q0 -53 32.5 -86t82 -33t83 33t33.5 86q0 49 -33.5 84t-83 35zM1208 1126v-1126h-290l-19 141 q-61 -72 -158.5 -111.5t-199.5 -39.5q-186 0 -303 121.5t-117 312.5v702h325v-663q0 -86 50.5 -137.5t138.5 -51.5q98 0 174 53.5t76 135.5v663h323z" glyph-name="glyph693" horiz-adv-x="1306"/><glyph d="M1094 1024l-412 -1024h-283l-409 1024h319l232 -696l233 696h320z" glyph-name="glyph694" horiz-adv-x="1083"/><glyph d="M1595 1024l-329 -1024h-336l-123 436l-123 -436h-336l-332 1024h338l170 -684l170 684h250l166 -684l152 684h333z" glyph-name="glyph695" horiz-adv-x="1611"/><glyph d="M944 1194h-225l170 342h299zM1749 1126l-360 -1126h-367l-133 481l-133 -481h-367l-362 1126h368l187 -751l184 751h272l181 -751l165 751h365z" glyph-name="glyph696" horiz-adv-x="1755"/><glyph d="M762 1186h-225l215 350h309l219 -350h-227l-146 221zM1749 1126l-360 -1126h-367l-133 481l-133 -481h-367l-362 1126h368l187 -751l184 751h272l181 -751l165 751h365z" glyph-name="glyph697" horiz-adv-x="1755"/><glyph d="M686 1180q-70 0 -119 49t-49 118.5t49 119t119 49.5t119 -49.5t49 -119t-49 -118.5t-119 -49zM1133 1180q-68 0 -118 49t-50 118.5t50 119t118 49.5q70 0 118.5 -49.5t48.5 -119t-48.5 -118.5t-118.5 -49zM1749 1126l-360 -1126h-367l-133 481l-133 -481h-367l-362 1126 h368l187 -751l184 751h272l181 -751l165 751h365z" glyph-name="glyph698" horiz-adv-x="1755"/><glyph d="M684 1194l-246 342h299l170 -342h-223zM1749 1126l-360 -1126h-367l-133 481l-133 -481h-367l-362 1126h368l187 -751l184 751h272l181 -751l165 751h365z" glyph-name="glyph699" horiz-adv-x="1755"/><glyph d="M788 510l351 -510h-338l-191 299l-188 -299h-340l348 512l-348 512h336l192 -301l193 301h336z" glyph-name="glyph700" horiz-adv-x="1261"/><glyph d="M1180 1026l-621 -1544h-268l211 518l-428 1026h293l276 -647l254 647h283z" glyph-name="glyph701" horiz-adv-x="1230"/><glyph d="M739 1194h-225l170 342h299zM1278 1126l-676 -1693h-293l262 651h-67l-430 1042h319l301 -716l277 716h307z" glyph-name="glyph702" horiz-adv-x="1329"/><glyph d="M479 1186h-225l215 350h309l219 -350h-227l-145 221zM1278 1126l-676 -1693h-293l262 651h-67l-430 1042h319l301 -716l277 716h307z" glyph-name="glyph703" horiz-adv-x="1329"/><glyph d="M401.5 1180q-69.5 0 -119 49t-49.5 118.5t49.5 119t119 49.5t118.5 -49.5t49 -119t-49 -118.5t-118.5 -49zM848 1180q-68 0 -118 49t-50 118.5t50 119t118 49.5q70 0 119 -49.5t49 -119t-49 -118.5t-119 -49zM1278 1126l-676 -1693h-293l262 651h-67l-430 1042h319 l301 -716l277 716h307z" glyph-name="glyph704" horiz-adv-x="1329"/><glyph d="M500 1194l-246 342h299l170 -342h-223zM1278 1126l-676 -1693h-293l262 651h-67l-430 1042h319l301 -716l277 716h307z" glyph-name="glyph705" horiz-adv-x="1329"/><glyph d="M109 219l514 561h-512v244h888v-215l-516 -565h521v-244h-895v219z" glyph-name="glyph706" horiz-adv-x="1064"/><glyph d="M629 1536h299l-244 -342h-225zM109 219l514 561h-512v244h888v-215l-516 -565h521v-244h-895v219z" glyph-name="glyph707" horiz-adv-x="1064"/><glyph d="M199 1536h217l153 -221l156 221h217l-219 -350h-309zM109 219l514 561h-512v244h888v-215l-516 -565h521v-244h-895v219z" glyph-name="glyph708" horiz-adv-x="1064"/><glyph d="M569.5 1180q-69.5 0 -119 49t-49.5 118.5t49.5 119t119 49.5t118.5 -49.5t49 -119t-49 -118.5t-118.5 -49zM109 219l514 561h-512v244h888v-215l-516 -565h521v-244h-895v219z" glyph-name="glyph709" horiz-adv-x="1064"/><glyph d="M109 219l514 561h-512v244h888v-215l-516 -565h521v-244h-895v219zM557 -436q-70 0 -119 49t-49 118.5t49 119t119 49.5t119 -49.5t49 -119t-49 -118.5t-119 -49z" glyph-name="glyph710" horiz-adv-x="1064"/><glyph d="M1235 1137v-1112q0 -254 -157.5 -408t-415.5 -154q-152 0 -267.5 45.5t-178 115t-93.5 139t-33 133.5h250q14 -88 117.5 -145.5t220.5 -45.5q104 12 168.5 94t64.5 226v94q-125 -121 -303 -121q-227 0 -372.5 167t-145.5 414.5t145.5 413.5t372.5 166q195 0 322 -137 l14 115h291zM672 285q80 0 144.5 48t94.5 128v237q-31 80 -95 129.5t-144 49.5q-117 0 -188.5 -86t-71.5 -211q0 -127 71.5 -211t188.5 -84z" glyph-name="glyph711" horiz-adv-x="1368"/><glyph d="M262 0v872h-172v224h172v63q0 158 94.5 267.5t251.5 121.5q78 6 158 -12t108 -41v-227q-47 29 -108 40t-121 -12q-86 -45 -86 -157v-43h246v-224h-246v-872h-297zM1182 1210q-66 0 -114 47.5t-48 115t48 115.5t114 48q68 0 116 -48t48 -115.5t-48 -115t-116 -47.5z M1026 1126h320v-1126h-320v1126z" glyph-name="glyph712" horiz-adv-x="1480"/><glyph d="M262 0v872h-172v224h172v63q0 158 94.5 267.5t251.5 121.5q78 6 158 -12t108 -41v-227q-47 29 -108 40t-121 -12q-86 -45 -86 -157v-43h246v-224h-246v-872h-297zM1094 0v1536h299v-1536h-299z" glyph-name="glyph713" horiz-adv-x="1560"/><glyph d="M723 1536v-614h-143v100q-82 -113 -224 -113q-127 0 -217 93.5t-90 226.5t90 226t217 93q137 0 224 -112v100h143zM385 1034q82 0 138.5 57.5t56.5 137.5t-56.5 137t-138.5 57q-80 0 -136 -57t-56 -137t56 -137.5t136 -57.5z" glyph-name="glyph714" horiz-adv-x="819"/><glyph d="M385 909q-139 0 -237.5 93.5t-98.5 226.5t98.5 226t237.5 93q141 0 239.5 -93t98.5 -226t-98.5 -226.5t-239.5 -93.5zM385 1034q82 0 138.5 57.5t56.5 137.5t-56.5 137t-138.5 57q-80 0 -136 -57t-56 -137t56 -137.5t136 -57.5z" glyph-name="glyph715" horiz-adv-x="772"/><glyph d="M55 156l574 1396h336l561 -1394v-158h-1471v156zM1204 246l-274 663q-8 23 -65.5 178.5t-73.5 208.5h-15q-10 -39 -61 -176t-66 -176l-289 -698h844z" glyph-name="glyph716" horiz-adv-x="1581"/><glyph d="M1247 0l-454 1192l-457 -1192h-334l616 1536h347l616 -1536h-334z" glyph-name="glyph717" horiz-adv-x="1585"/><glyph d="M137 1536h918v-268h-918v268zM260 903h672v-270h-672v270zM137 270h918v-270h-918v270z" glyph-name="glyph718" horiz-adv-x="1208"/></font>
</defs>
</svg>
